Subcategories

Sheryl Crow - C'mon, C'mon (2002) {Japanese Edition}

Posted By: popsakov
Sheryl Crow - C'mon, C'mon (2002) {Japanese Edition}

Sheryl Crow - C'mon, C'mon (2002) {Japanese Edition}
EAC Rip | FLAC (Img) + Cue + Log ~ 520 Mb | MP3 CBR320 ~ 168 Mb
Full Scans (JPG, 600 dpi) ~ 143 Mb | RAR 5% Recovery
Alternative Rock, Country Rock, Pop Rock | A&M Records / Universal Music #UICA-1006 #UICA-1006

It's hard to call The Globe Sessions a stumble, but its stripped-down, straightforwardness paled in comparison to the dark pop-culture kaleidoscope of Sheryl Crow's eponymous second album. That's why C'mon, C'mon, Crow's long-delayed fourth album, is such a delight – it's the sunny flip side of that masterpiece, a skillful synthesis of classic rock and modern sensibilities that's pretty irresistible. Crow has turned into the professional she always acted she was – she not only crafts songs impeccably, she knows how to record them, filling the record with interesting sonic details, whether it's the Steve Miller-styled "woo hoo"s on "Steve McQueen" or subtle Mellotrons on "Over You." That kind of sly sonic adventure was missing from Globe Sessions, as was her predilection for almost-absurd lyrical asides – check the digital cable reference on the lead single, "Soak Up the Sun," along with its opening line of "My friend, the communist" – and the return of both makes C'mon, C'mon a delightful return to form. There's so much to enjoy on the surface of the record, particularly in its unashamed glossy sheen and classically structured hooks, that it's easy to enjoy just on that level, yet it also works as a set of songs nearly as consistent and rich as those on her second album. Where Sheryl Crow was a quintessential fall album – even at its happiest, there was an undercurrent of melancholy and weariness – this is a record designed for the sunkissed open road of spring and summer. Even when she's singing about heartache, there's an assured sense of purpose, even a swagger, to this album that shines through. Yet it doesn't just work a mood, it showcases her skills at a peak. It's Sheryl Crow at her best, delivering music that is firmly rooted in the past, yet recorded and performed with a modern feel and flair, something that was absent from The Globe Sessions. It's pretty much what the follow-up to Sheryl Crow should have been and what she needed to release for her fourth album, but even better than expected.
~ Stephen Thomas Erlewine, All Music

***************

Sheryl Crow - C'mon, C'mon (2002) {Japanese Edition}

Track List:

01. Steve McQueen [0:03:25.55]
02. Soak Up The Sun [0:04:52.25]
03. You're An Original [0:04:18.15]
04. Safe And Sound [0:04:32.17]
05. C'mon C'mon [0:04:45.53]
06. It's So Easy [0:03:24.67]
07. Over You [0:04:38.73]
08. Lucky Kid [0:04:02.35]
09. Diamond Road [0:04:09.70]
10. It's Only Love [0:05:05.22]
11. Abilene [0:04:05.68]
12. Hole In My Pocket [0:04:37.22]
13. Weather Channel [0:04:42.08]
14. Missing [0:04:27.12]
15. I Want You [0:04:55.33]
16. You're Not The One [0:04:06.65]

Personnel:
Sheryl Crow – organ, acoustic guitar, bass, piano, accordion, electric guitar, keyboards, Hammond organ, vocals, chorus, Fender Rhodes, Wurlitzer, Moog bass, tambo drums, Moroccan drum
Lenny Kravitz – vocals on "You're an Original"
Don Henley – co-lead vocals on "It's So Easy"
Don Henley, Emmylou Harris, Gwyneth Paltrow, Liz Phair, Natalie Maines, Stevie Nicks – vocals
Doyle Bramhall II – guitar, electric guitar, background vocals
Tim Smith – acoustic guitar, bass, electric guitar, background vocals
Wendy Melvoin – electric guitar
Craig Ross – guitar, electric guitar, rhythm guitar
Douglas Grean – electric guitar, keyboards
Jeff Trott – acoustic guitar, bass, electric guitar, lap steel guitar, drum programming
Peter Stroud – acoustic guitar, guitar, electric guitar, background vocals, slide guitar, Wurlitzer, acoustic 12 string guitar, drum loops
Jeff Anthony – drums, drum programming
Steve Jordan – drums, tambo drums, Moroccan drum
Brian MacLeod – drum fills
Shawn Pelton – drums, bells, drum loops
Keith Schreiner – drum programming
Lenny Castro – percussion, conga, shaker
Jeremy Stacey – percussion, drums, toy piano, synthesizer strings, Moog lead, drum loops, string arrangements
Keith Ciancia – organ, keyboards, string samples
Benmont Tench – organ, piano, Hammond organ
Brad Jones, Mike Elizondo – bass
Davey Faragher – upright bass
John Shanks – bass, electric guitar, drum loops, percussion programming
Berj Garabedian, Charlie Bisharat, Hiroko Taguchi, Jill Jaffe, Joan Wasser, Joe Deninzon, Joyce Hammann, Marti Sweet, Matthew Pierce, Michele Richards, Paul Peabody, Soozie Tyrell – violin
Joel Derouin – violin, concert master
Antoine Silverman – violin, concert master
Lorenza Ponce – violin, string arrangements
David Gold, Debra Shufelt, Evan Wilson, Matt Funes, Ron Lawrence – viola
Matthew Brubeck – cello, string arrangements
Suzie Katayama – cello, concert master
Jane Scarpantoni – cello, contractor
Daniel Smith, Garo Yellin, Julia Kent, Rudy Stein, Michelle Kinney – cello

Exact Audio Copy V1.3 from 2. September 2016

EAC extraction logfile from 13. November 2017, 21:45

Sheryl Crow / C'mon, C'mon

Used drive : ATAPI iHAS124 D Adapter: 0 ID: 2

Read mode : Secure
Utilize accurate stream : Yes
Defeat audio cache : Yes
Make use of C2 pointers : No

Read offset correction : 6
Overread into Lead-In and Lead-Out : No
Fill up missing offset samples with silence : Yes
Delete leading and trailing silent blocks : No
Null samples used in CRC calculations : Yes
Used interface : Installed external ASPI interface

Used output format : User Defined Encoder
Selected bitrate : 1024 kBit/s
Quality : High
Add ID3 tag : No
Command line compressor : C:\Program Files (x86)\Exact Audio Copy\Flac\flac.exe
Additional command line options : -6 -V -T "ARTIST=%artist%" -T "TITLE=%title%" -T "ALBUM=%albumtitle%" -T "DATE=%year%" -T "TRACKNUMBER=%tracknr%" -T "GENRE=%genre%" -T "COMMENT=%comment%" -T "BAND=%albuminterpret%" -T "ALBUMARTIST=%albuminterpret%" -T "COMPOSER=%composer%" %haslyrics%–tag-from-file=LYRICS="%lyricsfile%"%haslyrics% -T "DISCNUMBER=%cdnumber%" -T "TOTALDISCS=%totalcds%" -T "TOTALTRACKS=%numtracks%" %hascover%–picture="%coverfile%"%hascover% %source% -o %dest%


TOC of the extracted CD

Track | Start | Length | Start sector | End sector
––––––––––––––––––––––––––––-
1 | 0:00.00 | 3:25.55 | 0 | 15429
2 | 3:25.55 | 4:52.25 | 15430 | 37354
3 | 8:18.05 | 4:18.15 | 37355 | 56719
4 | 12:36.20 | 4:32.17 | 56720 | 77136
5 | 17:08.37 | 4:45.53 | 77137 | 98564
6 | 21:54.15 | 3:24.67 | 98565 | 113931
7 | 25:19.07 | 4:38.73 | 113932 | 134854
8 | 29:58.05 | 4:02.35 | 134855 | 153039
9 | 34:00.40 | 4:09.70 | 153040 | 171784
10 | 38:10.35 | 5:05.22 | 171785 | 194681
11 | 43:15.57 | 4:05.68 | 194682 | 213124
12 | 47:21.50 | 4:37.22 | 213125 | 233921
13 | 51:58.72 | 4:42.08 | 233922 | 255079
14 | 56:41.05 | 4:27.12 | 255080 | 275116
15 | 61:08.17 | 4:55.33 | 275117 | 297274
16 | 66:03.50 | 4:06.65 | 297275 | 315789


Range status and errors

Selected range

Filename C:\mm\Sheryl Crow\2002 - C'mon, C'mon [UICA-1006]\Sheryl Crow - C'mon, C'mon.wav

Peak level 100.0 %
Extraction speed 9.2 X
Range quality 100.0 %
Test CRC 4766F576
Copy CRC 4766F576
Copy OK

No errors occurred


AccurateRip summary

Track 1 accurately ripped (confidence 4) [6682010E] (AR v1)
Track 2 accurately ripped (confidence 4) [0D7D3AE6] (AR v1)
Track 3 accurately ripped (confidence 4) [7B6B620F] (AR v1)
Track 4 accurately ripped (confidence 4) [DD993E5B] (AR v1)
Track 5 accurately ripped (confidence 4) [4BF83DA8] (AR v1)
Track 6 accurately ripped (confidence 4) [98BC6BD5] (AR v1)
Track 7 accurately ripped (confidence 4) [DA03C93F] (AR v1)
Track 8 accurately ripped (confidence 4) [8DD14562] (AR v1)
Track 9 accurately ripped (confidence 4) [7B765F9C] (AR v1)
Track 10 accurately ripped (confidence 4) [435F4134] (AR v1)
Track 11 accurately ripped (confidence 4) [CBA9AA6D] (AR v1)
Track 12 accurately ripped (confidence 4) [BD5BFF32] (AR v1)
Track 13 accurately ripped (confidence 4) [F53F39B1] (AR v1)
Track 14 accurately ripped (confidence 4) [763BBAD7] (AR v1)
Track 15 accurately ripped (confidence 4) [3E115B81] (AR v1)
Track 16 accurately ripped (confidence 4) [71D2D2AA] (AR v1)

All tracks accurately ripped

End of status report

–– CUETools DB Plugin V2.1.6

[CTDB TOCID: LjJSG0KP2.vpQiswHaFWOWl9JmI-] found
Submit result: LjJSG0KP2.vpQiswHaFWOWl9JmI- has been confirmed
Track | CTDB Status
1 | (74/75) Accurately ripped
2 | (74/75) Accurately ripped
3 | (74/75) Accurately ripped
4 | (74/75) Accurately ripped
5 | (74/75) Accurately ripped
6 | (74/75) Accurately ripped
7 | (74/75) Accurately ripped
8 | (75/75) Accurately ripped
9 | (74/75) Accurately ripped
10 | (75/75) Accurately ripped
11 | (74/75) Accurately ripped
12 | (74/75) Accurately ripped
13 | (72/75) Accurately ripped
14 | (72/75) Accurately ripped
15 | (72/75) Accurately ripped
16 | (69/75) Accurately ripped, or (2/75) differs in 3830 samples @04:06:48-04:06:55

foobar2000 1.3.16 / Dynamic Range Meter 1.1.1
log date: 2017-12-09 11:56:14

––––––––––––––––––––––––––––––––––––––––
Analyzed: Sheryl Crow / C'mon, C'mon
––––––––––––––––––––––––––––––––––––––––

DR Peak RMS Duration Track
––––––––––––––––––––––––––––––––––––––––
DR5 0.00 dB -6.95 dB 3:26 01-Steve McQueen
DR6 0.00 dB -7.76 dB 4:52 02-Soak Up The Sun
DR6 0.00 dB -8.11 dB 4:18 03-You're An Original
DR4 0.00 dB -8.16 dB 4:32 04-Safe And Sound
DR5 0.00 dB -6.55 dB 4:46 05-C'mon C'mon
DR5 0.00 dB -7.65 dB 3:25 06-It's So Easy
DR5 0.00 dB -6.66 dB 4:39 07-Over You
DR5 0.00 dB -7.85 dB 4:02 08-Lucky Kid
DR5 0.00 dB -6.44 dB 4:10 09-Diamond Road
DR4 0.00 dB -6.20 dB 5:05 10-It's Only Love
DR5 -0.01 dB -6.15 dB 4:06 11-Abilene
DR6 0.00 dB -7.22 dB 4:37 12-Hole In My Pocket
DR9 -0.01 dB -11.61 dB 4:42 13-Weather Channel
DR6 0.00 dB -7.93 dB 4:27 14-Missing
DR5 0.00 dB -6.28 dB 4:55 15-I Want You
DR6 0.00 dB -8.65 dB 4:07 16-You're Not The One
––––––––––––––––––––––––––––––––––––––––

Number of tracks: 16
Official DR value: DR6

Samplerate: 44100 Hz
Channels: 2
Bits per sample: 16
Bitrate: 988 kbps
Codec: FLAC
================================================================================

[CUETools log; Date: 09.12.2017 11:56:33; Version: 2.1.5]
[CTDB TOCID: LjJSG0KP2.vpQiswHaFWOWl9JmI-] found.
Track | CTDB Status
1 | (76/77) Accurately ripped
2 | (76/77) Accurately ripped
3 | (76/77) Accurately ripped
4 | (76/77) Accurately ripped
5 | (76/77) Accurately ripped
6 | (76/77) Accurately ripped
7 | (76/77) Accurately ripped
8 | (77/77) Accurately ripped
9 | (76/77) Accurately ripped
10 | (77/77) Accurately ripped
11 | (76/77) Accurately ripped
12 | (76/77) Accurately ripped
13 | (74/77) Accurately ripped
14 | (74/77) Accurately ripped
15 | (74/77) Accurately ripped
16 | (71/77) Accurately ripped, or (2/77) differs in 3830 samples @04:06:48-04:06:55
[AccurateRip ID: 00285762-01e677bc-bb107210] found.
Track [ CRC | V2 ] Status
01 [6682010e|7be48d32] (04+00/37) Accurately ripped
02 [0d7d3ae6|cad17ddd] (04+00/37) Accurately ripped
03 [7b6b620f|a0cc8dc4] (04+00/36) Accurately ripped
04 [dd993e5b|b318ac9c] (04+00/36) Accurately ripped
05 [4bf83da8|a2f5d53a] (04+00/36) Accurately ripped
06 [98bc6bd5|9a68122a] (04+00/36) Accurately ripped
07 [da03c93f|ac9f0675] (04+00/36) Accurately ripped
08 [8dd14562|c72d1518] (04+00/35) Accurately ripped
09 [7b765f9c|e083554d] (04+00/36) Accurately ripped
10 [435f4134|f65bf733] (04+00/35) Accurately ripped
11 [cba9aa6d|2e216b01] (04+00/36) Accurately ripped
12 [bd5bff32|6207cce4] (04+00/36) Accurately ripped
13 [f53f39b1|076bafae] (04+00/35) Accurately ripped
14 [763bbad7|75086f34] (04+00/38) Accurately ripped
15 [3e115b81|d0a57a12] (04+00/36) Accurately ripped
16 [71d2d2aa|b55769ef] (04+00/32) Accurately ripped
Offsetted by 61:
01 [1f2b2118] (05/37) Accurately ripped
02 [918fdd7f] (05/37) Accurately ripped
03 [fbd92ee3] (05/36) Accurately ripped
04 [8c9a4cda] (05/36) Accurately ripped
05 [8c3675d3] (05/36) Accurately ripped
06 [8e164597] (05/36) Accurately ripped
07 [16fd5475] (05/36) Accurately ripped
08 [b4fcc50e] (05/35) Accurately ripped
09 [5f0ffc10] (05/36) Accurately ripped
10 [4390b435] (05/35) Accurately ripped
11 [01691b32] (05/36) Accurately ripped
12 [2b05d1ac] (05/36) Accurately ripped
13 [56bfe6d7] (05/35) Accurately ripped
14 [13f18040] (05/38) Accurately ripped
15 [326b2f9a] (05/36) Accurately ripped
16 [02d53b7c] (05/32) Accurately ripped
Offsetted by 195:
01 [eb5fb304] (02/37) Accurately ripped
02 [2500254d] (02/37) Accurately ripped
03 [bdd6f93b] (02/36) Accurately ripped
04 [c5b19adc] (02/36) Accurately ripped
05 [4bb28c7d] (02/36) Accurately ripped
06 [8bad7c13] (02/36) Accurately ripped
07 [ba4fac09] (02/36) Accurately ripped
08 [3d6b71f5] (02/35) Accurately ripped
09 [a5dac719] (02/36) Accurately ripped
10 [b129b72c] (02/35) Accurately ripped
11 [6d0d3d4f] (02/36) Accurately ripped
12 [1bec2eb8] (02/36) Accurately ripped
13 [0b5caa8b] (02/35) Accurately ripped
14 [1ea6926e] (02/38) Accurately ripped
15 [eedc9468] (02/36) Accurately ripped
16 [bf47a3d8] (02/32) Accurately ripped
Offsetted by -3:
01 [8fc96c98] (00/37) No match (V2 was not tested)
02 [aaaa7a3f] (00/37) No match (V2 was not tested)
03 [4b22d5e3] (00/36) No match (V2 was not tested)
04 [a6d3f21a] (00/36) No match (V2 was not tested)
05 [3c385413] (00/36) No match (V2 was not tested)
06 [d4038b17] (00/36) No match (V2 was not tested)
07 [8fabf8f5] (00/36) No match (V2 was not tested)
08 [df7f0b18] (00/35) No match (V2 was not tested)
09 [1b1bbb1a] (00/36) No match (V2 was not tested)
10 [8bb7217f] (00/35) No match (V2 was not tested)
11 [03372cc0] (00/36) No match (V2 was not tested)
12 [b7f7512c] (00/36) No match (V2 was not tested)
13 [f8d85f57] (00/35) No match (V2 was not tested)
14 [c2695900] (00/38) No match (V2 was not tested)
15 [c921ec5a] (00/36) No match (V2 was not tested)
16 [cb376cfc] (00/32) No match (V2 was not tested)
Offsetted by 101:
01 [f8c831e8] (00/37) No match (V2 was not tested)
02 [61df3b87] (00/37) No match (V2 was not tested)
03 [2a4b2683] (00/36) No match (V2 was not tested)
04 [bc364592] (00/36) No match (V2 was not tested)
05 [5e354aeb] (00/36) No match (V2 was not tested)
06 [2261fa27] (00/36) No match (V2 was not tested)
07 [4b902da5] (00/36) No match (V2 was not tested)
08 [4c90d65b] (00/35) No match (V2 was not tested)
09 [f4c90907] (00/36) No match (V2 was not tested)
10 [d1260103] (00/35) No match (V2 was not tested)
11 [b7cf2720] (00/36) No match (V2 was not tested)
12 [72eee1fc] (00/36) No match (V2 was not tested)
13 [d1709b87] (00/35) No match (V2 was not tested)
14 [c6e698c8] (00/38) No match (V2 was not tested)
15 [f438f9a2] (00/36) No match (V2 was not tested)
16 [0597dc8c] (00/32) No match (V2 was not tested)
Offsetted by 284:
01 [22c39206] (00/37) No match (V2 was not tested)
02 [ee172352] (00/37) No match (V2 was not tested)
03 [ab948cff] (00/36) No match (V2 was not tested)
04 [c939710f] (00/36) No match (V2 was not tested)
05 [1eeff36c] (00/36) No match (V2 was not tested)
06 [026f876d] (00/36) No match (V2 was not tested)
07 [027ccf47] (00/36) No match (V2 was not tested)
08 [a2874590] (00/35) No match (V2 was not tested)
09 [6976f352] (00/36) No match (V2 was not tested)
10 [99302c68] (00/35) No match (V2 was not tested)
11 [228eb19d] (00/36) No match (V2 was not tested)
12 [bbec596a] (00/36) No match (V2 was not tested)
13 [f5f2a2f9] (00/35) No match (V2 was not tested)
14 [a007e903] (00/38) No match (V2 was not tested)
15 [d14675ed] (00/36) No match (V2 was not tested)
16 [b89f1702] (00/32) No match (V2 was not tested)

Track Peak [ CRC32 ] [W/O NULL] [ LOG ]
– 99,9 [4766F576] [49C8B441] CRC32
01 99,9 [73ECCCC5] [4C6034FE]
02 99,9 [AB1965D9] [2AEC9E8B]
03 99,9 [7AACECE5] [C8A41605]
04 99,9 [DC336A05] [6532B805]
05 99,9 [2634C283] [2B2B65F3]
06 99,9 [C5194014] [57D9EB81]
07 99,9 [D8C3CC6D] [C8A63361]
08 99,9 [80A7DBFA] [30D48D83]
09 99,9 [CBEFA1E6] [9E659850]
10 99,9 [E5335E0F] [4DC53F62]
11 99,9 [97301D9E] [DAB04430]
12 99,9 [552017A7] [14A705A8]
13 99,9 [0E7A71D1] [D8B86FFE]
14 99,9 [496ABF4A] [4DCB2007]
15 99,9 [D6C98CF2] [67B98AB4]
16 99,9 [7277A41C] [825AE1B7]

Sheryl Crow - C'mon, C'mon (2002) {Japanese Edition}

See also:
Sheryl Crow - 100 Miles From Memphis (2010) {Limited Edition}
Sheryl Crow - Feels Like Home (2013)

All thanks go to sergych

>>> My Blog <<<

Download from icerbox.com: