Subcategories
Tags
Language
Tags

Sheshet - Sheshet (1977) [Reissue 2007]

Posted By: gribovar
Sheshet - Sheshet (1977) [Reissue 2007]

Sheshet - Sheshet (1977) [Reissue 2007]
EAC Rip | FLAC (tracks+.cue+log) - 428 MB | MP3 CBR 320 kbps (LAME 3.93) - 159 MB | Covers - 56 MB
Genre: Progressive Rock | RAR 3% Rec. | Label: NMC Music (82366-2-NMCX)

Israel presents a very interesting and varied progressive rock scene specially during the 70's and 80's and a remarkable classic rock and folk variety of very talented artists (including Matti Caspi, Yehudith Ravitz, Arik Einstein, etc). One of the major exponents of these musical tendencies (yes, all of them +jazz) is Shem-Tov Levi with his characteristic flute and skilled piano playing accompanied by his very competent singing. Prog-wise Levi is one of the epicenters of the Israeli branch being part of projects such as Ktzat Acheret, Tzlil Mechuvan, The Family Album (with Schlomo Gronich) and in 1976 decided to form a new group: Sheshet. For this he teamed with one of the most beautiful voices in music (specifically israeli folk and pop), Yehudith Ravitz.
Levi and Ravitz have always surrounded themselves with very talented artists (being the duets Levi-Gronich and Rechter-Ravitz very enjoyable and progy) , this is no exception since for this album they recruited a group of brilliant artists of rock (Aroch played with Arik Einstein and Shalom Hanoch on israeli rock cornerstone album/rock opera Shablool) and jazz (being Renert a very respected jazz pianist) backgrounds. So what you would expect here is an amazing fusion album (lots of Chick Corea influences) with hints of Gentle Giant (it seems that every israeli band of the era was influenced by the Shulman brothers and co.) and somewhat of a Canterbury atmosphere (the israeli scene has lots of humor and craziness + some tendencies towards a jazzy sound). When the band was founded they had many troubles getting gigs which is the main reason of their short existence, but an executive of a recording company convinced them to reunite and record the album.

CD 1 Tracklist:
01. Clappers
02. Colours
03. Left Foot Samba
04. 7/8
05. If Only You Had Come
06. Autumn Nights
07. Debka
08. Dinosaurus Jr.
09. F Minor

Total time: 46:11

CD 2 Tracklist (Soundtrack "Journey Of The Stretchers"):
01. Journey Of The Stretchers (Opening Theme)
02. Who
03. 7/8
04. Oriental Walk
05. Fiddles, Fightings And Sorrow
06. Journey Of The Stretchers

Total time: 21:22

Exact Audio Copy V0.99 prebeta 4 from 23. January 2008

EAC extraction logfile from 27. June 2009, 22:58

Sheshet / Sheshet (CD1)

Used drive : HL-DT-STDVD-RAM GH22NP20 Adapter: 0 ID: 0

Read mode : Secure
Utilize accurate stream : Yes
Defeat audio cache : Yes
Make use of C2 pointers : No

Read offset correction : 102
Overread into Lead-In and Lead-Out : No
Fill up missing offset samples with silence : Yes
Delete leading and trailing silent blocks : No
Null samples used in CRC calculations : Yes
Used interface : Installed external ASPI interface
Gap handling : Appended to previous track

Used output format : User Defined Encoder
Selected bitrate : 320 kBit/s
Quality : High
Add ID3 tag : Yes
Command line compressor : C:\Program Files\Exact Audio Copy\Flac\flac.exe
Additional command line options : -V -8 -T "artist=%a" -T "title=%t" -T "album=%g" -T "date=%y" -T "tracknumber=%n" -T "genre=%m" %s


TOC of the extracted CD

Track | Start | Length | Start sector | End sector
––––––––––––––––––––––––––––-
1 | 0:00.00 | 5:03.61 | 0 | 22785
2 | 5:03.61 | 6:50.20 | 22786 | 53555
3 | 11:54.06 | 3:29.24 | 53556 | 69254
4 | 15:23.30 | 4:06.62 | 69255 | 87766
5 | 19:30.17 | 2:41.65 | 87767 | 99906
6 | 22:12.07 | 4:39.15 | 99907 | 120846
7 | 26:51.22 | 6:16.42 | 120847 | 149088
8 | 33:07.64 | 6:37.55 | 149089 | 178918
9 | 39:45.44 | 6:25.36 | 178919 | 207829


Track 1

Filename D:\music\rip\Sheshet - Sheshet (1977) {2cd, Extended Edition, 2007. NMC} (FLAC)\CD1\01 - Clappers.wav

Pre-gap length 0:00:02.00

Peak level 98.8 %
Track quality 99.9 %
Test CRC 5777C380
Copy CRC 5777C380
Track not present in AccurateRip database
Copy OK

Track 2

Filename D:\music\rip\Sheshet - Sheshet (1977) {2cd, Extended Edition, 2007. NMC} (FLAC)\CD1\02 - Colors.wav

Pre-gap length 0:00:01.00

Peak level 98.8 %
Track quality 100.0 %
Test CRC 62DD892F
Copy CRC 62DD892F
Track not present in AccurateRip database
Copy OK

Track 3

Filename D:\music\rip\Sheshet - Sheshet (1977) {2cd, Extended Edition, 2007. NMC} (FLAC)\CD1\03 - Left Foot First Samba.wav

Pre-gap length 0:00:01.00

Peak level 98.8 %
Track quality 100.0 %
Test CRC DBF32E6C
Copy CRC DBF32E6C
Track not present in AccurateRip database
Copy OK

Track 4

Filename D:\music\rip\Sheshet - Sheshet (1977) {2cd, Extended Edition, 2007. NMC} (FLAC)\CD1\04 - 7,8.wav

Pre-gap length 0:00:01.00

Peak level 98.8 %
Track quality 100.0 %
Test CRC 7126AB2F
Copy CRC 7126AB2F
Track not present in AccurateRip database
Copy OK

Track 5

Filename D:\music\rip\Sheshet - Sheshet (1977) {2cd, Extended Edition, 2007. NMC} (FLAC)\CD1\05 - If Only You Came.wav

Pre-gap length 0:00:01.00

Peak level 98.8 %
Track quality 100.0 %
Test CRC FD0A9ABA
Copy CRC FD0A9ABA
Track not present in AccurateRip database
Copy OK

Track 6

Filename D:\music\rip\Sheshet - Sheshet (1977) {2cd, Extended Edition, 2007. NMC} (FLAC)\CD1\06 - Fall Nights.wav

Pre-gap length 0:00:01.00

Peak level 98.8 %
Track quality 100.0 %
Test CRC 809358BE
Copy CRC 809358BE
Track not present in AccurateRip database
Copy OK

Track 7

Filename D:\music\rip\Sheshet - Sheshet (1977) {2cd, Extended Edition, 2007. NMC} (FLAC)\CD1\07 - Debka.wav

Pre-gap length 0:00:01.00

Peak level 98.8 %
Track quality 99.9 %
Test CRC 95B8681B
Copy CRC 95B8681B
Track not present in AccurateRip database
Copy OK

Track 8

Filename D:\music\rip\Sheshet - Sheshet (1977) {2cd, Extended Edition, 2007. NMC} (FLAC)\CD1\08 - Dinosaurus Jr..wav

Pre-gap length 0:00:01.00

Peak level 98.8 %
Track quality 100.0 %
Test CRC 58286125
Copy CRC 58286125
Track not present in AccurateRip database
Copy OK

Track 9

Filename D:\music\rip\Sheshet - Sheshet (1977) {2cd, Extended Edition, 2007. NMC} (FLAC)\CD1\09 - F Minor.wav

Pre-gap length 0:00:01.00

Peak level 98.8 %
Track quality 100.0 %
Test CRC 319A3B40
Copy CRC 319A3B40
Track not present in AccurateRip database
Copy OK


None of the tracks are present in the AccurateRip database

No errors occurred

End of status report

[CUETools log; Date: 08.08.2020 16:57:10; Version: 2.1.4]
[CTDB TOCID: 9S3QYmiMrAmCDISQneFEDLrGWzE-] found.
Track | CTDB Status
1 | (12/12) Accurately ripped
2 | (12/12) Accurately ripped
3 | (12/12) Accurately ripped
4 | (12/12) Accurately ripped
5 | (12/12) Accurately ripped
6 | (12/12) Accurately ripped
7 | (12/12) Accurately ripped
8 | (12/12) Accurately ripped
9 | (12/12) Accurately ripped
[AccurateRip ID: 000f1b04-006e9b6e-780ad309] found.
Track [ CRC | V2 ] Status
01 [861843dd|d217a323] (03+04/10) Accurately ripped
02 [903af294|a2072a51] (03+04/10) Accurately ripped
03 [91b45f55|86323db8] (03+04/10) Accurately ripped
04 [b4e28bc9|465b74d8] (03+04/10) Accurately ripped
05 [5af07676|5bd47a59] (03+04/10) Accurately ripped
06 [180c2190|fe759494] (03+04/10) Accurately ripped
07 [68726305|995e351d] (03+04/10) Accurately ripped
08 [deac8caf|a934bfb1] (03+04/10) Accurately ripped
09 [7456dd20|956d11ca] (03+04/10) Accurately ripped
Offsetted by 50:
01 [c2b11cea] (00/10) No match (V2 was not tested)
02 [cee8d5ec] (00/10) No match (V2 was not tested)
03 [f9fe5d41] (00/10) No match (V2 was not tested)
04 [8a9dcb67] (00/10) No match (V2 was not tested)
05 [da5cc844] (00/10) No match (V2 was not tested)
06 [36262ada] (00/10) No match (V2 was not tested)
07 [c89cceef] (00/10) No match (V2 was not tested)
08 [3a2d6be3] (00/10) No match (V2 was not tested)
09 [5f081e44] (00/10) No match (V2 was not tested)

Track Peak [ CRC32 ] [W/O NULL] [ LOG ]
– 98,8 [97CA6A7F] [BFBF17FA]
01 98,8 [5777C380] [D3AFDDFF] CRC32
02 98,8 [62DD892F] [9D82EA64] CRC32
03 98,8 [DBF32E6C] [1B87967B] CRC32
04 98,8 [7126AB2F] [34F03163] CRC32
05 98,8 [FD0A9ABA] [BEE68D38] CRC32
06 98,8 [809358BE] [1BEAEF5D] CRC32
07 98,8 [95B8681B] [AF8544FE] CRC32
08 98,8 [58286125] [FD356CB5] CRC32
09 98,8 [319A3B40] [187B6084] CRC32

Exact Audio Copy V0.99 prebeta 4 from 23. January 2008

EAC extraction logfile from 27. June 2009, 23:26

Sheshet / Journey Of The Stretchers Soundtrack (disc 2)

Used drive : HL-DT-STDVD-RAM GH22NP20 Adapter: 0 ID: 0

Read mode : Secure
Utilize accurate stream : Yes
Defeat audio cache : Yes
Make use of C2 pointers : No

Read offset correction : 102
Overread into Lead-In and Lead-Out : No
Fill up missing offset samples with silence : Yes
Delete leading and trailing silent blocks : No
Null samples used in CRC calculations : Yes
Used interface : Installed external ASPI interface
Gap handling : Appended to previous track

Used output format : User Defined Encoder
Selected bitrate : 320 kBit/s
Quality : High
Add ID3 tag : Yes
Command line compressor : C:\Program Files\Exact Audio Copy\Flac\flac.exe
Additional command line options : -V -8 -T "artist=%a" -T "title=%t" -T "album=%g" -T "date=%y" -T "tracknumber=%n" -T "genre=%m" %s


TOC of the extracted CD

Track | Start | Length | Start sector | End sector
––––––––––––––––––––––––––––-
1 | 0:00.00 | 4:35.44 | 0 | 20668
2 | 4:35.44 | 3:52.43 | 20669 | 38111
3 | 8:28.12 | 2:39.66 | 38112 | 50102
4 | 11:08.03 | 3:04.09 | 50103 | 63911
5 | 14:12.12 | 2:25.63 | 63912 | 74849
6 | 16:38.00 | 4:43.26 | 74850 | 96100


Track 1

Filename D:\music\rip\Sheshet - Sheshet (1977) {2cd, Extended Edition, 2007. NMC} (FLAC)\CD2 - Journey Of The Stretchers Soundtrack\01 - Journey Of The Stretchers (Opening Theme).wav

Pre-gap length 0:00:02.00

Peak level 88.1 %
Track quality 99.9 %
Test CRC 16DD6828
Copy CRC 16DD6828
Track not present in AccurateRip database
Copy OK

Track 2

Filename D:\music\rip\Sheshet - Sheshet (1977) {2cd, Extended Edition, 2007. NMC} (FLAC)\CD2 - Journey Of The Stretchers Soundtrack\02 - Who.wav

Pre-gap length 0:00:01.00

Peak level 98.8 %
Track quality 100.0 %
Test CRC 35F01D68
Copy CRC 35F01D68
Track not present in AccurateRip database
Copy OK

Track 3

Filename D:\music\rip\Sheshet - Sheshet (1977) {2cd, Extended Edition, 2007. NMC} (FLAC)\CD2 - Journey Of The Stretchers Soundtrack\03 - 7,8.wav

Pre-gap length 0:00:01.00

Peak level 98.8 %
Track quality 100.0 %
Test CRC EED2B734
Copy CRC EED2B734
Track not present in AccurateRip database
Copy OK

Track 4

Filename D:\music\rip\Sheshet - Sheshet (1977) {2cd, Extended Edition, 2007. NMC} (FLAC)\CD2 - Journey Of The Stretchers Soundtrack\04 - Oriental Walk.wav

Pre-gap length 0:00:01.00

Peak level 98.8 %
Track quality 100.0 %
Test CRC 2905C53C
Copy CRC 2905C53C
Track not present in AccurateRip database
Copy OK

Track 5

Filename D:\music\rip\Sheshet - Sheshet (1977) {2cd, Extended Edition, 2007. NMC} (FLAC)\CD2 - Journey Of The Stretchers Soundtrack\05 - Fiddles, Fightings And Sorrow.wav

Pre-gap length 0:00:01.00

Peak level 98.8 %
Track quality 100.0 %
Test CRC C3644AB5
Copy CRC C3644AB5
Track not present in AccurateRip database
Copy OK

Track 6

Filename D:\music\rip\Sheshet - Sheshet (1977) {2cd, Extended Edition, 2007. NMC} (FLAC)\CD2 - Journey Of The Stretchers Soundtrack\06 - Journey Of The Stretchers.wav

Pre-gap length 0:00:01.00

Peak level 100.0 %
Track quality 100.0 %
Test CRC 83C7D89D
Copy CRC 83C7D89D
Track not present in AccurateRip database
Copy OK


None of the tracks are present in the AccurateRip database

No errors occurred

End of status report

[CUETools log; Date: 08.08.2020 16:57:35; Version: 2.1.4]
[CTDB TOCID: 0uE1LF80YNIwBs0f_0i5ocpyvAQ-] found.
Track | CTDB Status
1 | (10/10) Accurately ripped
2 | (10/10) Accurately ripped
3 | (10/10) Accurately ripped
4 | (10/10) Accurately ripped
5 | (10/10) Accurately ripped
6 | (10/10) Accurately ripped
[AccurateRip ID: 00053ec3-001b6d4e-37050106] found.
Track [ CRC | V2 ] Status
01 [677f0438|70237ac8] (2+0/7) Accurately ripped
02 [bc83954c|c0590d2b] (2+0/7) Accurately ripped
03 [8cd353aa|a65b11bf] (2+0/7) Accurately ripped
04 [3d5d2625|0442f579] (2+0/7) Accurately ripped
05 [be763414|5d33e931] (2+0/7) Accurately ripped
06 [90cdb721|c26bba2f] (2+0/7) Accurately ripped
Offsetted by 2:
01 [786dbc50] (0/7) No match (V2 was not tested)
02 [e5657bce] (0/7) No match (V2 was not tested)
03 [c6ded57c] (0/7) No match (V2 was not tested)
04 [672ff8ed] (0/7) No match (V2 was not tested)
05 [d3d27bee] (0/7) No match (V2 was not tested)
06 [f5548f93] (0/7) No match (V2 was not tested)
Offsetted by 50:
01 [3bd5a6e6] (0/7) No match (V2 was not tested)
02 [ba9317fe] (0/7) No match (V2 was not tested)
03 [37f3012c] (0/7) No match (V2 was not tested)
04 [52f3bbad] (0/7) No match (V2 was not tested)
05 [d479385e] (0/7) No match (V2 was not tested)
06 [61f8da43] (0/7) No match (V2 was not tested)

Track Peak [ CRC32 ] [W/O NULL] [ LOG ]
– 100,0 [4FD8C104] [C9B7AE1C]
01 88,1 [16DD6828] [0D07CAAC] CRC32
02 98,8 [35F01D68] [AEEFA4DE] CRC32
03 98,8 [EED2B734] [08BB1CAB] CRC32
04 98,8 [2905C53C] [4AEB7E20] CRC32
05 98,8 [C3644AB5] [93DB3810] CRC32
06 100,0 [83C7D89D] [6BA2D681] CRC32

Thanks to Musicgate