Subcategories

Shocking Blue - 20 Greatest Hits (1990)

Posted By: v3122
Shocking Blue - 20 Greatest Hits (1990)

Shocking Blue - 20 Greatest Hits (1990)
Rock/Blues-Rock | EAC Rip | Flac (Image) + Cue + Log | MP3 CBR 320Kbps | 20 Tracks
Covers Included | Repertoire Records | RR 4125-WZ | ~384 + 123 Mb | HF + FS + SM

Shocking Blue - 20 Greatest Hits (1990)

Shocking Blue Biography:

Formed: 1967, The Netherlands
Disbanded: 1974
Genres: Rock
Representative Albums: "Classics: The Best of Shocking Blue", "Greatest Hits", "Best of Shocking Blue"
Representative Songs: "Venus"

With a catchy guitar riff borrowed from "Pinball Wizard," this Dutch group had a worldwide hit in late 1969 with "Venus," which was later covered by Bananarama. After that they never had much success outside Europe, but they generated enough hits in enough parts of the world to warrant a compilation on Rhino Records.

~ Dan Heilman, All Music Guide

Shocking Blue - 20 Greatest Hits (1990):

Shocking Blue - 20 Greatest Hits (1990)

Tracklist:

1. Venus (3:03)
2. Mighty Joe (3:09)
3. Never Marry A Railroad Man (3:04)
4. Hello Darkness (2:55)
5. Shocking You (3:01)
6. Blossom Lady (3:31)
7. Inkpot (2:39)
8. Rock In The Sea (2:59)
9. Send Me A Postcard (2:39)
10. Long And Lonesome Road (2:49)
11. Out Of Sight Out Of Mind (2:44)
12. Oh Lord (2:30)
13. This America (2:59)
14. Good Times (3:27)
15. Gonna Sing Me A Song (2:43)
16. Love Is In The Air (2:37)
17. Lucy Brown Is Back In Town (2:54)
18. Eve And The Apple (2:41)
19. Let Me Carry Your Bag (3:27)
20. Dream On Dreamer (2:49)

Exact Audio Copy V0.99 prebeta 5 from 4. May 2009

EAC extraction logfile from 10. March 2010, 18:58

Shocking Blue / 20 Greatest Hits

Used drive : TSSTcorpCD/DVDW SH-S183A Adapter: 1 ID: 0

Read mode : Secure
Utilize accurate stream : Yes
Defeat audio cache : Yes
Make use of C2 pointers : No

Read offset correction : 6
Overread into Lead-In and Lead-Out : No
Fill up missing offset samples with silence : Yes
Delete leading and trailing silent blocks : No
Null samples used in CRC calculations : Yes
Used interface : Installed external ASPI interface

Used output format : User Defined Encoder
Selected bitrate : 1024 kBit/s
Quality : High
Add ID3 tag : No
Command line compressor : C:\Program Files\Exact Audio Copy\Flac\flac.exe
Additional command line options : -8 -V -T "ARTIST=%a" -T "TITLE=%t" -T "ALBUM=%g" -T "DATE=%y" -T "TRACKNUMBER=%n" -T "TOTALTRACKS=%x" -T "GENRE=%m" -T "ALBUM ARTIST=%v" -T "ALBUMARTIST=%v" -T "COMMENT=EAC V0.99 prebeta 5, Secure Mode, AccurateRip, FLAC -8


TOC of the extracted CD

Track | Start | Length | Start sector | End sector
––––––––––––––––––––––––––––-
1 | 0:00.00 | 3:03.20 | 0 | 13744
2 | 3:03.20 | 3:09.72 | 13745 | 27991
3 | 6:13.17 | 3:04.25 | 27992 | 41816
4 | 9:17.42 | 2:55.03 | 41817 | 54944
5 | 12:12.45 | 3:01.30 | 54945 | 68549
6 | 15:14.00 | 3:31.25 | 68550 | 84399
7 | 18:45.25 | 2:39.10 | 84400 | 96334
8 | 21:24.35 | 2:59.32 | 96335 | 109791
9 | 24:23.67 | 2:39.58 | 109792 | 121774
10 | 27:03.50 | 2:49.67 | 121775 | 134516
11 | 29:53.42 | 2:44.05 | 134517 | 146821
12 | 32:37.47 | 2:30.20 | 146822 | 158091
13 | 35:07.67 | 2:59.20 | 158092 | 171536
14 | 38:07.12 | 3:27.05 | 171537 | 187066
15 | 41:34.17 | 2:43.18 | 187067 | 199309
16 | 44:17.35 | 2:37.72 | 199310 | 211156
17 | 46:55.32 | 2:54.15 | 211157 | 224221
18 | 49:49.47 | 2:41.33 | 224222 | 236329
19 | 52:31.05 | 3:27.00 | 236330 | 251854
20 | 55:58.05 | 2:49.30 | 251855 | 264559


Range status and errors

Selected range

Filename F:\Shocking Blue-20 Greatest Hits\Cd\Shocking Blue - 20 Greatest Hits.wav

Peak level 98.8 %
Range quality 100.0 %
Test CRC 1BD4D652
Copy CRC 1BD4D652
Copy OK

No errors occurred


AccurateRip summary

Track 1 accurately ripped (confidence 3) [2729C845]
Track 2 accurately ripped (confidence 3) [0402F448]
Track 3 accurately ripped (confidence 3) [EF0A5886]
Track 4 accurately ripped (confidence 3) [D6976F2F]
Track 5 accurately ripped (confidence 3) [9D321B0F]
Track 6 accurately ripped (confidence 3) [A0CA6900]
Track 7 accurately ripped (confidence 3) [8A15483B]
Track 8 accurately ripped (confidence 3) [3E39F322]
Track 9 accurately ripped (confidence 3) [57A88521]
Track 10 accurately ripped (confidence 3) [9190059B]
Track 11 accurately ripped (confidence 3) [0C330CA3]
Track 12 accurately ripped (confidence 3) [6DE3CFBB]
Track 13 accurately ripped (confidence 3) [1BB69C9D]
Track 14 accurately ripped (confidence 3) [CF89122C]
Track 15 accurately ripped (confidence 3) [93716C49]
Track 16 accurately ripped (confidence 3) [40932F56]
Track 17 accurately ripped (confidence 3) [39559544]
Track 18 accurately ripped (confidence 3) [BCFC864E]
Track 19 accurately ripped (confidence 3) [C6CE4B01]
Track 20 accurately ripped (confidence 2) [23C45548]

All tracks accurately ripped

End of status report

AUDIOCHECKER v2.0 beta (build 457) - by Dester - opdester@freemail.hu
~~~~~~~~~~~~~~~~~~~~~~~~~~~~~~~~~~
-=== DO NOT EDIT THIS FILE! ===-

Path: …\Cd

1 -=- Shocking Blue - 20 Greatest Hits.flac -=- CDDA (100%)

259362372


All thanks go to dafnaplus