Subcategories

Shri - Drum The Bass (1997)

Posted By: gribovar
Shri - Drum The Bass (1997)

Shri - Drum The Bass (1997)
EAC Rip | FLAC (tracks+.cue+log) - 332 MB | MP3 CBR 320 kbps (LAME 3.93) - 131 MB | Covers - 27 MB
Genre: Electronic, Drum 'n' Bass, World | RAR 3% Rec. | Label: Outcaste Records (CASTE 4CD)

One of the rare cases in the British dance underground where an artist actually understands the ethnicities of the countries he's fusing, Shri is classically trained on the tabla, and uses his intricate knowledge of percussion to create a complex drum'n'bass outing with Indian environments.
Tracklist:
01. Meditation
02. Camels
03. Village By The River
04. Trains
05. Inside Outside
06. Camels (Instrumental)
07. Before The Rain
08. Bombay
09. Maybe But Not Really

Total time: 55:55

Exact Audio Copy V1.3 from 2. September 2016

EAC extraction logfile from 5. September 2017, 11:05

Shri / Drum The Bass

Used drive : HL-DT-STDVDRAM GH24NSB0 Adapter: 1 ID: 0

Read mode : Secure
Utilize accurate stream : Yes
Defeat audio cache : Yes
Make use of C2 pointers : No

Read offset correction : 6
Overread into Lead-In and Lead-Out : No
Fill up missing offset samples with silence : Yes
Delete leading and trailing silent blocks : No
Null samples used in CRC calculations : Yes
Used interface : Native Win32 interface for Win NT & 2000
Gap handling : Appended to previous track

Used output format : User Defined Encoder
Selected bitrate : 1024 kBit/s
Quality : High
Add ID3 tag : No
Command line compressor : C:\Program Files (x86)\Exact Audio Copy\FLAC\FLAC.EXE
Additional command line options : -V -8 -T "Genre=%genre%" -T "Artist=%artist%" -T "Title=%title%" -T "Album=%albumtitle%" -T "Date=%year%" -T "Tracknumber=%tracknr%" -T "Comment=%comment%" %source%


TOC of the extracted CD

Track | Start | Length | Start sector | End sector
––––––––––––––––––––––––––––-
1 | 0:00.00 | 7:52.30 | 0 | 35429
2 | 7:52.30 | 6:46.25 | 35430 | 65904
3 | 14:38.55 | 6:13.00 | 65905 | 93879
4 | 20:51.55 | 7:02.57 | 93880 | 125586
5 | 27:54.37 | 5:59.53 | 125587 | 152564
6 | 33:54.15 | 4:44.47 | 152565 | 173911
7 | 38:38.62 | 7:04.15 | 173912 | 205726
8 | 45:43.02 | 7:54.20 | 205727 | 241296
9 | 53:37.22 | 2:17.65 | 241297 | 251636


Track 1

Filename D:\Music\MG rips\Shri - Drum The Bass - 1997 (Outcaste CASTE 4CD) [FLAC]\01 - Meditation.wav

Pre-gap length 0:00:02.00

Peak level 100.0 %
Extraction speed 1.1 X
Track quality 99.9 %
Test CRC B42704B9
Copy CRC B42704B9
Accurately ripped (confidence 3) [269D0B63] (AR v2)
Copy OK

Track 2

Filename D:\Music\MG rips\Shri - Drum The Bass - 1997 (Outcaste CASTE 4CD) [FLAC]\02 - Camels.wav

Peak level 100.0 %
Extraction speed 1.3 X
Track quality 99.9 %
Test CRC BC769F66
Copy CRC BC769F66
Accurately ripped (confidence 3) [3162801C] (AR v2)
Copy OK

Track 3

Filename D:\Music\MG rips\Shri - Drum The Bass - 1997 (Outcaste CASTE 4CD) [FLAC]\03 - Village To The River.wav

Pre-gap length 0:00:01.58

Peak level 100.0 %
Extraction speed 1.6 X
Track quality 100.0 %
Test CRC C700A485
Copy CRC C700A485
Accurately ripped (confidence 3) [C9E0496E] (AR v2)
Copy OK

Track 4

Filename D:\Music\MG rips\Shri - Drum The Bass - 1997 (Outcaste CASTE 4CD) [FLAC]\04 - Trains.wav

Peak level 100.0 %
Extraction speed 1.7 X
Track quality 100.0 %
Test CRC B3C6B736
Copy CRC B3C6B736
Accurately ripped (confidence 3) [769A84BA] (AR v2)
Copy OK

Track 5

Filename D:\Music\MG rips\Shri - Drum The Bass - 1997 (Outcaste CASTE 4CD) [FLAC]\05 - Inside Outside.wav

Pre-gap length 0:00:02.50

Peak level 100.0 %
Extraction speed 1.8 X
Track quality 100.0 %
Test CRC 11791BDE
Copy CRC 11791BDE
Accurately ripped (confidence 3) [3732F70E] (AR v2)
Copy OK

Track 6

Filename D:\Music\MG rips\Shri - Drum The Bass - 1997 (Outcaste CASTE 4CD) [FLAC]\06 - Camels (Instrumental).wav

Pre-gap length 0:00:02.73

Peak level 100.0 %
Extraction speed 1.9 X
Track quality 100.0 %
Test CRC 7446F829
Copy CRC 7446F829
Accurately ripped (confidence 3) [12AAAFF3] (AR v2)
Copy OK

Track 7

Filename D:\Music\MG rips\Shri - Drum The Bass - 1997 (Outcaste CASTE 4CD) [FLAC]\07 - Before the rain.wav

Pre-gap length 0:00:03.40

Peak level 100.0 %
Extraction speed 2.1 X
Track quality 100.0 %
Test CRC AD31F7F0
Copy CRC AD31F7F0
Accurately ripped (confidence 3) [79711B83] (AR v2)
Copy OK

Track 8

Filename D:\Music\MG rips\Shri - Drum The Bass - 1997 (Outcaste CASTE 4CD) [FLAC]\08 - Bombay.wav

Peak level 100.0 %
Extraction speed 2.2 X
Track quality 100.0 %
Test CRC 06097013
Copy CRC 06097013
Accurately ripped (confidence 3) [D503C388] (AR v2)
Copy OK

Track 9

Filename D:\Music\MG rips\Shri - Drum The Bass - 1997 (Outcaste CASTE 4CD) [FLAC]\09 - Maybe But Not Really.wav

Pre-gap length 0:00:01.52

Peak level 99.2 %
Extraction speed 2.0 X
Track quality 100.0 %
Test CRC 112E9710
Copy CRC 112E9710
Accurately ripped (confidence 3) [4D9F4730] (AR v2)
Copy OK


All tracks accurately ripped

No errors occurred

End of status report

==== Log checksum 8845E1502FABB57CA36763A8DF3BA8598F37856A1D9FC5D9B38DD0845D56025A ====

[CUETools log; Date: 30.07.2020 17:28:41; Version: 2.1.4]
[CTDB TOCID: 9_ebm6fdXfsUgyr7emusgUacCeY-] found.
Track | CTDB Status
1 | (14/14) Accurately ripped
2 | (14/14) Accurately ripped
3 | (14/14) Accurately ripped
4 | (14/14) Accurately ripped
5 | (14/14) Accurately ripped
6 | (14/14) Accurately ripped
7 | (14/14) Accurately ripped
8 | (14/14) Accurately ripped
9 | (14/14) Accurately ripped
[AccurateRip ID: 00148994-009499a8-730d1b09] found.
Track [ CRC | V2 ] Status
01 [53a1b069|269d0b63] (04+06/16) Accurately ripped
02 [b5f16a29|3162801c] (04+06/16) Accurately ripped
03 [62ec2f3a|c9e0496e] (04+06/16) Accurately ripped
04 [e54579c0|769a84ba] (04+06/16) Accurately ripped
05 [199070cf|3732f70e] (04+06/16) Accurately ripped
06 [19126453|12aaaff3] (04+06/16) Accurately ripped
07 [c5b7e512|79711b83] (04+06/16) Accurately ripped
08 [963b8b3f|d503c388] (04+06/16) Accurately ripped
09 [f84f0ef2|4d9f4730] (04+06/16) Accurately ripped
Offsetted by -136:
01 [8ec11819] (04/16) Accurately ripped
02 [3b1ff211] (04/16) Accurately ripped
03 [b5f7c5be] (04/16) Accurately ripped
04 [5b2ec698] (04/16) Accurately ripped
05 [6b79af37] (04/16) Accurately ripped
06 [58229ce3] (04/16) Accurately ripped
07 [e27e7642] (04/16) Accurately ripped
08 [1514629f] (04/16) Accurately ripped
09 [48040f6e] (04/16) Accurately ripped
Offsetted by 285:
01 [dd61c26b] (00/16) No match (V2 was not tested)
02 [afca4210] (00/16) No match (V2 was not tested)
03 [f2be15e9] (00/16) No match (V2 was not tested)
04 [a49af941] (00/16) No match (V2 was not tested)
05 [efcb6c26] (00/16) No match (V2 was not tested)
06 [20360be9] (00/16) No match (V2 was not tested)
07 [7697c7a4] (00/16) No match (V2 was not tested)
08 [37b52243] (00/16) No match (V2 was not tested)
09 [843f569d] (00/16) No match (V2 was not tested)

Track Peak [ CRC32 ] [W/O NULL] [ LOG ]
– 100,0 [EFEE2154] [E59D9269]
01 100,0 [B42704B9] [6D22A998] CRC32
02 100,0 [BC769F66] [C5BBD2BB] CRC32
03 100,0 [C700A485] [AA2242FC] CRC32
04 100,0 [B3C6B736] [64E60B65] CRC32
05 100,0 [11791BDE] [376E528F] CRC32
06 100,0 [7446F829] [44DF4925] CRC32
07 100,0 [AD31F7F0] [278A3317] CRC32
08 100,0 [06097013] [C9D6B373] CRC32
09 99,2 [112E9710] [589EE391] CRC32

Thanks to Musicgate