Subcategories

Shuggie Otis - Shuggie's Boogie: Shuggie Otis Plays the Blues (1994) [Re-Up]

Posted By: Designol
Shuggie Otis - Shuggie's Boogie: Shuggie Otis Plays the Blues (1994) [Re-Up]

Shuggie Otis - Shuggie's Boogie: Shuggie Otis Plays the Blues (1994)
EAC | FLAC | Image (Cue&Log) ~ 316 Mb | Mp3 (CBR320) ~ 135 Mb | Scans included
Electric Blues, Rhythm & Blues | Label: Epic/Legacy | # EK 57903 | 00:52:23

Culled from four albums, except for one previously unreleased track, Shuggie's Boogie: Shuggie Otis Plays the Blues is a tour de force made all the more remarkable because the prodigy who produced it was so young. In fact, Shuggie Otis recalls during a boyish spoken intro in "Shuggie's Boogie" how he used to wear dark glasses and paint on a mustache to look older than his 14 or 15 years when he played in bars in the band of his legendary father Johnny Otis. During the same intro he effortlessly throws off guitar impersonations of T-Bone Walker, B.B. King and Elmore James. This compilation has a few rousing, up-tempo numbers, but the highlights are the slow, soulful tunes. One unfortunate omission is the seven-minute "Oxford Gray" from his 1970 album Here Comes Shuggie Otis.

Review by Mark Allan, Allmusic.com

Shuggie Otis - Shuggie's Boogie: Shuggie Otis Plays the Blues (1994) [Re-Up]



Tracklist:

01. 1215 Slow Goonbash Blues (09:27)
02. Shuggie's Boogie (05:30)
03. Gospel Groove (04:13)
04. The Hawks (02:25)
05. Me And My Woman (04:10)
06. I Can Stand To See You Die (04:07)
07. I Got the Walkin' Blues (02:21)
08. Purple (Edited Version) (04:48)
09. Cold Shot (04:05)
10. Sweet Thang (04:10)
11. Bootie Cooler (02:37)
12. Shuggie's Old Time Slide Boogie (04:02)


Exact Audio Copy V0.99 prebeta 4 from 23. January 2008

EAC extraction logfile from 23. July 2009, 18:41

Shuggie Otis / Shuggie Otis Plays the Blues

Used drive : PLEXTOR DVDR PX-810SA Adapter: 5 ID: 1

Read mode : Secure
Utilize accurate stream : Yes
Defeat audio cache : Yes
Make use of C2 pointers : No

Read offset correction : 48
Overread into Lead-In and Lead-Out : No
Fill up missing offset samples with silence : Yes
Delete leading and trailing silent blocks : No
Null samples used in CRC calculations : Yes
Used interface : Installed external ASPI interface

Used output format : Internal WAV Routines
Sample format : 44.100 Hz; 16 Bit; Stereo


TOC of the extracted CD

Track | Start | Length | Start sector | End sector
––––––––––––––––––––––––––––-
1 | 0:00.00 | 9:30.32 | 0 | 42781
2 | 9:30.32 | 5:32.00 | 42782 | 67681
3 | 15:02.32 | 4:16.00 | 67682 | 86881
4 | 19:18.32 | 2:27.38 | 86882 | 97944
5 | 21:45.70 | 4:11.62 | 97945 | 116831
6 | 25:57.57 | 4:09.25 | 116832 | 135531
7 | 30:07.07 | 2:23.63 | 135532 | 146319
8 | 32:30.70 | 4:50.37 | 146320 | 168106
9 | 37:21.32 | 4:07.38 | 168107 | 186669
10 | 41:28.70 | 4:12.00 | 186670 | 205569
11 | 45:40.70 | 2:39.52 | 205570 | 217546
12 | 48:20.47 | 4:02.18 | 217547 | 235714


Range status and errors

Selected range

Filename I:\HQShare\Shuggie\Shuggie Otis - Shuggie Otis Plays the Blues.wav

Peak level 96.4 %
Range quality 100.0 %
Copy CRC A43ADDA4
Copy OK

No errors occurred

End of status report

[CUETools log; Date: 28.08.2014 2:37:32; Version: 2.1.4]
[CTDB TOCID: rexCOMYBaiaA5yxGf8zLxclyzYk-] found.
Track | CTDB Status
1 | (4/4) Accurately ripped
2 | (4/4) Accurately ripped
3 | (4/4) Accurately ripped
4 | (4/4) Accurately ripped
5 | (4/4) Accurately ripped
6 | (4/4) Accurately ripped
7 | (4/4) Accurately ripped
8 | (4/4) Accurately ripped
9 | (4/4) Accurately ripped
10 | (4/4) Accurately ripped
11 | (4/4) Accurately ripped
12 | (4/4) Accurately ripped
[AccurateRip ID: 001a0e40-00e8e0ec-9d0c460c] found.
Track [ CRC | V2 ] Status
01 [1520d964|86e8630a] (04+00/17) Accurately ripped
02 [56f7acd5|ce10568b] (04+00/19) Accurately ripped
03 [3cc58433|d1c7ed6c] (04+00/18) Accurately ripped
04 [5b1b38e4|a2a1f725] (04+00/18) Accurately ripped
05 [d5720ad6|fa552faf] (04+00/18) Accurately ripped
06 [d11fcc74|45b08802] (04+00/19) Accurately ripped
07 [baf2a086|70f70607] (04+00/19) Accurately ripped
08 [f1ef5144|eac26587] (04+00/19) Accurately ripped
09 [4a15ba05|1228ae4d] (04+00/18) Accurately ripped
10 [73989ae7|0b4bbb4d] (04+00/18) Accurately ripped
11 [f3366a51|0393b634] (04+00/18) Accurately ripped
12 [ba3f92c3|0fa7988d] (04+00/18) Accurately ripped
Offsetted by -152:
01 [6d6cf5f4] (03/17) Accurately ripped
02 [a4072065] (04/19) Accurately ripped
03 [5beb1ad3] (04/18) Accurately ripped
04 [c06affe4] (03/18) Accurately ripped
05 [ea254156] (03/18) Accurately ripped
06 [2fc9658c] (04/19) Accurately ripped
07 [a25578d6] (04/19) Accurately ripped
08 [ef59f98c] (04/19) Accurately ripped
09 [744b3eb5] (03/18) Accurately ripped
10 [3c5ee4b7] (03/18) Accurately ripped
11 [f3711ec9] (03/18) Accurately ripped
12 [f048243b] (03/18) Accurately ripped
Offsetted by 53:
01 [5b64a046] (04/17) Accurately ripped
02 [29924997] (05/19) Accurately ripped
03 [046ffd27] (04/18) Accurately ripped
04 [1cd54cc4] (05/18) Accurately ripped
05 [1d62b626] (05/18) Accurately ripped
06 [f37c3dcf] (05/19) Accurately ripped
07 [ebf387a0] (05/19) Accurately ripped
08 [6f7799f5] (05/19) Accurately ripped
09 [cc35978b] (05/18) Accurately ripped
10 [86da33b1] (05/18) Accurately ripped
11 [b68042f8] (05/18) Accurately ripped
12 [0768600a] (05/18) Accurately ripped

Track Peak [ CRC32 ] [W/O NULL] [ LOG ]
– 96,4 [A43ADDA4] [9082924B] CRC32
01 94,6 [AEF0E335] [6E5AA7CB]
02 88,3 [DDF03FDE] [78C0AAC8]
03 96,4 [1A59D27E] [C7F60662]
04 91,5 [7C85A9C7] [68EF159D]
05 82,1 [1BD9F0FB] [54395AAB]
06 95,8 [87B0A716] [0F789F69]
07 81,7 [955FC64F] [79FC877D]
08 75,9 [E5F0937B] [375AB9F8]
09 88,4 [D1373EF6] [82335ADF]
10 74,4 [7C94A5B2] [2B19FCA6]
11 90,3 [611DFD75] [A6AC30BC]
12 65,8 [CED50711] [BB9971E0]

foobar2000 1.2 / Dynamic Range Meter 1.1.1
log date: 2014-08-28 02:32:33

––––––––––––––––––––––––––––––––––––––––
Analyzed: Shuggie Otis / Shuggie Otis Plays the Blues
––––––––––––––––––––––––––––––––––––––––

DR Peak RMS Duration Track
––––––––––––––––––––––––––––––––––––––––
DR11 -0.47 dB -14.71 dB 9:30 01-1215 Slow Goonbash Blues
DR12 -1.08 dB -15.69 dB 5:32 02-Shuggie's Boogie
DR11 -0.31 dB -15.29 dB 4:16 03-Gospel Groove
DR13 -0.77 dB -15.30 dB 2:28 04-The Hawks
DR10 -1.71 dB -14.08 dB 4:12 05-Me And My Woman
DR12 -0.37 dB -14.94 dB 4:09 06-I Can Stand To See You Die
DR11 -1.75 dB -14.35 dB 2:24 07-I Got the Walkin' Blues
DR12 -2.39 dB -15.46 dB 4:50 08-Purple (Edited Version)
DR13 -1.07 dB -16.34 dB 4:08 09-Cold Shot
DR11 -2.57 dB -16.04 dB 4:12 10-Sweet Thang
DR11 -0.89 dB -14.11 dB 2:40 11-Bootie Cooler
DR12 -3.63 dB -18.95 dB 4:02 12-Shuggie's Old Time Slide Boogie
––––––––––––––––––––––––––––––––––––––––

Number of tracks: 12
Official DR value: DR12

Samplerate: 44100 Hz
Channels: 2
Bits per sample: 16
Bitrate: 804 kbps
Codec: FLAC
================================================================================

Shuggie Otis - Shuggie's Boogie: Shuggie Otis Plays the Blues (1994) [Re-Up]

Shuggie Otis - Shuggie's Boogie: Shuggie Otis Plays the Blues (1994) [Re-Up]

All thanks to original releaser - MidnightShadow

More interesting music in My Blog