Subcategories

Shylock - Île De Fièvre (1978) [Reissue 1996]

Posted By: gribovar
Shylock - Île De Fièvre (1978) [Reissue 1996]

Shylock - Ile De Fievre (1978) [Reissue 1996]
EAC Rip | FLAC (tracks+.cue+log) - 292 MB | MP3 CBR 320 kbps (LAME 3.93) - 113 MB | Covers - 24 MB
Genre: Instrumental Progressive Rock | RAR 3% Rec. | Label: Musea (FGBG 4177.AR)

With its complexity and instrumental richness, its ability to develop anguishing themes and electric rises and its overgrowing tension, Shylock has often been compared to King Crimson. Actually, this instrumental combo also belongs to wild and intricate Progressive rock with tormenting atmospheres, but has its own personality. The latter is expressed through overwhelming lyricism and refined romanticism, a bit like Pulsar. With its schizoido-electronic dimension, Shylock can also make you think of Heldon. What's more, each musician is a real virtuoso, especially guitarist Frédéric L'epee and outstanding drummer André Fisichella. As "Gialorgues" (1975) can be considered as a very good debut album, "Ile de Fièvre" (1978) is widely known as an absolute masterpiece.

Tracklist:
01. Ile de Fièvre
02. Le Sang des Capucines
03. Choral
04. Himogène
05. Lierre D'aujourd'hui
06. Laocksetal
07. Le dernier (Bonus Track)

Total time: 47:43

Exact Audio Copy V1.0 beta 1 from 15. November 2010

EAC extraction logfile from 24. January 2012, 11:50

Shylock / Ile De Fievre (FR)

Used drive : Optiarc DVD+-RW ND-3570A Adapter: 0 ID: 1

Read mode : Secure
Utilize accurate stream : Yes
Defeat audio cache : Yes
Make use of C2 pointers : No

Combined read/write offset correction : 48
Overread into Lead-In and Lead-Out : No
Fill up missing offset samples with silence : Yes
Delete leading and trailing silent blocks : No
Null samples used in CRC calculations : Yes
Used interface : Native Win32 interface for Win NT & 2000
Gap handling : Appended to previous track

Used output format : User Defined Encoder
Selected bitrate : 768 kBit/s
Quality : High
Add ID3 tag : No
Command line compressor : C:\Program Files\Exact Audio Copy\Flac\flac.exe
Additional command line options : -V -8 -T "artist=%a" -T "title=%t" -T "album=%g" -T "date=%y" -T "tracknumber=%n" -T "genre=%m" %s


TOC of the extracted CD

Track | Start | Length | Start sector | End sector
––––––––––––––––––––––––––––-
1 | 0:00.42 | 13:00.38 | 42 | 58579
2 | 13:01.05 | 5:41.10 | 58580 | 84164
3 | 18:42.15 | 1:56.60 | 84165 | 92924
4 | 20:39.00 | 5:19.15 | 92925 | 116864
5 | 25:58.15 | 2:23.55 | 116865 | 127644
6 | 28:21.70 | 10:31.35 | 127645 | 175004
7 | 38:53.30 | 9:12.20 | 175005 | 216424


Track 1

Filename C:\Documents and Settings\Claude\Bureaublad\Shylock\Shylock - Ile De Fievre (FR) - 01 - Ile De Fievre.wav

Pre-gap length 0:00:02.56

Peak level 96.5 %
Extraction speed 3.5 X
Track quality 100.0 %
Test CRC CF386F8C
Copy CRC CF386F8C
Copy OK

Track 2

Filename C:\Documents and Settings\Claude\Bureaublad\Shylock\Shylock - Ile De Fievre (FR) - 02 - Le Sang Des Capucines.wav

Pre-gap length 0:00:00.53

Peak level 96.5 %
Extraction speed 4.0 X
Track quality 100.0 %
Test CRC A31A76B6
Copy CRC A31A76B6
Copy OK

Track 3

Filename C:\Documents and Settings\Claude\Bureaublad\Shylock\Shylock - Ile De Fievre (FR) - 03 - Choral.wav

Pre-gap length 0:00:03.36

Peak level 88.2 %
Extraction speed 3.3 X
Track quality 100.0 %
Test CRC ACF660D7
Copy CRC ACF660D7
Copy OK

Track 4

Filename C:\Documents and Settings\Claude\Bureaublad\Shylock\Shylock - Ile De Fievre (FR) - 04 - Himogene.wav

Pre-gap length 0:00:03.88

Peak level 96.5 %
Extraction speed 4.4 X
Track quality 100.0 %
Test CRC 7B14A3EF
Copy CRC 7B14A3EF
Copy OK

Track 5

Filename C:\Documents and Settings\Claude\Bureaublad\Shylock\Shylock - Ile De Fievre (FR) - 05 - Lierre D'aujourd'hui.wav

Pre-gap length 0:00:03.88

Peak level 96.5 %
Extraction speed 4.0 X
Track quality 100.0 %
Test CRC 0228D2D3
Copy CRC 0228D2D3
Copy OK

Track 6

Filename C:\Documents and Settings\Claude\Bureaublad\Shylock\Shylock - Ile De Fievre (FR) - 06 - Laocksetal.wav

Pre-gap length 0:00:04.24

Peak level 96.5 %
Extraction speed 5.2 X
Track quality 100.0 %
Test CRC 8DF595F1
Copy CRC 8DF595F1
Copy OK

Track 7

Filename C:\Documents and Settings\Claude\Bureaublad\Shylock\Shylock - Ile De Fievre (FR) - 07 - Le Dernier.wav

Pre-gap length 0:00:03.36

Peak level 96.5 %
Extraction speed 5.6 X
Track quality 100.0 %
Test CRC E9466CC6
Copy CRC E9466CC6
Copy OK

No errors occurred

End of status report

[CUETools log; Date: 15.06.2019 23:53:46; Version: 2.1.4]
Pregap length 00:00:42.
[CTDB TOCID: qblPbaToZucdK1xV1FutEB06BTA-] found.
Track | CTDB Status
1 | (22/22) Accurately ripped
2 | (22/22) Accurately ripped
3 | (22/22) Accurately ripped
4 | (21/22) Accurately ripped
5 | (21/22) Accurately ripped
6 | (22/22) Accurately ripped
7 | (22/22) Accurately ripped
[AccurateRip ID: 000d4ce4-004d06db-480b4507] found.
Track [ CRC | V2 ] Status
01 [4062587b|cf81ee60] (03+11/14) Accurately ripped
02 [7ca3246c|9b9966ab] (03+11/14) Accurately ripped
03 [092404c8|2f3513bf] (03+11/14) Accurately ripped
04 [50ce13bc|19e69221] (03+11/14) Accurately ripped
05 [f4cc53be|467bbffd] (03+11/14) Accurately ripped
06 [8084b6c5|215ccbba] (03+11/14) Accurately ripped
07 [8ed279d5|2e05cdba] (03+11/14) Accurately ripped

Track Peak [ CRC32 ] [W/O NULL] [ LOG ]
– 96,5 [4A2B8FF9] [0CCC7CE4]
01 96,5 [CF386F8C] [D55ECBD0] CRC32
02 96,5 [A31A76B6] [E3AD65FD] CRC32
03 88,2 [ACF660D7] [9BEAE403] CRC32
04 96,5 [7B14A3EF] [9AA51599] CRC32
05 96,5 [0228D2D3] [84588885] CRC32
06 96,5 [8DF595F1] [C5052BC3] CRC32
07 96,5 [E9466CC6] [178C7983] CRC32

Thanks to the original releaser