Subcategories

Sibelius Piano Trio - Sibelius, Schissi, Lefkowitz, Wennäkoski, Saariaho: Piano Trios (2016)

Posted By: tirexiss
Sibelius Piano Trio - Sibelius, Schissi, Lefkowitz, Wennäkoski, Saariaho: Piano Trios (2016)

Sibelius Piano Trio - Sibelius, Schissi, Lefkowitz, Wennäkoski, Saariaho: Piano Trios (2016)
EAC | FLAC (image+.cue, log) | Covers Included | 01:55:24 | 532 MB
Genre: Classical | Label: Yarlung Records | Catalog: YAR52638

Petteri, Juho and Samuli founded Sibelius Piano Trio a few years ago, and catapulted to success on the European concert stage. When three international soloists of this caliber unite to form a chamber music ensemble, the results are predictably electric. These three friends love playing together, and this love is easy to hear in their concerts and in their recording. Sibelius Piano Trio and Yarlung Records dedicated this album to Finlands 100th Anniversary. I want to say a personal thank you to Executive Producer Ann Mulally, a friend who serves on the Los Angeles Chamber Orchestra board of directors, and to Randy and Linda Bellous for enabling Yarlung to create this double album in honor of Finlands centennial. As a proud Finn and as a representative of the Finnish government, I salute Sibelius Piano Trio for their talent and join them in celebrating the 100th Anniversary of Finlands independence in 2017. Petteri, Juho and Samuli embody and exemplify the best of our country, and as someone who lives in Los Angeles, it gives me great pleasure that the Trio is so intimately connected with California and Yarlung Records. Please join me in celebrating this dynamic young trio, and in celebrating the magnificent country of Finland. Suomi 100! – J.P. Markanen, Consul General of Finland

Sibelius Piano Trio - Sibelius, Schissi, Lefkowitz, Wennäkoski, Saariaho: Piano Trios (2016)

Track List:

CD 1:
Diego Schissi
[1]-[4] Nene

David S. Lefkowitz
[5] Ruminations

Jean Sibelius
[6]-[8] Korppoo Trio in D Major (JS 209)

Exact Audio Copy V1.1 from 23. June 2015

EAC extraction logfile from 12. March 2017, 19:21

Sibelius Piano Trio / Sibelius Piano Trio - CD1

Used drive : HL-DT-STDVDRAM GU70N Adapter: 1 ID: 0

Read mode : Secure
Utilize accurate stream : Yes
Defeat audio cache : Yes
Make use of C2 pointers : No

Read offset correction : 48
Overread into Lead-In and Lead-Out : No
Fill up missing offset samples with silence : Yes
Delete leading and trailing silent blocks : No
Null samples used in CRC calculations : Yes
Used interface : Native Win32 interface for Win NT & 2000

Used output format : User Defined Encoder
Selected bitrate : 128 kBit/s
Quality : High
Add ID3 tag : No
Command line compressor : C:\Program Files (x86)\Exact Audio Copy\Flac\flac.exe
Additional command line options : -V -8 -T "Date=%year%" -T "Genre=%genre%" %source%


TOC of the extracted CD

Track | Start | Length | Start sector | End sector
––––––––––––––––––––––––––––-
1 | 0:00.00 | 4:09.48 | 0 | 18722
2 | 4:09.48 | 3:52.07 | 18723 | 36129
3 | 8:01.55 | 3:17.60 | 36130 | 50964
4 | 11:19.40 | 4:42.19 | 50965 | 72133
5 | 16:01.59 | 11:41.57 | 72134 | 124765
6 | 27:43.41 | 8:01.01 | 124766 | 160841
7 | 35:44.42 | 12:02.30 | 160842 | 215021
8 | 47:46.72 | 6:19.15 | 215022 | 243461


Range status and errors

Selected range

Filename C:\temp\Sibelius Piano Trio\CD1\Sibelius Piano Trio - CD1.wav

Peak level 89.1 %
Extraction speed 5.1 X
Range quality 100.0 %
Test CRC D4A25DB3
Copy CRC D4A25DB3
Copy OK

No errors occurred


AccurateRip summary

Track 1 not present in database
Track 2 not present in database
Track 3 not present in database
Track 4 not present in database
Track 5 not present in database
Track 6 not present in database
Track 7 not present in database
Track 8 not present in database

None of the tracks are present in the AccurateRip database

End of status report

==== Log checksum 314A709ED74BB0B55EC56EAA034D43DBCFD47B40CEBCAFF153E7FB6F7E611DAF ====

[CUETools log; Date: 19.12.2017 11:24:11; Version: 2.1.5]
[CTDB TOCID: fSZU4guRO6WZrkyQ9t6Ead4O_wQ-] disk not present in database.
[AccurateRip ID: 000e11bc-00631fbf-710cae08] disk not present in database.

Track Peak [ CRC32 ] [W/O NULL] [ LOG ]
– 89,1 [D4A25DB3] [BAC27601] CRC32
01 82,8 [66A89E8E] [C721A5D4]
02 43,2 [D7AAA00E] [161FF3E2]
03 83,4 [2B20FE73] [FAB0E661]
04 74,8 [F222991C] [0D36E0E1]
05 82,2 [663A580E] [DA834293]
06 79,7 [96673631] [15B3B413]
07 81,3 [B08556D8] [036888EB]
08 89,1 [83EF6758] [48EE8063]

CD 2:
Jean Sibelius
[1]-[4] Havträsk Trio in A Minor (JS 207)

Lotta Wennäkoski
[5] Päärme

Kaija Saariaho
[6]-[10] Je sens un deuxième coeur

Jean Sibelius
[11]-[13] Lovisa Trio in C Major (JS 208)

Exact Audio Copy V1.1 from 23. June 2015

EAC extraction logfile from 12. March 2017, 20:37

Sibelius Piano Trio / Sibelius Piano Trio - CD2

Used drive : HL-DT-STDVDRAM GU70N Adapter: 1 ID: 0

Read mode : Secure
Utilize accurate stream : Yes
Defeat audio cache : Yes
Make use of C2 pointers : No

Read offset correction : 48
Overread into Lead-In and Lead-Out : No
Fill up missing offset samples with silence : Yes
Delete leading and trailing silent blocks : No
Null samples used in CRC calculations : Yes
Used interface : Native Win32 interface for Win NT & 2000

Used output format : User Defined Encoder
Selected bitrate : 128 kBit/s
Quality : High
Add ID3 tag : No
Command line compressor : C:\Program Files (x86)\Exact Audio Copy\Flac\flac.exe
Additional command line options : -V -8 -T "Date=%year%" -T "Genre=%genre%" %source%


TOC of the extracted CD

Track | Start | Length | Start sector | End sector
––––––––––––––––––––––––––––-
1 | 0:00.00 | 6:00.66 | 0 | 27065
2 | 6:00.66 | 4:06.50 | 27066 | 45565
3 | 10:07.41 | 2:27.28 | 45566 | 56618
4 | 12:34.69 | 6:59.24 | 56619 | 88067
5 | 19:34.18 | 11:12.29 | 88068 | 138496
6 | 30:46.47 | 4:00.51 | 138497 | 156547
7 | 34:47.23 | 2:07.68 | 156548 | 166140
8 | 36:55.16 | 3:37.56 | 166141 | 182471
9 | 40:32.72 | 2:16.22 | 182472 | 192693
10 | 42:49.19 | 5:12.46 | 192694 | 216139
11 | 48:01.65 | 4:50.53 | 216140 | 237942
12 | 52:52.43 | 3:43.67 | 237943 | 254734
13 | 56:36.35 | 4:47.25 | 254735 | 276284


Range status and errors

Selected range

Filename C:\temp\Sibelius Piano Trio\CD2\Sibelius Piano Trio - CD2.wav

Peak level 90.7 %
Extraction speed 2.2 X
Range quality 100.0 %
Test CRC 2CBB566C
Copy CRC 2CBB566C
Copy OK

No errors occurred


AccurateRip summary

Track 1 not present in database
Track 2 not present in database
Track 3 not present in database
Track 4 not present in database
Track 5 not present in database
Track 6 not present in database
Track 7 not present in database
Track 8 not present in database
Track 9 not present in database
Track 10 not present in database
Track 11 not present in database
Track 12 not present in database
Track 13 not present in database

None of the tracks are present in the AccurateRip database

End of status report

==== Log checksum 20C3B88D48CE7EAA7488E70CF8A9143AC092D2599D30B7613FF5226AC9046850 ====

[CUETools log; Date: 19.12.2017 11:24:32; Version: 2.1.5]
[CTDB TOCID: Py3V91ZXz6Wwm9OU3cos.sOag_o-] disk not present in database.
[AccurateRip ID: 001f1bf6-0132a0ce-c80e630d] disk not present in database.

Track Peak [ CRC32 ] [W/O NULL] [ LOG ]
– 90,7 [2CBB566C] [7BA7CA6D] CRC32
01 86,9 [0CC71974] [F656A1CB]
02 72,6 [1371F08F] [528B8373]
03 76,3 [A04ABFFA] [73CB10FE]
04 74,3 [673DA3EC] [5FB6F1C3]
05 84,5 [84FAD345] [C0915071]
06 56,8 [4C691564] [85F0DF49]
07 90,7 [3B933388] [EE73B490]
08 71,7 [81D70661] [500AF0A4]
09 89,1 [D55AE93C] [C626349A]
10 64,7 [5D340D7E] [B5B08ADB]
11 82,1 [FD23C761] [E74A42A0]
12 55,9 [64575628] [D961D717]
13 86,5 [07BC1D24] [436B9C16]

Performers:
Sibelius Piano Trio
Petteri Iivonen, violin
Juho Pohjonen, piano
Samuli Peltonen, cello

Thanks to the Original ripper A-Z!

Download: