Subcategories

Sigiswald Kuijken, La Petite Bande - Carl Philipp Emanuel Bach: Die Auferstehung und Himmelfahrt Jesu (2003)

Posted By: ArlegZ
Sigiswald Kuijken, La Petite Bande - Carl Philipp Emanuel Bach: Die Auferstehung und Himmelfahrt Jesu (2003)

Sigiswald Kuijken, La Petite Bande - Carl Philipp Emanuel Bach: Die Auferstehung und Himmelfahrt Jesu (2003)
EAC | FLAC | Image (Cue & Log) ~ 364 Mb | Total time: 72:33 | Scans included
Classical | Label: Hyperion | # CDA67364 | Recorded: 2002

The death of Georg Philipp Telemann in 1767 paved the way for his godson, Carl Philipp Emanuel Bach to take up the position of Director of Music in Hamburg. Prior to that C P E Bach had been working for Frederick the Second of Prussia in Berlin but longed for a greater musical freedom and stylistic flexibility that working in Hamburg would offer him. This included the composition of three oratorios, including the one presented here. C P E Bach worked on The Resurrection and Ascension of Jesus in collaboration with the librettist Karl Wilhelm Ramler from 1781, and in 1787 it was published by Breitkopf. A letter from the composer to his publisher subsequently revealed he considered it to be one of his greatest masterpieces—a reflection agreed upon by audiences at the time, and succeeding generations of composers, including Haydn and Beethoven who both drew inspiration from it.

Performer:
Uta Schwabe, soprano
Christoph Genz, tenor
Stephan Genz, bass
Ex Tempore
La Petite Bande
Conductor – Sigiswald Kuijken

Track List:
Erster Teil
1. No 01: Einleitung
2. No 02. Chorus: Gott du wirst (chorus)
3. No 03. Recitative: Judäa zittert (bass)
4. No 04. Aria: Mein Geist voll Furcht und Freuden (bass)
5. No 05. Chorus: Triumph! Triumph! (chorus)
6. No 06. Recitative: Die frommen Töchter (tenor)
7. No 07. Aria: Wie bang hat dich mein Lied beweint (soprano)
8. No 08. Recitative: Wer ist die Sionitin (bass) [
9. No 09. Duet: Vater deiner schwachen Kinder (tenor/soprano)
10. No 10. Recitative: Freudinnen Jesu (tenor)
11. No 11. Aria: Ich folge dir (tenor)
12. No 12. Chorus: Tod! Wo ist dein Stachel? (chorus)
Zweiter Teil
13. No 01: Einleitung
14. No 02. Recitative: Dort seh' ich aus den Toren Jerusalems (bass)
15. No 03. Aria: Willkommen, Heiland (bass)
16. No 04. Chorus: Triumph! Triumph! (chorus)
17. No 05. Recitative: Elf auserwählte Jünger (tenor)
18. No 06. Aria: Mein Herr, mein Gott (tenor)
19. No 07. Chorus: Triumph! Triumph! (chorus)
20. No 08. Recitative: Auf einem Hügel (tenor)
21. No 09. Aria: Ihr Tore Gottes (bass)
22. No 10. Chorus: Gott fähret auf mit Jauchzen (chorus)


Exact Audio Copy V1.3 from 2. September 2016

EAC extraction logfile from 24. October 2017, 15:25

Sigiswald Kuijken, La Petite Bande, Ex Tempore / CPE Bach - Die Auferstehung und Himmelfahrt Jesu

Used drive : HL-DT-STDVDRAM GH24NS95 Adapter: 1 ID: 0

Read mode : Secure
Utilize accurate stream : Yes
Defeat audio cache : Yes
Make use of C2 pointers : No

Read offset correction : 6
Overread into Lead-In and Lead-Out : No
Fill up missing offset samples with silence : Yes
Delete leading and trailing silent blocks : No
Null samples used in CRC calculations : Yes
Used interface : Native Win32 interface for Win NT & 2000

Used output format : User Defined Encoder
Selected bitrate : 128 kBit/s
Quality : High
Add ID3 tag : No
Command line compressor : C:\Program Files\Exact Audio Copy\Flac\flac.exe
Additional command line options : -V -8 -T "Date=%year%" -T "Genre=%genre%" %source%


TOC of the extracted CD

Track | Start | Length | Start sector | End sector
––––––––––––––––––––––––––––-
1 | 0:00.00 | 1:28.17 | 0 | 6616
2 | 1:28.17 | 2:23.68 | 6617 | 17409
3 | 3:52.10 | 1:41.32 | 17410 | 25016
4 | 5:33.42 | 4:21.63 | 25017 | 44654
5 | 9:55.30 | 2:05.47 | 44655 | 54076
6 | 12:01.02 | 1:30.23 | 54077 | 60849
7 | 13:31.25 | 3:48.32 | 60850 | 77981
8 | 17:19.57 | 2:13.50 | 77982 | 88006
9 | 19:33.32 | 6:20.40 | 88007 | 116546
10 | 25:53.72 | 1:50.43 | 116547 | 124839
11 | 27:44.40 | 4:30.57 | 124840 | 145146
12 | 32:15.22 | 2:14.53 | 145147 | 155249
13 | 34:30.00 | 0:37.27 | 155250 | 158051
14 | 35:07.27 | 6:13.20 | 158052 | 186046
15 | 41:20.47 | 6:52.33 | 186047 | 216979
16 | 48:13.05 | 2:04.67 | 216980 | 226346
17 | 50:17.72 | 2:22.05 | 226347 | 237001
18 | 52:40.02 | 3:57.68 | 237002 | 254844
19 | 56:37.70 | 2:03.37 | 254845 | 264106
20 | 58:41.32 | 1:56.08 | 264107 | 272814
21 | 60:37.40 | 3:34.05 | 272815 | 288869
22 | 64:11.45 | 8:32.27 | 288870 | 327296


Range status and errors

Selected range

Filename C:\Program Files\Exact Audio Copy\Flac\CPE Bach - Die Auferstehung und Himmelfahrt Jesu.wav

Peak level 99.9 %
Extraction speed 3.3 X
Range quality 100.0 %
Test CRC CE0FFE4D
Copy CRC CE0FFE4D
Copy OK

No errors occurred

End of status report

==== Log checksum D1859103A5214E4AC1F063B0FAEE7A1A75309737146113B22F3BF85AC014195D ====

Sigiswald Kuijken, La Petite Bande - Carl Philipp Emanuel Bach: Die Auferstehung und Himmelfahrt Jesu (2003)