Subcategories

Simon & Garfunkel - The Definitive Simon And Garfunkel (1991)

Posted By: Designol
Simon & Garfunkel - The Definitive Simon And Garfunkel (1991)

Simon & Garfunkel - The Definitive Simon And Garfunkel (1991)
EAC | FLAC | Image (Cue&Log) ~ 340 Mb (incl 5%) | Mp3 (CBR320) ~ 166 Mb (incl 5%) | Scans included
Genre: Folk, AM Pop, Folk-Rock | Label: Columbia | # MOOD CD21 | Time: 00:56:45

Simon and Garfunkel are undoubtedly one of the most successful songwriting duos of the 60s, reaching a similar level of popularity to the Beatles during the latter part of the decade. This Definite Collection shows what a diverse duo they really were and how many memorable tunes they performed together. Though many were put off by the pair's more sterile folk-rock arrangements and clean choirboy harmonies, this collection shows that there was much more to their artistic palette. Songs such as "Homeward Bound", "I Am a Rock", "Cecilia" and "Mrs Robinson" all show that the duo could rock with the best of them and "The Sound of Silence" and "Bridge over Troubled Water" are just some of the beautifully timeless records the pair gave us. It may not be as definitive as it claims but this is a great collection featuring some of their best and most well known works.

Review by Paul Sullivan

Eight years before the American side got their act together on The Best Of, the U.K. contingent of Columbia/Sony released this single-CD compilation of greatest hits. Of course, it's not totally definitive: "Kathy's Song" and "For Emily, Whenever I May Find Her" are live versions from the Concert in Central Park. It does not have "Fakin' It" but does have "Seven O'Clock News/Silent Night." Still turning up in some discount bins, it's worth picking up.

Review by Ted Mills, Allmusic.com

Simon & Garfunkel - The Definitive Simon And Garfunkel (1991)

Simon & Garfunkel - The Definitive Simon And Garfunkel (1991)




Tracklist:

01. Wednesday Morning, 3.A.M. (02:11)
02. The Sound Of Silence (03:03)
03. Homeward Bound (02:26)
04. Kathy's Song (In Concert) (03:23)
05. I Am A Rock (02:51)
06. For Emily, Whenever I May Find Her (In Concert) (02:14)
07. Scarborough Fair/Canticle (03:07)
08. The 59th Street Bridge Song (Feelin' Groovy) (01:38)
09. Seven O' Clock/Silent Night (01:58)
10. A Hazy Shade Of Winter (02:17)
11. El Condor Pasa (If I Could) (03:08)
12. Mrs. Robinson (03:54)
13. America (03:32)
14. At The Zoo (02:21)
15. Old Friends (02:33)
16. Bookends Theme (01:22)
17. Cecilia (02:50)
18. The Boxer (05:09)
19. Bridge Over Troubled Water (04:50)
20. Song For The Asking (01:49)


Exact Audio Copy V0.99 prebeta 5 from 4. May 2009

Отчёт EAC об извлечении, выполненном 1. июня 2009, 17:22

Simon & Garfunkel / The Definitive Simon And Garfunkel

Дисковод: ASUS DRW-20B1LT Adapter: 3 ID: 0

Режим чтения : Достоверность
Использование точного потока : Да
Отключение кэша аудио : Да
Использование указателей C2 : Нет

Коррекция смещения при чтении : 6
Способность читать области Lead-in и Lead-out : Нет
Заполнение пропущенных сэмплов тишиной : Да
Удаление блоков с тишиной в начале и конце : Нет
При вычислениях CRC использовались нулевые сэмплы : Да
Интерфейс : Установленный внешний ASPI-интерфейс

Выходной формат : Внутренние WAV-операции
Формат сэмплов : 44.100 Гц; 16 бит; стерео


TOC извлечённого CD

Трек | Старт | Длительность | Начальный сектор | Конечный сектор
––––––––––––––––––––––––––––––––––-
1 | 0:00.00 | 2:11.52 | 0 | 9876
2 | 2:11.52 | 3:03.53 | 9877 | 23654
3 | 5:15.30 | 2:26.50 | 23655 | 34654
4 | 7:42.05 | 3:23.25 | 34655 | 49904
5 | 11:05.30 | 2:51.07 | 49905 | 62736
6 | 13:56.37 | 2:14.40 | 62737 | 72826
7 | 16:11.02 | 3:07.63 | 72827 | 86914
8 | 19:18.65 | 1:38.25 | 86915 | 94289
9 | 20:57.15 | 1:58.17 | 94290 | 103156
10 | 22:55.32 | 2:17.43 | 103157 | 113474
11 | 25:13.00 | 3:08.27 | 113475 | 127601
12 | 28:21.27 | 3:54.68 | 127602 | 145219
13 | 32:16.20 | 3:32.05 | 145220 | 161124
14 | 35:48.25 | 2:21.45 | 161125 | 171744
15 | 38:09.70 | 2:33.67 | 171745 | 183286
16 | 40:43.62 | 1:22.20 | 183287 | 189456
17 | 42:06.07 | 2:50.28 | 189457 | 202234
18 | 44:56.35 | 5:09.07 | 202235 | 225416
19 | 50:05.42 | 4:50.05 | 225417 | 247171
20 | 54:55.47 | 1:49.58 | 247172 | 255404


Характеристики диапазона извлечения и сообщения об ошибках

Выбранный диапазон

Имя файла E:\Audio lossless\Simon & Garfunkel\Simon & Garfunkel - 1991 - The Definitive Simon And Garfunkel [MOOD CD21]\Simon & Garfunkel - The Definitive Simon And Garfunkel.wav

Пиковый уровень 95.5 %
Качество диапазона 100.0 %
CRC копии A4E1C17D
Копирование… OK

Ошибок не произошло


AccurateRip: сводка

Трек 1 точное извлечение (доверие 107) [140A6BD3]
Трек 2 точное извлечение (доверие 110) [340335A2]
Трек 3 точное извлечение (доверие 110) [8234F2B0]
Трек 4 точное извлечение (доверие 107) [376D9843]
Трек 5 точное извлечение (доверие 109) [D9E86D5E]
Трек 6 точное извлечение (доверие 107) [9F5FBF45]
Трек 7 точное извлечение (доверие 108) [9ADFE6F0]
Трек 8 точное извлечение (доверие 109) [61B113BF]
Трек 9 точное извлечение (доверие 106) [94E95E04]
Трек 10 точное извлечение (доверие 110) [ED55443D]
Трек 11 точное извлечение (доверие 108) [0F922762]
Трек 12 точное извлечение (доверие 108) [EFCFD782]
Трек 13 точное извлечение (доверие 105) [62561C92]
Трек 14 точное извлечение (доверие 105) [CE8CF513]
Трек 15 точное извлечение (доверие 107) [6CEB779A]
Трек 16 точное извлечение (доверие 107) [157C6589]
Трек 17 точное извлечение (доверие 110) [15DE11F7]
Трек 18 точное извлечение (доверие 110) [4B98BA1E]
Трек 19 точное извлечение (доверие 108) [268B6B59]
Трек 20 точное извлечение (доверие 107) [E96B2846]

Все треки извлечены точно

Конец отчёта

[CUETools log; Date: 28.08.2016 18:53:46; Version: 2.1.4]
[CTDB TOCID: 1F6o119B5PpwL9G0hHGbvfVM2z0-] found.
Track | CTDB Status
1 | (338/339) Accurately ripped
2 | (338/339) Accurately ripped
3 | (339/339) Accurately ripped
4 | (338/339) Accurately ripped
5 | (338/339) Accurately ripped
6 | (339/339) Accurately ripped
7 | (339/339) Accurately ripped
8 | (338/339) Accurately ripped
9 | (339/339) Accurately ripped
10 | (339/339) Accurately ripped
11 | (337/339) Accurately ripped
12 | (338/339) Accurately ripped
13 | (338/339) Accurately ripped
14 | (338/339) Accurately ripped
15 | (337/339) Accurately ripped
16 | (335/339) Accurately ripped
17 | (337/339) Accurately ripped
18 | (331/339) Accurately ripped, or (4/339) differs in 549 samples @00:38:38,00:43:72,00:44:50-00:44:51,00:46:43,00:47:39-00:47:40,00:48:36,00:49:67-00:49:68,00:50:28,00:52:38,00:53:53,00:57:02,01:00:62-01:00:63,01:02:55,01:03:70,01:04:30,01:06:05,01:06:58-01:06:59,01:08:51-01:08:52,01:09:30,01:10:44-01:10:45,01:12:01-01:12:02,01:13:69-01:13:70,01:16:59,01:17:02,01:27:39
19 | (335/339) Accurately ripped
20 | (337/339) Accurately ripped
[AccurateRip ID: 0027109e-02412325-210d4d14] found.
Track [ CRC | V2 ] Status
01 [140a6bd3|21512ab9] (195+183/380) Accurately ripped
02 [340335a2|53a64443] (199+185/386) Accurately ripped
03 [8234f2b0|76164bba] (199+186/387) Accurately ripped
04 [376d9843|bb7db4f6] (196+184/382) Accurately ripped
05 [d9e86d5e|30110b48] (199+185/386) Accurately ripped
06 [9f5fbf45|d6477206] (197+185/384) Accurately ripped
07 [9adfe6f0|6b0466ee] (198+185/385) Accurately ripped
08 [61b113bf|83fe5ec5] (199+185/386) Accurately ripped
09 [94e95e04|6254248a] (197+185/384) Accurately ripped
10 [ed55443d|7473971d] (200+186/388) Accurately ripped
11 [0f922762|c2a52771] (197+183/382) Accurately ripped
12 [efcfd782|85961b1f] (197+185/384) Accurately ripped
13 [62561c92|19dd09cb] (195+182/379) Accurately ripped
14 [ce8cf513|7f014ffb] (194+182/378) Accurately ripped
15 [6ceb779a|ebf4a3c0] (196+185/383) Accurately ripped
16 [157c6589|2501c6fa] (196+184/382) Accurately ripped
17 [15de11f7|643daf00] (200+184/386) Accurately ripped
18 [4b98ba1e|e7d7217b] (199+185/384) Accurately ripped
19 [268b6b59|ad2cc2fd] (195+186/381) Accurately ripped
20 [e96b2846|c83590ce] (193+185/378) Accurately ripped
Offsetted by -1150:
01 [644b4906] (000/380) No match (V2 was not tested)
02 [af7e142f] (000/386) No match (V2 was not tested)
03 [a6fb6890] (000/387) No match (V2 was not tested)
04 [f6569069] (000/382) No match (V2 was not tested)
05 [a589117e] (000/386) No match (V2 was not tested)
06 [a5838d43] (000/384) No match (V2 was not tested)
07 [29d456fc] (000/385) No match (V2 was not tested)
08 [ab724799] (000/386) No match (V2 was not tested)
09 [d3e29154] (000/384) No match (V2 was not tested)
10 [2b50a16b] (000/388) No match (V2 was not tested)
11 [ab6f81b8] (000/382) No match (V2 was not tested)
12 [945e5de6] (000/384) No match (V2 was not tested)
13 [f969b63e] (000/379) No match (V2 was not tested)
14 [d088d4ef] (000/378) No match (V2 was not tested)
15 [40c85f49] (000/383) No match (V2 was not tested)
16 [ffdba05c] (000/382) No match (V2 was not tested)
17 [92e24913] (000/386) No match (V2 was not tested)
18 [4f57b48c] (000/384) No match (V2 was not tested)
19 [097fe9aa] (000/381) No match (V2 was not tested)
20 [271bde45] (000/378) No match (V2 was not tested)

Track Peak [ CRC32 ] [W/O NULL] [ LOG ]
– 95,5 [A4E1C17D] [85A1D2F6] CRC32
01 52,0 [437033CE] [2D698E06]
02 77,2 [90532004] [F2ED7F10]
03 83,6 [4C5EE2A7] [2A65B32A]
04 62,1 [043D85ED] [4226F05A]
05 70,7 [AD2FA450] [54A11826]
06 92,6 [0A3BCA74] [4F9748D6]
07 66,4 [0D877E2C] [E36AD413]
08 66,9 [312862AF] [75EBDE7A]
09 45,4 [A1D4EFAA] [25AD21FB]
10 95,5 [7468B91B] [7C03B83A]
11 58,8 [5C524E0A] [666935D2]
12 85,8 [AFA466DF] [5341A8C4]
13 73,1 [2FF9A5ED] [338E98A1]
14 64,2 [5E465340] [C172ABB4]
15 61,5 [8E75518E] [E059602D]
16 39,5 [47899D78] [0A130252]
17 91,8 [52C19773] [EC8EB8AD]
18 93,6 [3B0C9525] [7C3C2396]
19 65,9 [9C0E7726] [3DBCAF3C]
20 59,7 [68D7021A] [DB891FC7]

foobar2000 1.2 / Dynamic Range Meter 1.1.1
log date: 2016-08-28 16:20:20

––––––––––––––––––––––––––––––––––––––––
Analyzed: Simon & Garfunkel / The Definitive Simon And Garfunkel
––––––––––––––––––––––––––––––––––––––––

DR Peak RMS Duration Track
––––––––––––––––––––––––––––––––––––––––
DR12 -5.67 dB -19.08 dB 2:12 01-Wednesday Morning, 3.A.M.
DR12 -2.24 dB -17.31 dB 3:04 02-The Sound Of Silence
DR12 -1.55 dB -17.34 dB 2:27 03-Homeward Bound
DR12 -4.14 dB -20.35 dB 3:23 04-Kathy's Song (In Concert)
DR11 -3.00 dB -16.87 dB 2:51 05-I Am A Rock
DR12 -0.67 dB -18.37 dB 2:15 06-For Emily, Whenever I May Find Her (In Concert)
DR11 -3.56 dB -18.17 dB 3:08 07-Scarborough Fair/Canticle
DR11 -3.48 dB -17.68 dB 1:38 08-The 59th Street Bridge Song (Feelin' Groovy)
DR11 -6.85 dB -22.17 dB 1:58 09-Seven O' Clock/Silent Night
DR13 -0.39 dB -16.29 dB 2:18 10-A Hazy Shade Of Winter
DR12 -4.60 dB -21.04 dB 3:08 11-El Condor Pasa (If I Could)
DR13 -1.32 dB -18.88 dB 3:55 12-Mrs. Robinson
DR12 -2.71 dB -20.26 dB 3:32 13-America
DR12 -3.84 dB -19.05 dB 2:22 14-At The Zoo
DR11 -4.22 dB -20.78 dB 2:34 15-Old Friends
DR12 -8.06 dB -26.15 dB 1:22 16-Bookends Theme
DR14 -0.74 dB -17.32 dB 2:50 17-Cecilia
DR12 -0.57 dB -18.84 dB 5:09 18-The Boxer
DR12 -3.61 dB -20.78 dB 4:50 19-Bridge Over Troubled Water
DR10 -4.48 dB -20.01 dB 1:50 20-Song For The Asking
––––––––––––––––––––––––––––––––––––––––

Number of tracks: 20
Official DR value: DR12

Samplerate: 44100 Hz
Channels: 2
Bits per sample: 16
Bitrate: 730 kbps
Codec: FLAC
================================================================================

Simon & Garfunkel - The Definitive Simon And Garfunkel (1991)

Simon & Garfunkel - The Definitive Simon And Garfunkel (1991)

All thanks to original releaser - xfiles

More interesting music in My Blog

NitroFlare:

SmnGarfDefin.flac.rar

SmnGarfDefin.mp3.rar

Password: designol