Subcategories
Tags
Language
Tags

Siouxsie And The Banshees - Nocturne (1983) CD Remastered 2009 + DVD9 (2006) [Re-Up]

Posted By: Designol
Siouxsie And The Banshees - Nocturne (1983) CD Remastered 2009 + DVD9 (2006) [Re-Up]

Siouxsie And The Banshees - Nocturne (1983) CD Remastered 2009 + DVD9 (2006)
EAC | FLAC | Tracks (Cue&Log) ~ 523 Mb | Mp3 (CBR320) ~ 173 Mb | Scans ~ 54 Mb
Post-Punk, Goth Rock, New Wave, Alternative Rock | Label: Polydor | # 531 489-4 | 01:15:47

DVD9 | NTSC | 4:3 (720x480) VBR | #1 AC3, 2ch, 448 kbps; #2 AC3, 6ch, 448 kbps; #3 DTS, 755 Kbps
Subs (for extras): English, Francais, Deutsch, Espanol, Portuguese | 01:47:42 | ~ 5.9 Gb

2009 digitally remastered digipak edition of this classic live Banshees album from 1986. Features sleevenotes by Paul Morley. 16 tracks. NTSC DVD Nocturne features the Banshees live in concert from the Royal Albert Hall (Sept 30th & Oct 1st 1983) , featuring Robert Smith from The Cure on guitar. Extras include the Channel 4 Documentary Play At Home (53 mins approx) and the Promotional Video for 'Dear Prudence'. Also features 'Melt' and 'Painted Bird' recorded live on The Old Grey Whistle Test (8 mins. approx). Available in Dolby Stereo, 5.1 Surround Sound and DTS 5.1 Surround Sound.

Nocturne is a top-notch live double album recorded in 1983 at the Royal Albert Hall. The sound quality is first-rate and the band performs excellently here. The songs on this release run a wide chronological range, from early numbers like the Lennon/McCartney cover "Helter Skelter" (here given a fire-breathing performance) to their recent single of the time (another Beatles song), "Dear Prudence." Much of the material is culled from the group's recent releases: Juju, A Kiss in the Dreamhouse, and Kaleidoscope. This platter serves as an excellent, no-nonsense introduction to the band's music for neophytes, while fans of the group will appreciate the tight, gutsy, stripped-down performances.

Review by David Cleary, Allmusic.com

Siouxsie And The Banshees - Nocturne (1983) CD Remastered 2009 + DVD9 (2006) [Re-Up]



Tracklist:

01. Israel (06:48)
02. Dear Prudence (03:59)
03. Paradise Place (04:19)
04. Melt! (03:47)
05. Cascade (04:48)
06. Pulled To Bits (03:52)
07. Night Shift (06:24)
08. Sin In My Heart (03:34)
09. Slowdive (04:02)
10. Painted Bird (04:19)
11. Happy House (04:12)
12. Switch (07:00)
13. Spellbound (03:21)
14. Helter Skelter (03:41)
15. Eve White/Eve Black (02:46)
16. Voodoo Dolly (08:47)


Exact Audio Copy V0.99 prebeta 4 from 23. January 2008

EAC extraction logfile from 8. May 2009, 4:38

Siouxsie And The Banshees / Nocturne

Used drive : HL-DT-STDVDRAM GSA-T20N Adapter: 1 ID: 0

Read mode : Secure
Utilize accurate stream : Yes
Defeat audio cache : Yes
Make use of C2 pointers : No

Read offset correction : 667
Overread into Lead-In and Lead-Out : No
Fill up missing offset samples with silence : Yes
Delete leading and trailing silent blocks : No
Null samples used in CRC calculations : Yes
Used interface : Native Win32 interface for Win NT & 2000
Gap handling : Appended to previous track

Used output format : User Defined Encoder
Selected bitrate : 1024 kBit/s
Quality : High
Add ID3 tag : No
Command line compressor : C:\Program Files\FLAC\flac.exe
Additional command line options : -8 -V -T "ARTIST=%a" -T "TITLE=%t" -T "ALBUM=%g" -T "DATE=%y" -T "TRACKNUMBER=%n" -T "GENRE=%m" -T "COMMENT=EAC FLAC -8" %s


TOC of the extracted CD

Track | Start | Length | Start sector | End sector
––––––––––––––––––––––––––––-
1 | 0:00.00 | 6:48.73 | 0 | 30672
2 | 6:48.73 | 3:59.52 | 30673 | 48649
3 | 10:48.50 | 4:19.70 | 48650 | 68144
4 | 15:08.45 | 3:47.18 | 68145 | 85187
5 | 18:55.63 | 4:48.10 | 85188 | 106797
6 | 23:43.73 | 3:52.00 | 106798 | 124197
7 | 27:35.73 | 6:24.47 | 124198 | 153044
8 | 34:00.45 | 3:34.35 | 153045 | 169129
9 | 37:35.05 | 4:02.38 | 169130 | 187317
10 | 41:37.43 | 4:19.47 | 187318 | 206789
11 | 45:57.15 | 4:12.38 | 206790 | 225727
12 | 50:09.53 | 7:00.30 | 225728 | 257257
13 | 57:10.08 | 3:21.47 | 257258 | 272379
14 | 60:31.55 | 3:41.23 | 272380 | 288977
15 | 64:13.03 | 2:46.25 | 288978 | 301452
16 | 66:59.28 | 8:47.50 | 301453 | 341027


Track 1

Filename C:\Siouxsie & The Banshees - Nocturne (Live) (1983, 2009) [FLAC] {Polydor, 531 489-4}\01 - Israel.wav

Pre-gap length 0:00:02.00

Peak level 98.0 %
Track quality 100.0 %
Test CRC 33A040C2
Copy CRC 33A040C2
Accurately ripped (confidence 1) [93622FDE]
Copy OK

Track 2

Filename C:\Siouxsie & The Banshees - Nocturne (Live) (1983, 2009) [FLAC] {Polydor, 531 489-4}\02 - Dear Prudence.wav

Peak level 98.0 %
Track quality 100.0 %
Test CRC A137FCE7
Copy CRC A137FCE7
Accurately ripped (confidence 1) [8E3F7B4E]
Copy OK

Track 3

Filename C:\Siouxsie & The Banshees - Nocturne (Live) (1983, 2009) [FLAC] {Polydor, 531 489-4}\03 - Paradise Place.wav

Pre-gap length 0:00:00.01

Peak level 98.0 %
Track quality 100.0 %
Test CRC B40AA7D6
Copy CRC B40AA7D6
Accurately ripped (confidence 1) [3489700A]
Copy OK

Track 4

Filename C:\Siouxsie & The Banshees - Nocturne (Live) (1983, 2009) [FLAC] {Polydor, 531 489-4}\04 - Melt!.wav

Pre-gap length 0:00:00.01

Peak level 98.0 %
Track quality 100.0 %
Test CRC 3FDF2089
Copy CRC 3FDF2089
Accurately ripped (confidence 1) [2B86395D]
Copy OK

Track 5

Filename C:\Siouxsie & The Banshees - Nocturne (Live) (1983, 2009) [FLAC] {Polydor, 531 489-4}\05 - Cascade.wav

Pre-gap length 0:00:00.01

Peak level 98.0 %
Track quality 100.0 %
Test CRC 6591D828
Copy CRC 6591D828
Accurately ripped (confidence 1) [BF98D548]
Copy OK

Track 6

Filename C:\Siouxsie & The Banshees - Nocturne (Live) (1983, 2009) [FLAC] {Polydor, 531 489-4}\06 - Pulled To Bits.wav

Pre-gap length 0:00:00.01

Peak level 98.0 %
Track quality 100.0 %
Test CRC 824223B8
Copy CRC 824223B8
Accurately ripped (confidence 1) [D72BC54E]
Copy OK

Track 7

Filename C:\Siouxsie & The Banshees - Nocturne (Live) (1983, 2009) [FLAC] {Polydor, 531 489-4}\07 - Night Shift.wav

Pre-gap length 0:00:00.01

Peak level 98.0 %
Track quality 100.0 %
Test CRC 0EA82970
Copy CRC 0EA82970
Accurately ripped (confidence 1) [3B2CE211]
Copy OK

Track 8

Filename C:\Siouxsie & The Banshees - Nocturne (Live) (1983, 2009) [FLAC] {Polydor, 531 489-4}\08 - Sin In My Heart.wav

Pre-gap length 0:00:00.01

Peak level 98.0 %
Track quality 100.0 %
Test CRC 3BB27B9B
Copy CRC 3BB27B9B
Accurately ripped (confidence 1) [D8DCD367]
Copy OK

Track 9

Filename C:\Siouxsie & The Banshees - Nocturne (Live) (1983, 2009) [FLAC] {Polydor, 531 489-4}\09 - Slowdive.wav

Pre-gap length 0:00:00.01

Peak level 98.0 %
Track quality 100.0 %
Test CRC 28E63C6E
Copy CRC 28E63C6E
Accurately ripped (confidence 1) [0612905F]
Copy OK

Track 10

Filename C:\Siouxsie & The Banshees - Nocturne (Live) (1983, 2009) [FLAC] {Polydor, 531 489-4}\10 - Painted Bird.wav

Pre-gap length 0:00:00.01

Peak level 98.0 %
Track quality 100.0 %
Test CRC 18D46E2E
Copy CRC 18D46E2E
Accurately ripped (confidence 1) [23FE6E25]
Copy OK

Track 11

Filename C:\Siouxsie & The Banshees - Nocturne (Live) (1983, 2009) [FLAC] {Polydor, 531 489-4}\11 - Happy House.wav

Pre-gap length 0:00:00.01

Peak level 98.0 %
Track quality 100.0 %
Test CRC C865101D
Copy CRC C865101D
Accurately ripped (confidence 1) [0CE20738]
Copy OK

Track 12

Filename C:\Siouxsie & The Banshees - Nocturne (Live) (1983, 2009) [FLAC] {Polydor, 531 489-4}\12 - Switch.wav

Pre-gap length 0:00:00.01

Peak level 98.0 %
Track quality 99.9 %
Test CRC 15969C55
Copy CRC 15969C55
Accurately ripped (confidence 1) [BDFB4A90]
Copy OK

Track 13

Filename C:\Siouxsie & The Banshees - Nocturne (Live) (1983, 2009) [FLAC] {Polydor, 531 489-4}\13 - Spellbound.wav

Pre-gap length 0:00:00.01

Peak level 98.0 %
Track quality 100.0 %
Test CRC E9E5B327
Copy CRC E9E5B327
Accurately ripped (confidence 1) [D5302D00]
Copy OK

Track 14

Filename C:\Siouxsie & The Banshees - Nocturne (Live) (1983, 2009) [FLAC] {Polydor, 531 489-4}\14 - Helter Skelter.wav

Pre-gap length 0:00:00.01

Peak level 98.0 %
Track quality 100.0 %
Test CRC D8A4171C
Copy CRC D8A4171C
Accurately ripped (confidence 1) [8273356B]
Copy OK

Track 15

Filename C:\Siouxsie & The Banshees - Nocturne (Live) (1983, 2009) [FLAC] {Polydor, 531 489-4}\15 - Eve White,Eve Black.wav

Pre-gap length 0:00:00.01

Peak level 98.0 %
Track quality 100.0 %
Test CRC 57905394
Copy CRC 57905394
Accurately ripped (confidence 1) [8053FA03]
Copy OK

Track 16

Filename C:\Siouxsie & The Banshees - Nocturne (Live) (1983, 2009) [FLAC] {Polydor, 531 489-4}\16 - Voodoo Dolly.wav

Pre-gap length 0:00:00.01

Peak level 98.0 %
Track quality 99.9 %
Test CRC 3B89F1FE
Copy CRC 3B89F1FE
Accurately ripped (confidence 1) [E9CC71A0]
Copy OK


All tracks accurately ripped

No errors occurred

End of status report

foobar2000 1.2 / Dynamic Range Meter 1.1.1
log date: 2014-01-27 20:15:25

––––––––––––––––––––––––––––––––––––––––
Analyzed: Siouxsie And The Banshees / Nocturne
––––––––––––––––––––––––––––––––––––––––

DR Peak RMS Duration Track
––––––––––––––––––––––––––––––––––––––––
DR9 -0.17 dB -11.79 dB 6:49 01-Israel
DR8 -0.17 dB -9.37 dB 4:00 02-Dear Prudence
DR7 -0.17 dB -9.13 dB 4:20 03-Paradise Place
DR8 -0.17 dB -9.63 dB 3:47 04-Melt!
DR8 -0.17 dB -9.37 dB 4:48 05-Cascade
DR9 -0.17 dB -12.10 dB 3:52 06-Pulled To Bits
DR9 -0.17 dB -10.43 dB 6:25 07-Night Shift
DR6 -0.17 dB -8.50 dB 3:34 08-Sin In My Heart
DR8 -0.17 dB -9.56 dB 4:03 09-Slowdive
DR7 -0.17 dB -8.26 dB 4:20 10-Painted Bird
DR7 -0.17 dB -9.05 dB 4:13 11-Happy House
DR8 -0.17 dB -10.34 dB 7:00 12-Switch
DR8 -0.17 dB -9.50 dB 3:22 13-Spellbound
DR7 -0.17 dB -8.00 dB 3:41 14-Helter Skelter
DR7 -0.17 dB -10.25 dB 2:46 15-Eve White/Eve Black
DR7 -0.17 dB -9.44 dB 8:48 16-Voodoo Dolly
––––––––––––––––––––––––––––––––––––––––

Number of tracks: 16
Official DR value: DR8

Samplerate: 44100 Hz
Channels: 2
Bits per sample: 16
Bitrate: 897 kbps
Codec: FLAC
================================================================================

Siouxsie And The Banshees - Nocturne (1983) CD Remastered 2009 + DVD9 (2006) [Re-Up]

Siouxsie And The Banshees - Nocturne (1983) CD Remastered 2009 + DVD9 (2006) [Re-Up]




Siouxsie And The Banshees - Nocturne (1983) CD Remastered 2009 + DVD9 (2006) [Re-Up]

Siouxsie And The Banshees - Nocturne (1983) CD Remastered 2009 + DVD9 (2006) [Re-Up]

Siouxsie And The Banshees - Nocturne (1983) CD Remastered 2009 + DVD9 (2006) [Re-Up]

Siouxsie And The Banshees - Nocturne (1983) CD Remastered 2009 + DVD9 (2006) [Re-Up]

Siouxsie And The Banshees - Nocturne (1983) CD Remastered 2009 + DVD9 (2006) [Re-Up]

Siouxsie And The Banshees - Nocturne (1983) CD Remastered 2009 + DVD9 (2006) [Re-Up]

Siouxsie And The Banshees - Nocturne (1983) CD Remastered 2009 + DVD9 (2006) [Re-Up]

Siouxsie And The Banshees - Nocturne (1983) CD Remastered 2009 + DVD9 (2006) [Re-Up]


DVD Content:

01. Israel
02. Cascade
03. Melt!
04. Pulled To Bits
05. Night Shift
06. Sin In My Heart
07. Painted Bird
08. Switch
09. Eve White/Eve Black
10.Voodoo Dolly
11. Spellbound
12. Helter Skelter

EXTRAS:
13. A Play At Home TV Special
14. Dear Prudence (Promo Video)

TV PERFORMANCES:
15. Melt (Live - Old Grey Whistle Test)
16. Painted Bird (Live - Old Grey Whistle Test)