Subcategories

Skinny Puppy - Mind: The Perpetual Intercourse (1986)

Posted By: uff
Skinny Puppy - Mind: The Perpetual Intercourse (1986)

Skinny Puppy - Mind: The Perpetual Intercourse (1986)
Electronic | 1cd | EAC Rip | Flac + Cue + Log | covers
Capitol, CDP 7 90467 2 | rel: 1988 | 505Mb

Mind: The Perpetual Intercourse is a departure from the minimalism of Bites. Its unsettling, aggressive songs are constructed from countless layers of punishing samples and sounds. Mind marks the first appearance of R. Dwayne Goettel, and it's fair to say that his keyboard and effects contributions throttle the band toward their chaotic future masterworks. Album-opener "One Time One Place" gets things started with demonic glee. Its bubbling and festering stew of crunchy bass sounds and weird high-pitched synths is a sign of the disturbing riches to come over later albums. Many of the remaining tracks get mired in cacophony when compared against cuts from Too Dark Park and Last Rights, and Nivek Ogre screeches and wails like an ambient devil in places where he'd later sing/snarl to melodies. But even if the songs aren't as darkly catchy as those on the band's next albums, there's some truly inspired experimentation at play. "Stairs and Flowers" is a particularly unsettling noise accomplishment, as distorted sounds mesh and battle with voice samples from a Canadian radio play and then clash further with Ogre's spoken-word delivery and bizarre cackling. The subject matter is about as dark as it could possibly be, with "God's Gift (Maggot)" perhaps taking home the Most Twisted trophy, and that's how things should be with a Skinny Puppy album. If the Exorcist dialogue in "Burnt With Water" falls flatter than it should, at least the creepy Twilight Zone samples in "200 Years" display the band's trademark wicked artistry and perfectionist craftsmanship. The addition of "Deep Down Trauma Hounds" and "Addiction" needlessly complicates the Skinny Puppy discography, as both of the songs make more sense on Cleanse, Fold and Manipulate. The weak dub remix of "Stairs and Flowers" is a near aberration. Like Rabies, Mind: The Perpetual Intercourse isn't the sound of Skinny Puppy at their peak, but it's another brutal cog and vital detail in the band's overall blueprint. ~Allmusic

Track listing
01. One Time One Place (5:41)
02. God's Gift (Maggot) (4:46)
03. Three Blind Mice (3:09)
04. Love (1:43)
05. Stairs And Flowers (5:18)
06. Antagonism (5:03)
07. 200 Years (4:46)
08. Dig It (7:25)
09. Burnt With Water (7:42)
10. Chainsaw (5:55)
11. Addiction (6:02)
12. Stairs And Flowers (Dub) (6:35)
13. Deepdown Trauma Hounds (7:32)
~ (71:37)


Exact Audio Copy V1.0 beta 1 from 15. November 2010

EAC extraction logfile from 22. March 2011, 21:50

Skinny Puppy / Mind: The Perpetual Intercourse

Used drive : PLEXTOR CD-R PX-240A Adapter: 1 ID: 1

Read mode : Secure
Utilize accurate stream : Yes
Defeat audio cache : Yes
Make use of C2 pointers : No

Read offset correction : 6
Overread into Lead-In and Lead-Out : No
Fill up missing offset samples with silence : Yes
Delete leading and trailing silent blocks : No
Null samples used in CRC calculations : Yes
Used interface : Installed external ASPI interface

Used output format : Internal WAV Routines
Sample format : 44.100 Hz; 16 Bit; Stereo


TOC of the extracted CD

Track | Start | Length | Start sector | End sector
––––––––––––––––––––––––––––-
1 | 0:00.00 | 5:41.30 | 0 | 25604
2 | 5:41.30 | 4:46.00 | 25605 | 47054
3 | 10:27.30 | 3:08.67 | 47055 | 61221
4 | 13:36.22 | 1:43.15 | 61222 | 68961
5 | 15:19.37 | 5:17.45 | 68962 | 92781
6 | 20:37.07 | 5:03.33 | 92782 | 115539
7 | 25:40.40 | 4:45.50 | 115540 | 136964
8 | 30:26.15 | 7:25.22 | 136965 | 170361
9 | 37:51.37 | 7:41.73 | 170362 | 205009
10 | 45:33.35 | 5:55.17 | 205010 | 231651
11 | 51:28.52 | 6:01.40 | 231652 | 258766
12 | 57:30.17 | 6:35.03 | 258767 | 288394
13 | 64:05.20 | 7:32.17 | 288395 | 322311


Range status and errors

Selected range

Filename Z:\data\mp3\Seeding Archive\Skinny Puppy\1986-Mind The Perpetual Intercourse\mindtpi.wav

Peak level 100.0 %
Extraction speed 1.0 X
Range quality 100.0 %
Test CRC B06EAE78
Copy CRC B06EAE78
Copy OK

No errors occurred


AccurateRip summary

Track 1 accurately ripped (confidence 2) [F8A981D4]
Track 2 accurately ripped (confidence 2) [32028F04]
Track 3 accurately ripped (confidence 2) [8358F068]
Track 4 accurately ripped (confidence 2) [5C1D0CE2]
Track 5 accurately ripped (confidence 2) [98348623]
Track 6 accurately ripped (confidence 2) [89891163]
Track 7 accurately ripped (confidence 2) [1F29A20B]
Track 8 accurately ripped (confidence 2) [0759050F]
Track 9 accurately ripped (confidence 2) [495F40EA]
Track 10 accurately ripped (confidence 2) [91C9CE72]
Track 11 accurately ripped (confidence 2) [43980658]
Track 12 accurately ripped (confidence 2) [4F86653E]
Track 13 accurately ripped (confidence 2) [6812899F]

All tracks accurately ripped

End of status report



[CUETools log; Date: 2015.09.11. 13:57:16; Version: 2.1.5]
[CTDB TOCID: Hzvy76fwImCC4O_UyLWg03zuG0E-] found.
Track | CTDB Status
1 | (36/39) Accurately ripped
2 | (39/39) Accurately ripped
3 | (38/39) Accurately ripped
4 | (39/39) Accurately ripped
5 | (38/39) Accurately ripped
6 | (37/39) Accurately ripped
7 | (37/39) Accurately ripped
8 | (39/39) Accurately ripped
9 | (28/39) Accurately ripped
10 | (39/39) Accurately ripped
11 | (37/39) Accurately ripped
12 | (37/39) Accurately ripped
13 | (37/39) Accurately ripped
[AccurateRip ID: 001ee4b5-013c7d7f-b710c90d] found.
Track [ CRC | V2 ] Status
01 [f8a981d4|97a84343] (045+029/096) Accurately ripped
02 [32028f04|063cf1c6] (046+029/098) Accurately ripped
03 [8358f068|3482b1f8] (041+029/093) Accurately ripped
04 [5c1d0ce2|ec10a2aa] (048+029/100) Accurately ripped
05 [98348623|8090a36d] (046+029/098) Accurately ripped
06 [89891163|c8d33bab] (045+029/098) Accurately ripped
07 [1f29a20b|00687d39] (045+029/098) Accurately ripped
08 [0759050f|6a262221] (045+029/098) Accurately ripped
09 [495f40ea|8a0ede82] (044+029/096) Accurately ripped
10 [91c9ce72|d75e6860] (044+029/097) Accurately ripped
11 [43980658|5d4de85d] (045+028/096) Accurately ripped
12 [4f86653e|9bc23cef] (044+027/095) Accurately ripped
13 [6812899f|7543b4b9] (040+026/091) Accurately ripped
Offsetted by -888:
01 [269f1105] (013/096) Accurately ripped
02 [034d0019] (014/098) Accurately ripped
03 [e540c55b] (014/093) Accurately ripped
04 [7c8fa7b0] (014/100) Accurately ripped
05 [dd48ba59] (014/098) Accurately ripped
06 [bc4fba11] (015/098) Accurately ripped
07 [362c3a47] (015/098) Accurately ripped
08 [a0aff764] (015/098) Accurately ripped
09 [9f783d74] (014/096) Accurately ripped
10 [9a865864] (015/097) Accurately ripped
11 [577fd0a4] (015/096) Accurately ripped
12 [3c4568a1] (015/095) Accurately ripped
13 [8f7538a1] (016/091) Accurately ripped

Track Peak [ CRC32 ] [W/O NULL] [ LOG ]
– 100,0 [B06EAE78] [EB76C1CD] CRC32
01 89,4 [4B8B0884] [EFBDBD84]
02 87,5 [F3F5CF32] [3600FB72]
03 96,8 [BD763E92] [C77F2C8C]
04 80,7 [5170180C] [A5FE818C]
05 86,4 [6986470B] [4F6E8AF9]
06 84,6 [CD68CAB0] [8D3E0A6B]
07 93,6 [B68537C9] [6722C1BF]
08 92,1 [8C5284F2] [FB045A99]
09 100,0 [F4CBCE40] [1AB4848C]
10 98,4 [677A883D] [90D7EEEA]
11 92,9 [1F62FD0F] [3E7CEBDA]
12 94,5 [2A9249D1] [9B56129B]
13 99,6 [3C41651C] [849BDA2D]


Thx to hexonut
Uploadable

Yunfile


password: asd