Sly & The Family Stone - There's A Riot Goin' On (1971) [SACD Reissue 2013] Audio CD Layer

Posted By: Designol
Sly & The Family Stone - There's A Riot Goin' On (1971) [SACD Reissue 2013] Audio CD Layer

Sly & The Family Stone - There's A Riot Goin' On (1971) Reissue 2013
EAC | FLAC | Tracks (Cue&Log) ~ 288 Mb | Mp3 (CBR320) ~ 116 Mb | Scans included
Psychedelic Soul, Funk, Rhythm & Blues | Label: Epic/ORG | # ORGM-1079 | 00:48:03

There's a Riot Goin' On is the fifth studio album by American band Sly and the Family Stone. It was released on November 20, 1971, by Epic Records. The album was recorded during 1970 and 1971 at Record Plant Studios in Sausalito, California, with sessions dominated by band frontman Sly Stone during a period of drug use and intra-group tension. There's a Riot Goin' On embraced a darker and more challenging sound than the optimistic psychedelic soul style of the group's previous records, making use of hard funk rhythms, primitive drum machines, excessive overdubbing, and unconventional mixing techniques. Received with ambivalence upon its release, the album is now praised as one of the greatest and most influential recordings of all-time, and ranked at or near the top of many publications' "best album" lists. In 2003 it was ranked number 99 on Rolling Stone magazine's list of the 500 greatest albums of all time.

It's easy to write off There's a Riot Goin' On as one of two things – Sly Stone's disgusted social commentary or the beginning of his slow descent into addiction. It's both of these things, of course, but pigeonholing it as either winds up dismissing the album as a whole, since it is so bloody hard to categorize. What's certain is that Riot is unlike any of Sly & the Family Stone's other albums, stripped of the effervescence that flowed through even such politically aware records as Stand! This is idealism soured, as hope is slowly replaced by cynicism, joy by skepticism, enthusiasm by weariness, sex by pornography, thrills by narcotics. Joy isn't entirely gone – it creeps through the cracks every once and awhile and, more disturbing, Sly revels in his stoned decadence. What makes Riot so remarkable is that it's hard not to get drawn in with him, as you're seduced by the narcotic grooves, seductive vocals slurs, leering electric pianos, and crawling guitars. As the themes surface, it's hard not to nod in agreement, but it's a junkie nod, induced by the comforting coma of the music. And damn if this music isn't funk at its deepest and most impenetrable – this is dense music, nearly impenetrable, but not from its deep grooves, but its utter weariness. Sly's songwriting remains remarkably sharp, but only when he wants to write – the foreboding opener "Luv N' Haight," the scarily resigned "Family Affair," the cracked cynical blues "Time," and "(You Caught Me) Smilin'." Ultimately, the music is the message, and while it's dark music, it's not alienating – it's seductive despair, and that's the scariest thing about it.

Review by Stephen Thomas Erlewine, Allmusic.com

Sly & The Family Stone - There's A Riot Goin' On (1971) [SACD Reissue 2013] Audio CD Layer



Tracklist:

01. Luv N' Haight (4:05)
02. Just Like a Baby (5:13)
03. Poet (3:02)
04. Family Affair (3:06)
05. Africa Talks to You "The Asphalt Jungle" (8:44)
06. There's a Riot Goin' On (0:04)
07. Brave & Strong (3:31)
08. (You Caught Me) Smilin' (2:56)
09. Time (3:05)
10. Spaced Cowboy (3:59)
11. Runnin' Away (2:57)
12. Thank You for Talkin' to Me Africa (7:20)


Exact Audio Copy V1.3 from 2. September 2016

EAC extraction logfile from 22. July 2017, 20:28

Sly & The Family Stone / There's A Riot Goin' On (2013 ORG)

Used drive : PLEXTOR CD-R PREMIUM Adapter: 1 ID: 1

Read mode : Secure
Utilize accurate stream : Yes
Defeat audio cache : Yes
Make use of C2 pointers : No

Read offset correction : 30
Overread into Lead-In and Lead-Out : No
Fill up missing offset samples with silence : Yes
Delete leading and trailing silent blocks : No
Null samples used in CRC calculations : Yes
Used interface : Native Win32 interface for Win NT & 2000
Gap handling : Appended to previous track

Used output format : User Defined Encoder
Selected bitrate : 768 kBit/s
Quality : High
Add ID3 tag : No
Command line compressor : C:\Program Files (x86)\Exact Audio Copy\FLAC\FLAC.EXE
Additional command line options : -6 -e -p -V -T "ARTIST=%artist%" -T "TITLE=%title%" -T "ALBUM=%albumtitle%" -T "DATE=%year%" -T "TRACKNUMBER=%tracknr%" -T "GENRE=%genre%" -T "PERFORMER=%albuminterpret%" -T "COMPOSER=%composer%" %haslyrics%–tag-from-file=LYRICS="%lyricsfile%"%haslyrics% -T "ALBUMARTIST=%albumartist%" -T "DISCNUMBER=%cdnumber%" -T "TOTALDISCS=%totalcds%" -T "TOTALTRACKS=%numtracks%" -T "COMMENT=%comment%" %source% -o %dest%


TOC of the extracted CD

Track | Start | Length | Start sector | End sector
––––––––––––––––––––––––––––-
1 | 0:00.00 | 4:04.59 | 0 | 18358
2 | 4:04.59 | 5:12.61 | 18359 | 41819
3 | 9:17.45 | 3:02.35 | 41820 | 55504
4 | 12:20.05 | 3:06.15 | 55505 | 69469
5 | 15:26.20 | 8:43.47 | 69470 | 108741
6 | 24:09.67 | 0:04.27 | 108742 | 109068
7 | 24:14.19 | 3:30.55 | 109069 | 124873
8 | 27:44.74 | 2:55.66 | 124874 | 138064
9 | 30:40.65 | 3:05.36 | 138065 | 151975
10 | 33:46.26 | 3:59.10 | 151976 | 169910
11 | 37:45.36 | 2:57.30 | 169911 | 183215
12 | 40:42.66 | 7:20.35 | 183216 | 216250


Track 1

Filename C:\tmp\00_RIPS\01 - Luv N' Haight.wav

Pre-gap length 0:00:02.00

Peak level 100.0 %
Extraction speed 8.5 X
Track quality 100.0 %
Test CRC 09B4BD4B
Copy CRC 09B4BD4B
Accurately ripped (confidence 7) [FB842935] (AR v2)
Copy OK

Track 2

Filename C:\tmp\00_RIPS\02 - Just Like A Baby.wav

Pre-gap length 0:00:00.28

Peak level 79.2 %
Extraction speed 9.8 X
Track quality 100.0 %
Test CRC EEC6B047
Copy CRC EEC6B047
Accurately ripped (confidence 7) [E5DDC9BB] (AR v2)
Copy OK

Track 3

Filename C:\tmp\00_RIPS\03 - Poet.wav

Pre-gap length 0:00:00.28

Peak level 83.8 %
Extraction speed 10.3 X
Track quality 100.0 %
Test CRC F538AD26
Copy CRC F538AD26
Accurately ripped (confidence 7) [00B66366] (AR v2)
Copy OK

Track 4

Filename C:\tmp\00_RIPS\04 - Family Affair.wav

Pre-gap length 0:00:00.28

Peak level 88.3 %
Extraction speed 10.7 X
Track quality 100.0 %
Test CRC EADEE03D
Copy CRC EADEE03D
Accurately ripped (confidence 7) [17B1BB02] (AR v2)
Copy OK

Track 5

Filename C:\tmp\00_RIPS\05 - Africa Talks To You ''The Asphalt Jungle''.wav

Pre-gap length 0:00:00.18

Peak level 87.5 %
Extraction speed 12.3 X
Track quality 100.0 %
Test CRC A3B08B14
Copy CRC A3B08B14
Accurately ripped (confidence 7) [FDFB0B53] (AR v2)
Copy OK

Track 6

Filename C:\tmp\00_RIPS\06 - There's A Riot Goin' On.wav

Peak level 0.0 %
Extraction speed 2.6 X
Track quality 100.0 %
Test CRC 515C6640
Copy CRC 515C6640
Accurately ripped (confidence 3) [D3DCC789] (AR v2)
Copy OK

Track 7

Filename C:\tmp\00_RIPS\07 - Brave & Strong.wav

Peak level 100.0 %
Extraction speed 12.7 X
Track quality 100.0 %
Test CRC 3DB6BA00
Copy CRC 3DB6BA00
Accurately ripped (confidence 7) [1B8B0609] (AR v2)
Copy OK

Track 8

Filename C:\tmp\00_RIPS\08 - (You Caught Me) Smilin'.wav

Pre-gap length 0:00:00.28

Peak level 89.3 %
Extraction speed 13.0 X
Track quality 100.0 %
Test CRC 71FD53F2
Copy CRC 71FD53F2
Accurately ripped (confidence 7) [338013FA] (AR v2)
Copy OK

Track 9

Filename C:\tmp\00_RIPS\09 - Time.wav

Pre-gap length 0:00:00.28

Peak level 89.2 %
Extraction speed 13.3 X
Track quality 100.0 %
Test CRC FA193769
Copy CRC FA193769
Accurately ripped (confidence 7) [6F02949E] (AR v2)
Copy OK

Track 10

Filename C:\tmp\00_RIPS\10 - Spaced Cowboy.wav

Pre-gap length 0:00:00.25

Peak level 88.9 %
Extraction speed 14.0 X
Track quality 100.0 %
Test CRC 471FBB1E
Copy CRC 471FBB1E
Accurately ripped (confidence 7) [DD5795D6] (AR v2)
Copy OK

Track 11

Filename C:\tmp\00_RIPS\11 - Runnin' Away.wav

Pre-gap length 0:00:02.24

Peak level 75.4 %
Extraction speed 13.9 X
Track quality 100.0 %
Test CRC 6489D4E0
Copy CRC 6489D4E0
Accurately ripped (confidence 7) [B8C641D8] (AR v2)
Copy OK

Track 12

Filename C:\tmp\00_RIPS\12 - Thank You For Talkin' To Me Africa.wav

Pre-gap length 0:00:02.30

Peak level 97.7 %
Extraction speed 14.4 X
Track quality 100.0 %
Test CRC 230A6B95
Copy CRC 230A6B95
Accurately ripped (confidence 7) [1CB2E887] (AR v2)
Copy OK


All tracks accurately ripped

No errors occurred

End of status report

–– CUETools DB Plugin V2.1.6

[CTDB TOCID: hUaj8Hw0QKN.GnL1Q4tcIvPP688-] found
Submit result: hUaj8Hw0QKN.GnL1Q4tcIvPP688- has been confirmed
Track | CTDB Status
1 | (5/5) Accurately ripped
2 | (5/5) Accurately ripped
3 | (5/5) Accurately ripped
4 | (5/5) Accurately ripped
5 | (5/5) Accurately ripped
6 | (5/5) Accurately ripped
7 | (5/5) Accurately ripped
8 | (5/5) Accurately ripped
9 | (5/5) Accurately ripped
10 | (5/5) Accurately ripped
11 | (5/5) Accurately ripped
12 | (5/5) Accurately ripped


==== Log checksum 3AB7EA17F5261D0C554743DDEE362690B76004F1DFE398DE60DAC9570831CD0E ====

foobar2000 1.2 / Dynamic Range Meter 1.1.1
log date: 2017-09-27 05:06:05

––––––––––––––––––––––––––––––––––––––––
Analyzed: Sly & The Family Stone / There's a Riot Goin' On
––––––––––––––––––––––––––––––––––––––––

DR Peak RMS Duration Track
––––––––––––––––––––––––––––––––––––––––
DR11 0.00 dB -13.94 dB 4:05 01-Luv N' Haight
DR15 -2.02 dB -17.98 dB 5:13 02-Just Like a Baby
DR13 -1.53 dB -17.27 dB 3:02 03-Poet
DR13 -1.08 dB -16.15 dB 3:06 04-Family Affair
DR13 -1.15 dB -16.89 dB 8:44 05-Africa Talks to You 'The Asphalt Jungle'
DR10 -67.39 dB -88.79 dB 0:04 06-There's a Riot Goin' On
DR12 0.00 dB -15.36 dB 3:31 07-Brave & Strong
DR13 -0.98 dB -16.53 dB 2:56 08-(You Caught Me) Smilin'
DR14 -0.99 dB -19.73 dB 3:05 09-Time
DR13 -1.02 dB -15.56 dB 3:59 10-Spaced Cowboy
DR11 -2.45 dB -15.75 dB 2:57 11-Runnin' Away
DR14 -0.20 dB -16.37 dB 7:20 12-Thank You for Talkin' to Me Africa
––––––––––––––––––––––––––––––––––––––––

Number of tracks: 12
Official DR value: DR13

Samplerate: 44100 Hz
Channels: 2
Bits per sample: 16
Bitrate: 802 kbps
Codec: FLAC
================================================================================

Sly & The Family Stone - There's A Riot Goin' On (1971) [SACD Reissue 2013] Audio CD Layer

Sly & The Family Stone - There's A Riot Goin' On (1971) [SACD Reissue 2013] Audio CD Layer

All thanks to original releaser - mclarenspy

More interesting music in My Blog