Subcategories

Smokin' Joe Kubek & Bnois King - Roadhouse Research (2003) [Re-Up]

Posted By: Designol
Smokin' Joe Kubek & Bnois King - Roadhouse Research (2003) [Re-Up]

Smokin' Joe Kubek & Bnois King - Roadhouse Research (2003)
EAC | FLAC | Image (Cue&Log) ~ 347 Mb | Mp3 (CBR320) ~ 136 Mb | Scans included
Modern Electric Texas Blues, Blues Rock | Label: Blind Pig | # BPCD 5080 | 00:47:16

If the 10 years these Texas guitarists have spent as a team exploring the world bar by bar has been "research," what they've learned is how to please a crowd. The formula's simple: no-frills songs about women and working for a livin', set to meat-and-potatoes arrangements that leave plenty of room for their guitars to roam. Kubek's six-string snarls the loudest, hitting Albert Collins-style sustains and grinding out beefy chords. King skirts around the fringes with his sweet-toned, jazz-informed fills or works at groove-level, anchoring things with his basic, chopping, R&B-style chording. King's vocals are really his trump card. They're smooth and slinky when he's romancing in "Make It Right" or gravelly as Kubek's fluid guitar when he's a driven man in numbers like "Runnin' Blind." The album ends with the kind of guitar grand finale that sets a crowd on fire just after last call. The tune, "Standing in My Door," lets both six-stringers sting. Bnois King lays down a red carpet of sliding chords and Smokin' Joe struts through, doing his own dirty take on B.B. King's vibrato-laden style, bending notes and letting them sing. Then Bnois take the lead, his cleaner fretboard diction cutting even closer to B.B.'s lines before he returns to the microphone to sing the closing chorus. Fans of the Lone Star State's blues guitar tradition need to check these guys out.

Review by Ted Drozdowski

Unfortunately for Joe Kubek and his shotgun-riding singer/rhythm guitarist partner Bnois King, in the wake of great Texas guitarists like the Vaughan Brothers, just being a really good Lone Star fret slinger gets overlooked. Which is a shame, because over the course of nine albums, Kubek and King crafted a workmanlike if understated catalog of R&B-influenced roadhouse blues. On their debut for Blind Pig, the duo churn up more of the same fare they refined the previous 12 years. Their blues-rock is genuine if derivative, and Kubek is a rugged six-stringer who makes up for his lack of a distinctive sound with gutsy meat-and-potatoes playing. Thankfully, King adds warmth and class with his smooth, soulful, and entirely unpretentious singing. His relaxed voice contrasts perfectly with Kubek's tensile, rough-and-ready licks, infusing this music with a yin-yang that elevates it far above bar-band standards. Soulful, nearly pop numbers like "Tell Me Why" allow King to croon outside the confines of a tightly constructed blues tune. Suave yet tight, this and the funky "Cryin' Shame" open up the approach and push at the genre's boundaries. Bogged down slightly by obvious lyrics and song titles like "The Blues Is Still With Us" (a thin rewrite of "The Blues Is Alright") and "Got to Get Paid," this remains down-to-earth, often moving music whose heart is as big as the artist's home state.

Review by Hal Horowitz, Allmusic.com

Smokin' Joe Kubek & Bnois King - Roadhouse Research (2003) [Re-Up]



Tracklist:

01. Healthy Mama (3:56)
02. Tell Me Why (3:41)
03. Cryin' Shame (4:10)
04. Got To Get Paid (4:09)
05. Better Be Getting It On (3:44)
06. Runnin' Blind (5:46)
07. The Blues Is Still With Us (4:55)
08. Make It Right (4:32)
09. I Need More (5:10)
10. Standing In My Door (7:13)


Exact Audio Copy V0.99 prebeta 4 from 23. January 2008

EAC extraction logfile from 17. September 2009, 19:45

Smokin' Joe Kubek & Bnois King / Roadhouse Research

Used drive : HL-DT-STDVD-RAM GH22NP20 Adapter: 0 ID: 0

Read mode : Secure
Utilize accurate stream : Yes
Defeat audio cache : Yes
Make use of C2 pointers : No

Read offset correction : 102
Overread into Lead-In and Lead-Out : No
Fill up missing offset samples with silence : Yes
Delete leading and trailing silent blocks : No
Null samples used in CRC calculations : Yes
Used interface : Installed external ASPI interface

Used output format : User Defined Encoder
Selected bitrate : 1024 kBit/s
Quality : High
Add ID3 tag : No
Command line compressor : C:\Program Files (x86)\Exact Audio Copy\Flac\flac.exe
Additional command line options : -V -8 -T "artist=%a" -T "title=%t" -T "album=%g" -T "date=%y" -T "tracknumber=%n" -T "genre=%m" %s


TOC of the extracted CD

Track | Start | Length | Start sector | End sector
––––––––––––––––––––––––––––-
1 | 0:00.00 | 3:56.24 | 0 | 17723
2 | 3:56.24 | 3:41.29 | 17724 | 34327
3 | 7:37.53 | 4:09.39 | 34328 | 53041
4 | 11:47.17 | 4:09.32 | 53042 | 71748
5 | 15:56.49 | 3:44.20 | 71749 | 88568
6 | 19:40.69 | 5:45.46 | 88569 | 114489
7 | 25:26.40 | 4:54.66 | 114490 | 136605
8 | 30:21.31 | 4:32.10 | 136606 | 157015
9 | 34:53.41 | 5:09.55 | 157016 | 180245
10 | 40:03.21 | 7:13.06 | 180246 | 212726


Range status and errors

Selected range

Filename D:\Rips\Smokin' Joe Kubek & Bnois King - Roadhouse Research.wav

Peak level 100.0 %
Range quality 100.0 %
Test CRC 080FC958
Copy CRC 080FC958
Copy OK

No errors occurred


AccurateRip summary

Track 1 accurately ripped (confidence 3) [54F4D357]
Track 2 accurately ripped (confidence 3) [8444F26F]
Track 3 accurately ripped (confidence 3) [21B3128D]
Track 4 accurately ripped (confidence 3) [52BBBF43]
Track 5 accurately ripped (confidence 3) [73F7FC43]
Track 6 accurately ripped (confidence 3) [CD009F6B]
Track 7 accurately ripped (confidence 3) [CEE83403]
Track 8 accurately ripped (confidence 3) [058248B3]
Track 9 accurately ripped (confidence 3) [B5AEEDAF]
Track 10 accurately ripped (confidence 3) [A9681BC6]

All tracks accurately ripped

End of status report

foobar2000 1.2 / Dynamic Range Meter 1.1.1
log date: 2015-02-05 00:27:26

––––––––––––––––––––––––––––––––––––––––
Analyzed: Smokin' Joe Kubek & Bnois King / Roadhouse Research
––––––––––––––––––––––––––––––––––––––––

DR Peak RMS Duration Track
––––––––––––––––––––––––––––––––––––––––
DR7 -0.10 dB -8.28 dB 3:56 01-Healthy Mama
DR7 -0.10 dB -7.98 dB 3:41 02-Tell Me Why
DR7 -0.10 dB -8.11 dB 4:10 03-Cryin' Shame
DR7 -0.10 dB -7.98 dB 4:09 04-Got To Get Paid
DR8 -0.10 dB -8.39 dB 3:44 05-Better Be Getting It On
DR6 -2.00 dB -9.76 dB 5:46 06-Runnin' Blind
DR5 0.00 dB -5.97 dB 4:55 07-The Blues Is Still With Us
DR7 -0.10 dB -7.69 dB 4:32 08-Make It Right
DR7 -0.10 dB -8.42 dB 5:10 09-I Need More
DR7 -0.10 dB -8.10 dB 7:13 10-Standing In My Door
––––––––––––––––––––––––––––––––––––––––

Number of tracks: 10
Official DR value: DR7

Samplerate: 44100 Hz
Channels: 2
Bits per sample: 16
Bitrate: 943 kbps
Codec: FLAC
================================================================================

Smokin' Joe Kubek & Bnois King - Roadhouse Research (2003) [Re-Up]

Smokin' Joe Kubek & Bnois King - Roadhouse Research (2003) [Re-Up]