Subcategories

The Songs Of Brahms Vol 3 - Simon Bode, Graham Johnson (2011)

Posted By: peotuvave
The Songs Of Brahms Vol 3 - Simon Bode, Graham Johnson (2011)

The Songs Of Brahms Vol 3 - Simon Bode, Graham Johnson (2011)
EAC Rip | Flac (Tracks + cue + log) | 1 CD | Full Scans | 210 MB
Genre: Classical | Label: Hyperion | Catalog Number: 33123

Following the iconic series of the complete songs of Schubert and Schumann, Graham Johnson further demonstrates the phenomenal depth of his knowledge in the expert programming of this recital. Each disc in the series represents a different journey through the repertoire, and thus through Brahms’s life. This new volume is sensitively balanced, the opening and closing folksong transcriptions possessing beguiling charm and the five songs of Op 49 being performed in their entirety.

Hyperion is thrilled to welcome the young German tenor Simon Bode to the label. At home in the opera house and the recital hall, Bode possesses a controlled voice of great beauty, and gives performances of immediacy and conviction. Johnson, as accompanist, is immaculate and his usual scholarly notes are of course included.

Composer: Johannes Brahms
Performer: Simon Bode, Graham Johnson

Reviews: “Bode sings [Sehnsucht and the Wiegenlied] with a fine sense of artistry and wonderment. Johnson takes care over his placing of Brahms's many folksong settings within this series, inserting a few at a time. Here, they frame the recital, with Bode's instinctive musicality making an irresistably friendly greeting of 'Wach auf, mein Herzensschone.'”

“His tone is sweet and gently rounded, his diction crystal-clear, his phrasing always thoughtful. Spinning a rapt, sustained lined, he movingly catches the Brahmsian twilit melancholy of 'Abenddammerung'…'Wiegenlied', too, is as dulcet as you could wish, with singer and pianist vindicating a provocatively slumbrous [sic] tempo.”

Tracklisting:

1. Deutsche Volkslieder (49), WoO 33: no 16, Wach auf, mein Herzensschöne by Johannes Brahms
Performer: Simon Bode (Tenor), Graham Johnson (Piano)
Period: Romantic
Written: 1893-1894; Germany

2. Songs (5), Op. 49 by Johannes Brahms
Performer: Simon Bode (Tenor), Graham Johnson (Piano)
Period: Romantic
Written: 1867-1868; Austria

3. Songs (8), Op. 59: no 7, Mein wundes Herz by Johannes Brahms
Performer: Simon Bode (Tenor), Graham Johnson (Piano)
Period: Romantic
Written: 1873; Austria

4. Songs and Romances (8), Op. 14: no 7, Ständchen by Johannes Brahms
Performer: Simon Bode (Tenor), Graham Johnson (Piano)
Period: Romantic
Written: 1858; Germany

5. Songs and Romances (8), Op. 14: no 4, Ein Sonett by Johannes Brahms
Performer: Simon Bode (Tenor), Graham Johnson (Piano)
Period: Romantic
Written: 1858; Germany

6. Songs (8), Op. 58: no 8, Serenade by Johannes Brahms
Performer: Simon Bode (Tenor), Graham Johnson (Piano)
Period: Romantic
Written: 1871; Austria

7. Songs (6), Op. 97: no 2, Auf dem Schiffe by Johannes Brahms
Performer: Simon Bode (Tenor), Graham Johnson (Piano)
Period: Romantic
Written: 1884-1885; Austria

8. Songs (6), Op. 85: no 6, In Waldeseinsamkeit by Johannes Brahms
Performer: Simon Bode (Tenor), Graham Johnson (Piano)
Period: Romantic
Written: 1878; Austria

9. Songs (5), Op. 71: no 2, An den Mond by Johannes Brahms
Performer: Simon Bode (Tenor), Graham Johnson (Piano)
Period: Romantic
Written: 1877; Austria

10. Songs (5), Op. 106: no 3, Es hing der Reif by Johannes Brahms
Performer: Simon Bode (Tenor), Graham Johnson (Piano)
Period: Romantic
Written: 1888; Austria

11. Songs (4), Op. 70: no 2, Lerchengesang by Johannes Brahms
Performer: Simon Bode (Tenor), Graham Johnson (Piano)
Period: Romantic
Written: 1877; Austria

12. Songs (4), Op. 70: no 1, Im Garten am Seegestade by Johannes Brahms
Performer: Simon Bode (Tenor), Graham Johnson (Piano)
Period: Romantic
Written: 1877; Austria

13. Songs (4), Op. 46: no 3, Die Schale der Vergessenheit by Johannes Brahms
Performer: Simon Bode (Tenor), Graham Johnson (Piano)
Period: Romantic
Written: ?1864; Austria

14. Songs (4), Op. 46: no 2, Magyarisch by Johannes Brahms
Performer: Simon Bode (Tenor), Graham Johnson (Piano)
Period: Romantic
Written: by 1868; Austria

15. Poems (5), Op. 19: no 5, An eine Äolsharfe by Johannes Brahms
Performer: Simon Bode (Tenor), Graham Johnson (Piano)
Period: Romantic
Written: 1858; Germany

16. Poems (5), Op. 19: no 1, Der Kuss by Johannes Brahms
Performer: Simon Bode (Tenor), Graham Johnson (Piano)
Period: Romantic
Written: 1858; Germany

17. Deutsche Volkslieder (49), WoO 33: no 5, Die Sonne scheint nicht mehr by Johannes Brahms
Performer: Simon Bode (Tenor), Graham Johnson (Piano)
Period: Romantic
Written: 1893-1894; Germany

18. Deutsche Volkslieder (49), WoO 33: no 41, Es steht ein Lind by Johannes Brahms
Performer: Simon Bode (Tenor), Graham Johnson (Piano)
Period: Romantic
Written: 1893-1894; Germany

19. Deutsche Volkslieder (49), WoO 33: no 25, Mein Mädel hat einen Rosenmund by Johannes Brahms
Performer: Simon Bode (Tenor), Graham Johnson (Piano)
Period: Romantic
Written: 1893-1894; Germany

20. Deutsche Volkslieder (49), WoO 33: no 22, Wo gehst du hin,.. by Johannes Brahms
Performer: Simon Bode (Tenor), Graham Johnson (Piano)
Period: Romantic
Written: 1893-1894; Germany

21. Deutsche Volkslieder (49), WoO 33: no 2, Erlaube mir, fein's mädchen by Johannes Brahms
Performer: Simon Bode (Tenor), Graham Johnson (Piano)
Period: Romantic
Written: 1893-1894; Germany

Exact Audio Copy V1.0 beta 3 from 29. August 2011

EAC extraction logfile from 30. April 2014, 7:11

Simon Bode, Graham Johnson / The Songs of Johannes Brahms, Vol. 3

Used drive : hp CDDVDW SH-216BB Adapter: 0 ID: 0

Read mode : Secure
Utilize accurate stream : Yes
Defeat audio cache : Yes
Make use of C2 pointers : No

Read offset correction : 6
Overread into Lead-In and Lead-Out : No
Fill up missing offset samples with silence : Yes
Delete leading and trailing silent blocks : No
Null samples used in CRC calculations : Yes
Used interface : Native Win32 interface for Win NT & 2000
Gap handling : Appended to previous track

Used output format : User Defined Encoder
Selected bitrate : 1024 kBit/s
Quality : High
Add ID3 tag : No
Command line compressor : C:\Program Files (x86)\Exact Audio Copy\Flac\flac.exe
Additional command line options : -8 -V -T "ARTIST=%artist%" -T "TITLE=%title%" -T "ALBUM=%albumtitle%" -T "DATE=%year%" -T "TRACKNUMBER=%tracknr%" -T "GENRE=%genre%" -T "PERFORMER=%albuminterpret%" -T "COMPOSER=%composer%" %haslyrics%–tag-from-file=LYRICS="%lyricsfile%"%haslyrics% -T "ALBUMARTIST=%albumartist%" -T "DISCNUMBER=%cdnumber%" -T "TOTALDISCS=%totalcds%" -T "TOTALTRACKS=%numtracks%" -T "COMMENT=%comment%" %source% -o %dest%


TOC of the extracted CD

Track | Start | Length | Start sector | End sector
––––––––––––––––––––––––––––-
1 | 0:00.00 | 2:08.13 | 0 | 9612
2 | 2:08.13 | 1:22.47 | 9613 | 15809
3 | 3:30.60 | 2:01.36 | 15810 | 24920
4 | 5:32.21 | 1:54.45 | 24921 | 33515
5 | 7:26.66 | 3:18.69 | 33516 | 48434
6 | 10:45.60 | 1:51.44 | 48435 | 56803
7 | 12:37.29 | 4:03.32 | 56804 | 75060
8 | 16:40.61 | 2:54.53 | 75061 | 88163
9 | 19:35.39 | 1:43.73 | 88164 | 95961
10 | 21:19.37 | 1:26.16 | 95962 | 102427
11 | 22:45.53 | 2:46.38 | 102428 | 114915
12 | 25:32.16 | 1:46.41 | 114916 | 122906
13 | 27:18.57 | 2:01.31 | 122907 | 132012
14 | 29:20.13 | 4:38.34 | 132013 | 152896
15 | 33:58.47 | 1:54.34 | 152897 | 161480
16 | 35:53.06 | 2:23.25 | 161481 | 172230
17 | 38:16.31 | 2:51.11 | 172231 | 185066
18 | 41:07.42 | 1:21.57 | 185067 | 191198
19 | 42:29.24 | 3:17.42 | 191199 | 206015
20 | 45:46.66 | 2:35.31 | 206016 | 217671
21 | 48:22.22 | 1:07.13 | 217672 | 222709
22 | 49:29.35 | 2:52.70 | 222710 | 235679
23 | 52:22.30 | 3:02.17 | 235680 | 249346
24 | 55:24.47 | 1:21.32 | 249347 | 255453
25 | 56:46.04 | 1:18.06 | 255454 | 261309
26 | 58:04.10 | 2:45.21 | 261310 | 273705


Track 1

Filename C:\EAC\J. Brahms - The Songs of Johannes Brahms, Vol 3 (2011) [FLAC]\01 - 49 Deutsche Volkslieder, WoO 33 - #16 Wach auf, mein Herzensschöne.wav

Pre-gap length 0:00:02.00

Peak level 68.4 %
Extraction speed 3.6 X
Track quality 100.0 %
Test CRC 07AF12F2
Copy CRC 07AF12F2
Accurately ripped (confidence 2) [D5D02159] (AR v2)
Copy OK

Track 2

Filename C:\EAC\J. Brahms - The Songs of Johannes Brahms, Vol 3 (2011) [FLAC]\02 - 49 Deutsche Volkslieder, WoO 33 - #02 Erlaube mir, feins Mädchen.wav

Peak level 34.1 %
Extraction speed 2.2 X
Track quality 99.8 %
Test CRC B39FF58E
Copy CRC B39FF58E
Accurately ripped (confidence 2) [994F203F] (AR v2)
Copy OK

Track 3

Filename C:\EAC\J. Brahms - The Songs of Johannes Brahms, Vol 3 (2011) [FLAC]\03 - 49 Deutsche Volkslieder, WoO 33 - #25 Mein Mädel hat einen Rosenmund.wav

Peak level 84.6 %
Extraction speed 2.8 X
Track quality 99.9 %
Test CRC 0F9B435C
Copy CRC 0F9B435C
Accurately ripped (confidence 2) [37709E7F] (AR v2)
Copy OK

Track 4

Filename C:\EAC\J. Brahms - The Songs of Johannes Brahms, Vol 3 (2011) [FLAC]\04 - Lieder und Romanzen, Op. 14 - #4 Ein Sonett.wav

Peak level 72.3 %
Extraction speed 4.0 X
Track quality 100.0 %
Test CRC 7EB39113
Copy CRC 7EB39113
Accurately ripped (confidence 2) [FC0E1647] (AR v2)
Copy OK

Track 5

Filename C:\EAC\J. Brahms - The Songs of Johannes Brahms, Vol 3 (2011) [FLAC]\05 - Lieder und Romanzen, Op. 14 - #7 Ständchen.wav

Peak level 47.6 %
Extraction speed 4.8 X
Track quality 100.0 %
Test CRC 01E10584
Copy CRC 01E10584
Accurately ripped (confidence 2) [A7E3E602] (AR v2)
Copy OK

Track 6

Filename C:\EAC\J. Brahms - The Songs of Johannes Brahms, Vol 3 (2011) [FLAC]\06 - Fünf Gedichte, Op. 19 - #1 Der Kuss.wav

Peak level 77.3 %
Extraction speed 4.4 X
Track quality 100.0 %
Test CRC 744ADACE
Copy CRC 744ADACE
Accurately ripped (confidence 2) [A4151FA5] (AR v2)
Copy OK

Track 7

Filename C:\EAC\J. Brahms - The Songs of Johannes Brahms, Vol 3 (2011) [FLAC]\07 - Fünf Gedichte, Op. 19 - #5 An Eine Äolsharfe.wav

Peak level 55.9 %
Extraction speed 5.5 X
Track quality 100.0 %
Test CRC C9801D51
Copy CRC C9801D51
Accurately ripped (confidence 2) [35324D03] (AR v2)
Copy OK

Track 8

Filename C:\EAC\J. Brahms - The Songs of Johannes Brahms, Vol 3 (2011) [FLAC]\08 - Vier Lieder & Gesänge, Op. 46 - #2 Magyarisch.wav

Peak level 89.0 %
Extraction speed 5.3 X
Track quality 100.0 %
Test CRC 530FB951
Copy CRC 530FB951
Accurately ripped (confidence 2) [1EB71524] (AR v2)
Copy OK

Track 9

Filename C:\EAC\J. Brahms - The Songs of Johannes Brahms, Vol 3 (2011) [FLAC]\09 - Vier Lieder & Gesänge, Op. 46 - #3 Die Schale der Vergessenheit.wav

Peak level 96.6 %
Extraction speed 5.0 X
Track quality 100.0 %
Test CRC 5FDBA038
Copy CRC 5FDBA038
Accurately ripped (confidence 2) [9909B94B] (AR v2)
Copy OK

Track 10

Filename C:\EAC\J. Brahms - The Songs of Johannes Brahms, Vol 3 (2011) [FLAC]\10 - Fünf Lieder, Op. 49 - #1 Am Sonntag Morgen.wav

Peak level 98.9 %
Extraction speed 4.7 X
Track quality 100.0 %
Test CRC 524FCB8E
Copy CRC 524FCB8E
Accurately ripped (confidence 2) [1D072491] (AR v2)
Copy OK

Track 11

Filename C:\EAC\J. Brahms - The Songs of Johannes Brahms, Vol 3 (2011) [FLAC]\11 - Fünf Lieder, Op. 49 - #2 An ein Veilchen.wav

Peak level 99.4 %
Extraction speed 5.7 X
Track quality 100.0 %
Test CRC EF18DA3C
Copy CRC EF18DA3C
Accurately ripped (confidence 2) [D51EE312] (AR v2)
Copy OK

Track 12

Filename C:\EAC\J. Brahms - The Songs of Johannes Brahms, Vol 3 (2011) [FLAC]\12 - Fünf Lieder, Op. 49 - #3 Sehnsucht.wav

Peak level 69.1 %
Extraction speed 3.6 X
Track quality 99.9 %
Test CRC 04450556
Copy CRC 04450556
Accurately ripped (confidence 2) [D087D01C] (AR v2)
Copy OK

Track 13

Filename C:\EAC\J. Brahms - The Songs of Johannes Brahms, Vol 3 (2011) [FLAC]\13 - Fünf Lieder, Op. 49 - #4 Wiegenlied.wav

Peak level 28.7 %
Extraction speed 5.6 X
Track quality 100.0 %
Test CRC E5B66147
Copy CRC E5B66147
Accurately ripped (confidence 2) [DEF3527E] (AR v2)
Copy OK

Track 14

Filename C:\EAC\J. Brahms - The Songs of Johannes Brahms, Vol 3 (2011) [FLAC]\14 - Fünf Lieder, Op. 49 - #5 Abenddämmerung.wav

Peak level 63.4 %
Extraction speed 6.6 X
Track quality 100.0 %
Test CRC E155FD73
Copy CRC E155FD73
Accurately ripped (confidence 2) [79C205AD] (AR v2)
Copy OK

Track 15

Filename C:\EAC\J. Brahms - The Songs of Johannes Brahms, Vol 3 (2011) [FLAC]\15 - Lieder und Gesänge, Op. 59 - #7 Mein wundes Herz verlangt.wav

Peak level 58.0 %
Extraction speed 5.7 X
Track quality 100.0 %
Test CRC E97B41E3
Copy CRC E97B41E3
Accurately ripped (confidence 2) [26E3A3CB] (AR v2)
Copy OK

Track 16

Filename C:\EAC\J. Brahms - The Songs of Johannes Brahms, Vol 3 (2011) [FLAC]\16 - Vier Gesänge, Op. 70 - #1 Im Garten am Seegestade.wav

Peak level 48.0 %
Extraction speed 6.2 X
Track quality 100.0 %
Test CRC 9C1A06FA
Copy CRC 9C1A06FA
Accurately ripped (confidence 2) [2178D4FD] (AR v2)
Copy OK

Track 17

Filename C:\EAC\J. Brahms - The Songs of Johannes Brahms, Vol 3 (2011) [FLAC]\17 - Vier Gesänge, Op. 70 - #2 Lerchengesang.wav

Peak level 35.5 %
Extraction speed 6.6 X
Track quality 100.0 %
Test CRC 3A91A493
Copy CRC 3A91A493
Accurately ripped (confidence 2) [6765677D] (AR v2)
Copy OK

Track 18

Filename C:\EAC\J. Brahms - The Songs of Johannes Brahms, Vol 3 (2011) [FLAC]\18 - Vier Gesänge, Op. 70 - #3 Serenade.wav

Peak level 52.7 %
Extraction speed 5.5 X
Track quality 100.0 %
Test CRC D700B033
Copy CRC D700B033
Accurately ripped (confidence 2) [DDAA2B92] (AR v2)
Copy OK

Track 19

Filename C:\EAC\J. Brahms - The Songs of Johannes Brahms, Vol 3 (2011) [FLAC]\19 - Fünf Lieder, Op. 71 - #2 An den Mond.wav

Peak level 54.4 %
Extraction speed 5.4 X
Track quality 99.9 %
Test CRC CD67FA37
Copy CRC CD67FA37
Accurately ripped (confidence 2) [4B0F15B4] (AR v2)
Copy OK

Track 20

Filename C:\EAC\J. Brahms - The Songs of Johannes Brahms, Vol 3 (2011) [FLAC]\20 - Fünf Lieder, Op. 85 - #6 In Waldeseinsamkeit.wav

Peak level 41.6 %
Extraction speed 6.8 X
Track quality 100.0 %
Test CRC F2696F72
Copy CRC F2696F72
Accurately ripped (confidence 2) [2BFE1215] (AR v2)
Copy OK

Track 21

Filename C:\EAC\J. Brahms - The Songs of Johannes Brahms, Vol 3 (2011) [FLAC]\21 - Fünf Lieder, Op. 97 - #2 Auf dem Schiffe.wav

Peak level 62.6 %
Extraction speed 5.4 X
Track quality 100.0 %
Test CRC 31F69FE7
Copy CRC 31F69FE7
Accurately ripped (confidence 2) [C4F469B7] (AR v2)
Copy OK

Track 22

Filename C:\EAC\J. Brahms - The Songs of Johannes Brahms, Vol 3 (2011) [FLAC]\22 - Fünf Lieder, Op. 106 - #3 Es hing der Reif.wav

Peak level 48.2 %
Extraction speed 7.1 X
Track quality 100.0 %
Test CRC DB6AE4D5
Copy CRC DB6AE4D5
Accurately ripped (confidence 2) [F7B88FBE] (AR v2)
Copy OK

Track 23

Filename C:\EAC\J. Brahms - The Songs of Johannes Brahms, Vol 3 (2011) [FLAC]\23 - Fünf Lieder, Op. 106 - #5 Ein Wanderer.wav

Peak level 77.2 %
Extraction speed 5.6 X
Track quality 99.9 %
Test CRC FAD89054
Copy CRC FAD89054
Accurately ripped (confidence 2) [5304244E] (AR v2)
Copy OK

Track 24

Filename C:\EAC\J. Brahms - The Songs of Johannes Brahms, Vol 3 (2011) [FLAC]\24 - 49 Deutsche Volkslieder, WoO 33 - #05 Die Sonne scheint nicht mehr.wav

Peak level 68.6 %
Extraction speed 6.1 X
Track quality 100.0 %
Test CRC 8416E443
Copy CRC 8416E443
Accurately ripped (confidence 2) [6466AB5B] (AR v2)
Copy OK

Track 25

Filename C:\EAC\J. Brahms - The Songs of Johannes Brahms, Vol 3 (2011) [FLAC]\25 - 49 Deutsche Volkslieder, WoO 33 - #22 Wo gehst du hin, Du Stolze.wav

Peak level 73.6 %
Extraction speed 6.1 X
Track quality 100.0 %
Test CRC E0A174C6
Copy CRC E0A174C6
Accurately ripped (confidence 2) [4C3D390C] (AR v2)
Copy OK

Track 26

Filename C:\EAC\J. Brahms - The Songs of Johannes Brahms, Vol 3 (2011) [FLAC]\26 - 49 Deutsche Volkslieder, WoO 33 - #41 Es steht ein Lind.wav

Peak level 46.8 %
Extraction speed 7.4 X
Track quality 100.0 %
Test CRC BA16D25F
Copy CRC BA16D25F
Accurately ripped (confidence 2) [E767BFDC] (AR v2)
Copy OK


All tracks accurately ripped

No errors occurred

End of status report

–– CUETools DB Plugin V2.1.3

[CTDB TOCID: 3BaYNpmRF3f52bqVfAkH5Y1nLOY-] disk not present in database, Submit result: 3BaYNpmRF3f52bqVfAkH5Y1nLOY- has been uploaded


==== Log checksum 6B45690BB5A502FBB9D6FC5B8602F7DCD1FA0CBB5921D3A8E16A595897D69DA1 ====



Thanks to the original releaser