Subcategories

Sonny Boy Williamson - Cool Cool Blues: The Classic Sides 1951-1954 (2006) Repost

Posted By: v3122
Ensemble Wien-Berlin - 20th Century Wind Quintets (1991)

Sonny Boy Williamson - Cool Cool Blues: The Classic Sides 1951-1954 (2006)
EAC | Flac(Image) + Cue + Log & MP3 CBR 320Kbps
4CD | JSP Records, JSP7766 | ~ 691 or 668 Mb | Scans(jpg) -> 11 Mb
Chicago Blues, Harmonica Blues

Rice Miller (or Alec or Aleck Miller – everything about this blues great is somewhat of a mystery) probably didn't need to take the name of the original Sonny Boy Williamson (John Lee Williamson) to get noticed, since in many ways he was the better musician, but Miller seemed to revel in confusion, at least when it came to biographical facts, so for whatever reason, blues history has two Sonny Boy Williamsons. Like the first Williamson, Miller was a harmonica player, but he really sounded nothing like his adopted namesake, favoring a light, soaring, almost horn-like sound on the instrument. He was also a natural songwriter, and his blues-based compositions show a sharp attention to detail unusual in a genre built largely on cliché and a handful of repeated patterns. This four-disc collection brings together all of his first recordings, done for Lillian McMurry's Trumpet Records, a tiny Jackson, MS, label that issued Williamson's sides from 1951 until 1955, at which time his contract was bought out by Chicago's Chess Records, who then began issuing his sides on the Checker imprint. From the first track here, the sparse and urgent "Eyesight to the Blind," it is obvious that Williamson was something special, with a clear vision of what he wanted to do, and song after song here exhibits a rough and wild joy, walking the blues side of the street with a loose-limbed swagger. Particularly striking is "Mighty Long Time," a duet of sorts featuring Williamson on vocals and harmonica, and Cliff Givens of the Southern Sons Gospel Quartet on vocal bass. Givens' sung bassline gives the tune an odd, eerie, and atmospheric edge, and it is simply a remarkable recording. The great slide guitarist Elmore James also shows up on several cuts, including the delightfully realized "Pontiac Blues," and Williamson adds his harp to the first-ever version of James' classic "Dust My Broom." Many of the tracks here feature Williamson in his role as a sideman, adding harmonica textures to recordings by James, Big Joe Williams, Luther Huff, Arthur "Big Boy" Crudup, Bobo Thomas, Jerry McCain, Willie Love, Sherman "Blues" Johnson, Tiny Kennedy, and Wally Mercer, making this set a stunning survey of early-'50s country blues. Williamson's Checker sides were better recorded, but the ragged skill at work on these Trumpet recordings really shouldn't be missed. Without going to a Delta juke joint on a hot Saturday night, you can't get much closer to the center of the blues than this.

~ by Steve Leggett
Sonny Boy Williamson - Cool Cool Blues: The Classic Sides 1951-1954 (2006):

Ensemble Wien-Berlin - 20th Century Wind Quintets (1991)

Tracklist CD1:

01. Eyesight To The Blind (3:04)
02. Crazy About You Baby (3:01)
03. Stop Crying (2:55)
04. Do It If You Wanna (2:30)
05. Cool, Cool Blues (2:45)
06. Come On Back Home (2:47)
07. I Cross My Heart (2:43)
08. West Memphis Blues (2:49)
09. Sonny Boy's Christmas Blues (2:37)
10. Pontiac Blues (2:42)
11. Mighty Long Time (2:57)
12. Nine Below Zero (2:51)
13. She Brought Life Back To The Dead (45) (2:31)
14. She Brought Life Back To The Dead (78) (3:18)
15. Too Close Together (2:35)
16. Stop Now Baby (2:43)
17. Mr. Down Child (2:30)
18. Cat Hop (2:55)
19. Gettin' Out Of Town (2:25)
20. Red Hot Kisses (2:36)
21. Going In Your Direction (2:39)
22. Empty Bedroom (2:40)
23. Boppin' With Sonny (2:48)
24. From The Bottom (2:40)
25. No Nights By Myself (2:54)

EAC extraction logfile from 5. July 2009, 11:10 for CD
Various / The Classic Sides 1951-1954 - Disc A

Used drive : Optiarc DVD RW AD-7590A Adapter: 3 ID: 0
Read mode : Secure with NO C2, accurate stream, disable cache
Read offset correction : 48
Overread into Lead-In and Lead-Out : No

Used output format : C:\Program Files\Exact Audio Copy\Flac\flac.exe (User Defined Encoder)
192 kBit/s
Additional command line options : -8 -A tukey(0.25) -A gauss(0.1875) -b 4096 -V -T "artist=%a" -T "title=%t" -T "album=%g" -T "date=%y" -T "tracknumber=%n" -T "genre=%m" %s –sector-align

Other options :
Fill up missing offset samples with silence : Yes
Delete leading and trailing silent blocks : No
Native Win32 interface for Win NT & 2000


Track 1
Filename D:\flac\The Classic Sides 1951-1954 - Disc A\01 - Sonny Boy Williamson II - Eyesight To The Blind.wav

Pre-gap length 0:00:02.00

Peak level 94.2 %
Track quality 100.0 %
Test CRC CEE80279
Copy CRC CEE80279
Copy OK

Track 2
Filename D:\flac\The Classic Sides 1951-1954 - Disc A\02 - Sonny Boy Williamson II - Crazy About You Baby.wav

Pre-gap length 0:00:02.38

Peak level 94.2 %
Track quality 100.0 %
Test CRC F0C8B018
Copy CRC F0C8B018
Copy OK

Track 3
Filename D:\flac\The Classic Sides 1951-1954 - Disc A\03 - Sonny Boy Williamson II - Stop Crying.wav

Pre-gap length 0:00:02.36

Peak level 94.3 %
Track quality 100.0 %
Test CRC 062BAC24
Copy CRC 062BAC24
Copy OK

Track 4
Filename D:\flac\The Classic Sides 1951-1954 - Disc A\04 - Sonny Boy Williamson II - Do It If You Wanna.wav

Pre-gap length 0:00:02.41

Peak level 94.2 %
Track quality 100.0 %
Test CRC CB0F05A0
Copy CRC CB0F05A0
Copy OK

Track 5
Filename D:\flac\The Classic Sides 1951-1954 - Disc A\05 - Sonny Boy Williamson II - Cool, Cool Blues.wav

Pre-gap length 0:00:02.38

Peak level 94.2 %
Track quality 100.0 %
Test CRC B7DC5AFE
Copy CRC B7DC5AFE
Copy OK

Track 6
Filename D:\flac\The Classic Sides 1951-1954 - Disc A\06 - Sonny Boy Williamson II - Come On Back Home.wav

Pre-gap length 0:00:02.41

Peak level 94.2 %
Track quality 100.0 %
Test CRC 530677EA
Copy CRC 530677EA
Copy OK

Track 7
Filename D:\flac\The Classic Sides 1951-1954 - Disc A\07 - Sonny Boy Williamson II - I Cross My Heart.wav

Pre-gap length 0:00:02.33

Peak level 94.2 %
Track quality 100.0 %
Test CRC 99FB6145
Copy CRC 99FB6145
Copy OK

Track 8
Filename D:\flac\The Classic Sides 1951-1954 - Disc A\08 - Sonny Boy Williamson II - West Memphis Blues.wav

Pre-gap length 0:00:02.40

Peak level 94.2 %
Track quality 100.0 %
Test CRC CE24ACCB
Copy CRC CE24ACCB
Copy OK

Track 9
Filename D:\flac\The Classic Sides 1951-1954 - Disc A\09 - Sonny Boy Williamson II - Sonny Boy's Christmas Blues.wav

Pre-gap length 0:00:02.35

Peak level 94.2 %
Track quality 100.0 %
Test CRC FD45744A
Copy CRC FD45744A
Copy OK

Track 10
Filename D:\flac\The Classic Sides 1951-1954 - Disc A\10 - Sonny Boy Williamson II - Pontiac Blues.wav

Pre-gap length 0:00:02.40

Peak level 89.0 %
Track quality 100.0 %
Test CRC 92DD6C58
Copy CRC 92DD6C58
Copy OK

Track 11
Filename D:\flac\The Classic Sides 1951-1954 - Disc A\11 - Sonny Boy Williamson II - Mighty Long Time.wav

Pre-gap length 0:00:02.38

Peak level 84.0 %
Track quality 100.0 %
Test CRC 79392585
Copy CRC 79392585
Copy OK

Track 12
Filename D:\flac\The Classic Sides 1951-1954 - Disc A\12 - Sonny Boy Williamson II - Nine Below Zero.wav

Pre-gap length 0:00:02.31

Peak level 94.2 %
Track quality 99.9 %
Test CRC 9D04C6A1
Copy CRC 9D04C6A1
Copy OK

Track 13
Filename D:\flac\The Classic Sides 1951-1954 - Disc A\13 - Sonny Boy Williamson II - She Brought Life Back To The Dead (45).wav

Pre-gap length 0:00:02.32

Peak level 89.0 %
Track quality 100.0 %
Test CRC 379A4BB2
Copy CRC 379A4BB2
Copy OK

Track 14
Filename D:\flac\The Classic Sides 1951-1954 - Disc A\14 - Sonny Boy Williamson II - She Brought Life Back To The Dead (78).wav

Pre-gap length 0:00:02.31

Peak level 94.2 %
Track quality 100.0 %
Test CRC 9E358F09
Copy CRC 9E358F09
Copy OK

Track 15
Filename D:\flac\The Classic Sides 1951-1954 - Disc A\15 - Sonny Boy Williamson II - Too Close Together.wav

Pre-gap length 0:00:02.38

Peak level 93.4 %
Track quality 100.0 %
Test CRC D2D8B1AA
Copy CRC D2D8B1AA
Copy OK

Track 16
Filename D:\flac\The Classic Sides 1951-1954 - Disc A\16 - Sonny Boy Williamson II - Stop Now Baby.wav

Pre-gap length 0:00:02.35

Peak level 84.0 %
Track quality 100.0 %
Test CRC E8D71888
Copy CRC E8D71888
Copy OK

Track 17
Filename D:\flac\The Classic Sides 1951-1954 - Disc A\17 - Sonny Boy Williamson II - Mr. Down Child.wav

Pre-gap length 0:00:02.40

Peak level 94.2 %
Track quality 99.9 %
Test CRC AC8C3E1B
Copy CRC AC8C3E1B
Copy OK

Track 18
Filename D:\flac\The Classic Sides 1951-1954 - Disc A\18 - Sonny Boy Williamson II - Cat Hop.wav

Pre-gap length 0:00:02.29

Peak level 84.0 %
Track quality 100.0 %
Test CRC 27B7A70D
Copy CRC 27B7A70D
Copy OK

Track 19
Filename D:\flac\The Classic Sides 1951-1954 - Disc A\19 - Sonny Boy Williamson II - Gettin' Out Of Town.wav

Pre-gap length 0:00:02.37

Peak level 94.2 %
Track quality 100.0 %
Test CRC 802C1D84
Copy CRC 802C1D84
Copy OK

Track 20
Filename D:\flac\The Classic Sides 1951-1954 - Disc A\20 - Sonny Boy Williamson II - Red Hot Kisses.wav

Pre-gap length 0:00:02.29

Peak level 91.6 %
Track quality 99.9 %
Test CRC 72D414E0
Copy CRC 72D414E0
Copy OK

Track 21
Filename D:\flac\The Classic Sides 1951-1954 - Disc A\21 - Sonny Boy Williamson II - Going In Your Direction.wav

Pre-gap length 0:00:02.36

Peak level 84.0 %
Track quality 100.0 %
Test CRC 34424CF6
Copy CRC 34424CF6
Copy OK

Track 22
Filename D:\flac\The Classic Sides 1951-1954 - Disc A\22 - Sonny Boy Williamson II - Empty Bedroom.wav

Pre-gap length 0:00:02.36

Peak level 94.2 %
Track quality 100.0 %
Test CRC 5F370D71
Copy CRC 5F370D71
Copy OK

Track 23
Filename D:\flac\The Classic Sides 1951-1954 - Disc A\23 - Sonny Boy Williamson II - Boppin' With Sonny.wav

Pre-gap length 0:00:02.37

Peak level 84.0 %
Track quality 100.0 %
Test CRC EF735DB3
Copy CRC EF735DB3
Copy OK

Track 24
Filename D:\flac\The Classic Sides 1951-1954 - Disc A\24 - Sonny Boy Williamson II - From The Bottom.wav

Pre-gap length 0:00:02.31

Peak level 94.2 %
Track quality 100.0 %
Test CRC 0A8590A8
Copy CRC 0A8590A8
Copy OK

Track 25
Filename D:\flac\The Classic Sides 1951-1954 - Disc A\25 - Sonny Boy Williamson II - No Nights By Myself.wav

Pre-gap length 0:00:02.28

Peak level 79.3 %
Track quality 100.0 %
Test CRC DFC17C80
Copy CRC DFC17C80
Copy OK

No errors occured


End of status report


[CUETools log; Date: 07.02.2018 5:36:25; Version: 2.1.5]
[AccurateRip ID: 003e2742-045a1e8b-5c102519] found.
Track [ CRC | V2 ] Status
01 [30acb5ad|1b777e53] (03+05/11) Accurately ripped
02 [f3c95e0a|eb38db0a] (03+05/11) Accurately ripped
03 [1b3786e7|9b289000] (03+05/11) Accurately ripped
04 [95ca5c26|48a5e65b] (03+05/11) Accurately ripped
05 [0f1c9723|0b619236] (03+05/11) Accurately ripped
06 [3f11380f|133df24f] (03+05/11) Accurately ripped
07 [abdeba91|ade0b287] (03+05/11) Accurately ripped
08 [839dd077|344c1f14] (03+05/11) Accurately ripped
09 [d58ba956|edcd19c6] (03+05/11) Accurately ripped
10 [ce952818|fa2e5c70] (03+05/11) Accurately ripped
11 [f4ce6e66|5ae7bb28] (03+05/11) Accurately ripped
12 [806bdfcd|ac283148] (03+05/11) Accurately ripped
13 [4d0fa284|d529dcd5] (03+05/11) Accurately ripped
14 [c5634368|5a36cc37] (03+05/11) Accurately ripped
15 [7b17d62a|6d5f5683] (03+05/11) Accurately ripped
16 [87cd2f9e|1e0e4864] (03+05/11) Accurately ripped
17 [5974b063|42f28cb6] (03+05/11) Accurately ripped
18 [96521df9|2aa9152b] (03+05/11) Accurately ripped
19 [30cd4349|40fc6c3f] (03+05/11) Accurately ripped
20 [f14526c1|452fdc8d] (03+05/11) Accurately ripped
21 [e7010504|45e8bde6] (03+05/11) Accurately ripped
22 [67673e4b|d6e0d15b] (03+05/11) Accurately ripped
23 [f60b2487|9f161b9b] (03+05/11) Accurately ripped
24 [68f098d9|959ca57c] (03+05/11) Accurately ripped
25 [c88dd5cf|e52c4985] (03+05/11) Accurately ripped
Offsetted by -6:
01 [1fdbb223] (00/11) No match (V2 was not tested)
02 [fdb3a5b2] (00/11) No match (V2 was not tested)
03 [2f52e497] (00/11) No match (V2 was not tested)
04 [71e6679e] (00/11) No match (V2 was not tested)
05 [07b56919] (00/11) No match (V2 was not tested)
06 [663f1bed] (00/11) No match (V2 was not tested)
07 [40fb881b] (00/11) No match (V2 was not tested)
08 [a2fd90b5] (00/11) No match (V2 was not tested)
09 [9334ae00] (00/11) No match (V2 was not tested)
10 [d068f4e0] (00/11) No match (V2 was not tested)
11 [c80be9e8] (00/11) No match (V2 was not tested)
12 [a223574f] (00/11) No match (V2 was not tested)
13 [5d99267e] (00/11) No match (V2 was not tested)
14 [5de34eb4] (00/11) No match (V2 was not tested)
15 [e9deec4a] (00/11) No match (V2 was not tested)
16 [a3ffb388] (00/11) No match (V2 was not tested)
17 [8812ab89] (00/11) No match (V2 was not tested)
18 [fc07c445] (00/11) No match (V2 was not tested)
19 [a4ad7f8b] (00/11) No match (V2 was not tested)
20 [1f1855d3] (00/11) No match (V2 was not tested)
21 [eb6513a0] (00/11) No match (V2 was not tested)
22 [26108aff] (00/11) No match (V2 was not tested)
23 [2132fe4b] (00/11) No match (V2 was not tested)
24 [476607ed] (00/11) No match (V2 was not tested)
25 [d937af79] (00/11) No match (V2 was not tested)

Track Peak [ CRC32 ] [W/O NULL] [ LOG ]
– 94,3 [D2017196] [FC7C87DE]
01 94,2 [CEE80279] [AA27EA7D] CRC32
02 94,2 [F0C8B018] [D1BA4AE5] CRC32
03 94,3 [062BAC24] [49A3BCDE] CRC32
04 94,2 [CB0F05A0] [723023AC] CRC32
05 94,2 [B7DC5AFE] [F6159687] CRC32
06 94,2 [530677EA] [D51136AC] CRC32
07 94,2 [99FB6145] [EF4EDFC6] CRC32
08 94,2 [CE24ACCB] [FD6BF4D4] CRC32
09 94,2 [FD45744A] [89EF3010] CRC32
10 89,0 [92DD6C58] [161A0C13] CRC32
11 84,0 [79392585] [AE315E15] CRC32
12 94,2 [9D04C6A1] [7293AEFC] CRC32
13 89,0 [379A4BB2] [E519C1E0] CRC32
14 94,2 [9E358F09] [6C9DAD5C] CRC32
15 93,4 [D2D8B1AA] [E3A25C4F] CRC32
16 84,0 [E8D71888] [E54E91FA] CRC32
17 94,2 [AC8C3E1B] [76662E39] CRC32
18 84,0 [27B7A70D] [58A5FF4F] CRC32
19 94,2 [802C1D84] [649444B9] CRC32
20 91,6 [72D414E0] [3DCAC1F9] CRC32
21 84,0 [34424CF6] [ADE836B4] CRC32
22 94,2 [5F370D71] [9AD25407] CRC32
23 84,0 [EF735DB3] [B74E0051] CRC32
24 94,2 [0A8590A8] [540B986C] CRC32
25 79,3 [DFC17C80] [0D75EEBA] CRC32


Ensemble Wien-Berlin - 20th Century Wind Quintets (1991)

Tracklist CD2:

01. Big Joe Williams - Mama Don't Allow Me (2:45)
02. Big Joe Williams - Delta Blues (2:41)
03. Big Joe Williams - Overhauling Blues (2:46)
04. Big Joe Williams - Whistling Pines (2:34)
05. Big Joe Williams - Friends And Pals (2:37)
06. Big Joe Williams - Juanita (2:36)
07. Big Joe Williams - She Left Me A Mule (2:32)
08. Big Joe Williams - Bad Heart Blues (2:45)
09. Luther Huff - Dirty Disposition (2:46)
10. Luther Huff - 1951 Blues (2:40)
11. Luther Huff - Bull Dog Blues (2:50)
12. Luther Huff - Rosalee (2:30)
13. Arthur 'Big Boy' Crudup - My Baby Boogies All The Time (3:04)
14. Arthur 'Big Boy' Crudup - I Wonder (2:15)
15. Arthur 'Big Boy' Crudup - Gotta Find My Baby (3:01)
16. Arthur 'Big Boy' Crudup - Make A Little Love (3:09)
17. Bobo Thomas - Catfish Blues (2:55)
18. Elmore James - Dust My Broom (2:47)
19. Jerry McCain - East Of The Sun (2:46)
20. Jerry McCain - Wine-O-Wine (2:44)
21. Jerry McCain - Stay Out Of Automobiles (2:32)
22. Jerry McCain - Middle Of The Night (2:55)
23. Jerry McCain - Love To Make Up (3:02)
24. Jerry McCain - Crazy 'Bout That Mess (2:22)
25. Jerry McCain - Fall Guy (2:28)

EAC extraction logfile from 5. July 2009, 11:51 for CD
Various Artists / Cool, Cool Blues, The Classic Sides (1951-54) - Disc B (Jackson, MS)

Used drive : Optiarc DVD RW AD-7590A Adapter: 3 ID: 0
Read mode : Secure with NO C2, accurate stream, disable cache
Read offset correction : 48
Overread into Lead-In and Lead-Out : No

Used output format : C:\Program Files\Exact Audio Copy\Flac\flac.exe (User Defined Encoder)
192 kBit/s
Additional command line options : -8 -A tukey(0.25) -A gauss(0.1875) -b 4096 -V -T "artist=%a" -T "title=%t" -T "album=%g" -T "date=%y" -T "tracknumber=%n" -T "genre=%m" %s –sector-align

Other options :
Fill up missing offset samples with silence : Yes
Delete leading and trailing silent blocks : No
Native Win32 interface for Win NT & 2000


Track 1
Filename D:\flac\Cool, Cool Blues, The Classic Sides (1951-54) - Disc B (Jackson, MS)\01 - Big Joe Williams - Mama Don't Allow Me.wav

Pre-gap length 0:00:02.00

Peak level 94.2 %
Track quality 100.0 %
Test CRC 3F057402
Copy CRC 3F057402
Copy OK

Track 2
Filename D:\flac\Cool, Cool Blues, The Classic Sides (1951-54) - Disc B (Jackson, MS)\02 - Big Joe Williams - Delta Blues.wav

Pre-gap length 0:00:02.31

Peak level 94.2 %
Track quality 100.0 %
Test CRC 09D3C4D8
Copy CRC 09D3C4D8
Copy OK

Track 3
Filename D:\flac\Cool, Cool Blues, The Classic Sides (1951-54) - Disc B (Jackson, MS)\03 - Big Joe Williams - Overhauling Blues.wav

Pre-gap length 0:00:02.31

Peak level 94.2 %
Track quality 100.0 %
Test CRC 5EC05017
Copy CRC 5EC05017
Copy OK

Track 4
Filename D:\flac\Cool, Cool Blues, The Classic Sides (1951-54) - Disc B (Jackson, MS)\04 - Big Joe Williams - Whistling Pines.wav

Pre-gap length 0:00:02.31

Peak level 94.2 %
Track quality 100.0 %
Test CRC AE25CA0D
Copy CRC AE25CA0D
Copy OK

Track 5
Filename D:\flac\Cool, Cool Blues, The Classic Sides (1951-54) - Disc B (Jackson, MS)\05 - Big Joe Williams - Friends And Pals.wav

Pre-gap length 0:00:02.24

Peak level 90.1 %
Track quality 100.0 %
Test CRC 339018EF
Copy CRC 339018EF
Copy OK

Track 6
Filename D:\flac\Cool, Cool Blues, The Classic Sides (1951-54) - Disc B (Jackson, MS)\06 - Big Joe Williams - Juanita.wav

Pre-gap length 0:00:02.31

Peak level 93.5 %
Track quality 100.0 %
Test CRC 96BDC3F7
Copy CRC 96BDC3F7
Copy OK

Track 7
Filename D:\flac\Cool, Cool Blues, The Classic Sides (1951-54) - Disc B (Jackson, MS)\07 - Big Joe Williams - She Left Me A Mule.wav

Pre-gap length 0:00:02.29

Peak level 94.2 %
Track quality 99.9 %
Test CRC 75C9F806
Copy CRC 75C9F806
Copy OK

Track 8
Filename D:\flac\Cool, Cool Blues, The Classic Sides (1951-54) - Disc B (Jackson, MS)\08 - Big Joe Williams - Bad Heart Blues.wav

Pre-gap length 0:00:02.19

Peak level 94.3 %
Track quality 100.0 %
Test CRC 1BC6E517
Copy CRC 1BC6E517
Copy OK

Track 9
Filename D:\flac\Cool, Cool Blues, The Classic Sides (1951-54) - Disc B (Jackson, MS)\09 - Luther Huff - Dirty Disposition.wav

Pre-gap length 0:00:02.31

Peak level 79.3 %
Track quality 99.9 %
Test CRC E620C3E8
Copy CRC E620C3E8
Copy OK

Track 10
Filename D:\flac\Cool, Cool Blues, The Classic Sides (1951-54) - Disc B (Jackson, MS)\10 - Luther Huff - 1951 Blues.wav

Pre-gap length 0:00:02.32

Peak level 84.0 %
Track quality 99.9 %
Test CRC 0D28BBF9
Copy CRC 0D28BBF9
Copy OK

Track 11
Filename D:\flac\Cool, Cool Blues, The Classic Sides (1951-54) - Disc B (Jackson, MS)\11 - Luther Huff - Bull Dog Blues.wav

Pre-gap length 0:00:02.31

Peak level 84.0 %
Track quality 100.0 %
Test CRC 6A80BF27
Copy CRC 6A80BF27
Copy OK

Track 12
Filename D:\flac\Cool, Cool Blues, The Classic Sides (1951-54) - Disc B (Jackson, MS)\12 - Luther Huff - Rosalee.wav

Pre-gap length 0:00:02.19

Peak level 77.3 %
Track quality 100.0 %
Test CRC 115D2DB9
Copy CRC 115D2DB9
Copy OK

Track 13
Filename D:\flac\Cool, Cool Blues, The Classic Sides (1951-54) - Disc B (Jackson, MS)\13 - Arthur 'Big Boy' Crudup - My Baby Boogies All The Time.wav

Pre-gap length 0:00:02.24

Peak level 89.0 %
Track quality 99.9 %
Test CRC 9E2A5FBB
Copy CRC 9E2A5FBB
Copy OK

Track 14
Filename D:\flac\Cool, Cool Blues, The Classic Sides (1951-54) - Disc B (Jackson, MS)\14 - Arthur 'Big Boy' Crudup - I Wonder.wav

Pre-gap length 0:00:02.29

Peak level 91.6 %
Track quality 99.9 %
Test CRC 8D3DB900
Copy CRC 8D3DB900
Copy OK

Track 15
Filename D:\flac\Cool, Cool Blues, The Classic Sides (1951-54) - Disc B (Jackson, MS)\15 - Arthur 'Big Boy' Crudup - Gotta Find My Baby.wav

Pre-gap length 0:00:02.29

Peak level 92.9 %
Track quality 100.0 %
Test CRC C4AB34D4
Copy CRC C4AB34D4
Copy OK

Track 16
Filename D:\flac\Cool, Cool Blues, The Classic Sides (1951-54) - Disc B (Jackson, MS)\16 - Arthur 'Big Boy' Crudup - Make A Little Love.wav

Pre-gap length 0:00:02.21

Peak level 94.2 %
Track quality 99.9 %
Test CRC C629DD34
Copy CRC C629DD34
Copy OK

Track 17
Filename D:\flac\Cool, Cool Blues, The Classic Sides (1951-54) - Disc B (Jackson, MS)\17 - Bobo Thomas - Catfish Blues.wav

Pre-gap length 0:00:02.26

Peak level 94.2 %
Track quality 100.0 %
Test CRC 9FFBB440
Copy CRC 9FFBB440
Copy OK

Track 18
Filename D:\flac\Cool, Cool Blues, The Classic Sides (1951-54) - Disc B (Jackson, MS)\18 - Elmore James - Dust My Broom.wav

Pre-gap length 0:00:02.28

Peak level 94.2 %
Track quality 100.0 %
Test CRC 2D6EAC12
Copy CRC 2D6EAC12
Copy OK

Track 19
Filename D:\flac\Cool, Cool Blues, The Classic Sides (1951-54) - Disc B (Jackson, MS)\19 - Jerry McCain - East Of The Sun.wav

Pre-gap length 0:00:02.20

Peak level 84.0 %
Track quality 100.0 %
Test CRC 8CC16442
Copy CRC 8CC16442
Copy OK

Track 20
Filename D:\flac\Cool, Cool Blues, The Classic Sides (1951-54) - Disc B (Jackson, MS)\20 - Jerry McCain - Wine-O-Wine.wav

Pre-gap length 0:00:02.31

Peak level 84.0 %
Track quality 100.0 %
Test CRC 2C8D9466
Copy CRC 2C8D9466
Copy OK

Track 21
Filename D:\flac\Cool, Cool Blues, The Classic Sides (1951-54) - Disc B (Jackson, MS)\21 - Jerry McCain - Stay Out Of Automobiles.wav

Pre-gap length 0:00:02.28

Peak level 86.0 %
Track quality 100.0 %
Test CRC 245FF0BA
Copy CRC 245FF0BA
Copy OK

Track 22
Filename D:\flac\Cool, Cool Blues, The Classic Sides (1951-54) - Disc B (Jackson, MS)\22 - Jerry McCain - Middle Of The Night.wav

Pre-gap length 0:00:02.18

Peak level 94.3 %
Track quality 100.0 %
Test CRC E083981A
Copy CRC E083981A
Copy OK

Track 23
Filename D:\flac\Cool, Cool Blues, The Classic Sides (1951-54) - Disc B (Jackson, MS)\23 - Jerry McCain - Love To Make Up.wav

Pre-gap length 0:00:02.29

Peak level 94.2 %
Track quality 100.0 %
Test CRC 730D9439
Copy CRC 730D9439
Copy OK

Track 24
Filename D:\flac\Cool, Cool Blues, The Classic Sides (1951-54) - Disc B (Jackson, MS)\24 - Jerry McCain - Crazy 'Bout That Mess.wav

Pre-gap length 0:00:02.24

Peak level 94.2 %
Track quality 100.0 %
Test CRC 7173F542
Copy CRC 7173F542
Copy OK

Track 25
Filename D:\flac\Cool, Cool Blues, The Classic Sides (1951-54) - Disc B (Jackson, MS)\25 - Jerry McCain - Fall Guy.wav

Pre-gap length 0:00:02.31

Peak level 94.2 %
Track quality 100.0 %
Test CRC E12D5AB5
Copy CRC E12D5AB5
Copy OK

No errors occured


End of status report


[CUETools log; Date: 07.02.2018 5:38:43; Version: 2.1.5]
[AccurateRip ID: 003c842a-044445af-590ff119] found.
Track [ CRC | V2 ] Status
01 [54c3e0af|2406d29d] (03+05/11) Accurately ripped
02 [d1a8d88a|669f5796] (03+05/11) Accurately ripped
03 [27b38389|3b7a599c] (03+05/11) Accurately ripped
04 [56371caa|4c4356e8] (03+05/11) Accurately ripped
05 [be142cf6|ce28f24d] (03+05/11) Accurately ripped
06 [5b85762f|c2f64156] (03+05/11) Accurately ripped
07 [2112180d|eedc90db] (03+05/11) Accurately ripped
08 [e591a0e8|447c9e99] (03+05/11) Accurately ripped
09 [e949d071|1b5b4a72] (03+05/11) Accurately ripped
10 [b2558b06|eb642321] (03+05/11) Accurately ripped
11 [dc5f464b|6d7b2ba8] (03+05/11) Accurately ripped
12 [69d6a566|84f20e10] (03+05/11) Accurately ripped
13 [4392d93c|135ff819] (03+05/11) Accurately ripped
14 [bec00d43|3c17b54a] (03+05/11) Accurately ripped
15 [7c953710|fa7c1693] (03+05/11) Accurately ripped
16 [b6116cdd|770ae832] (03+05/11) Accurately ripped
17 [74710df0|94367284] (03+05/11) Accurately ripped
18 [1c835456|aaa96e99] (03+05/11) Accurately ripped
19 [fdb81861|7e13b42e] (03+05/11) Accurately ripped
20 [507a77db|b23782ce] (03+05/11) Accurately ripped
21 [d0748ca2|341afbea] (03+05/11) Accurately ripped
22 [7fdee301|c07deb34] (03+05/11) Accurately ripped
23 [09b506f1|338edb01] (03+05/11) Accurately ripped
24 [f2ebdb67|073d1369] (03+05/11) Accurately ripped
25 [17f5abd8|27060d30] (03+05/11) Accurately ripped
Offsetted by -6:
01 [bc7baf13] (00/11) No match (V2 was not tested)
02 [2173277e] (00/11) No match (V2 was not tested)
03 [451f974d] (00/11) No match (V2 was not tested)
04 [05621886] (00/11) No match (V2 was not tested)
05 [f2bb0fec] (00/11) No match (V2 was not tested)
06 [894018c9] (00/11) No match (V2 was not tested)
07 [447be18d] (00/11) No match (V2 was not tested)
08 [b5cbff3e] (00/11) No match (V2 was not tested)
09 [184ceb3f] (00/11) No match (V2 was not tested)
10 [40af42f4] (00/11) No match (V2 was not tested)
11 [b001bedb] (00/11) No match (V2 was not tested)
12 [b7470daa] (00/11) No match (V2 was not tested)
13 [73a42b42] (00/11) No match (V2 was not tested)
14 [12a7d81b] (00/11) No match (V2 was not tested)
15 [7d41dae4] (00/11) No match (V2 was not tested)
16 [c9303e89] (00/11) No match (V2 was not tested)
17 [388efbec] (00/11) No match (V2 was not tested)
18 [a0e620b2] (00/11) No match (V2 was not tested)
19 [e2e09d99] (00/11) No match (V2 was not tested)
20 [e8bc00af] (00/11) No match (V2 was not tested)
21 [7fb67916] (00/11) No match (V2 was not tested)
22 [ad70177f] (00/11) No match (V2 was not tested)
23 [180c79b7] (00/11) No match (V2 was not tested)
24 [39e30949] (00/11) No match (V2 was not tested)
25 [f1ec4c96] (00/11) No match (V2 was not tested)

Track Peak [ CRC32 ] [W/O NULL] [ LOG ]
– 94,3 [CB307B28] [0F02058F]
01 94,2 [3F057402] [CA4D3CF5] CRC32
02 94,2 [09D3C4D8] [5EA9B289] CRC32
03 94,2 [5EC05017] [EEDBFED4] CRC32
04 94,2 [AE25CA0D] [D8DF9ED7] CRC32
05 90,1 [339018EF] [6A154F6F] CRC32
06 93,5 [96BDC3F7] [5DC2707D] CRC32
07 94,2 [75C9F806] [81A70E6B] CRC32
08 94,3 [1BC6E517] [0A24D7E7] CRC32
09 79,3 [E620C3E8] [8B9FFA60] CRC32
10 84,0 [0D28BBF9] [9F36B824] CRC32
11 84,0 [6A80BF27] [A47DD8D3] CRC32
12 77,3 [115D2DB9] [1E2CB7C7] CRC32
13 89,0 [9E2A5FBB] [7F245FE8] CRC32
14 91,6 [8D3DB900] [2841DAD9] CRC32
15 92,9 [C4AB34D4] [388EDA04] CRC32
16 94,2 [C629DD34] [569F373E] CRC32
17 94,2 [9FFBB440] [3B6D4D44] CRC32
18 94,2 [2D6EAC12] [71F48837] CRC32
19 84,0 [8CC16442] [FEDCDB3D] CRC32
20 84,0 [2C8D9466] [FBEA89EE] CRC32
21 86,0 [245FF0BA] [031AED93] CRC32
22 94,3 [E083981A] [316B66EC] CRC32
23 94,2 [730D9439] [9EC791CF] CRC32
24 94,2 [7173F542] [82B363F9] CRC32
25 94,2 [E12D5AB5] [D6EF7EE2] CRC32


Ensemble Wien-Berlin - 20th Century Wind Quintets (1991)

Tracklist CD3:

01. Willie Love - Take It Easy Baby (2:56)
02. Willie Love - Little Car Blues (2:58)
03. Willie Love - Everybody's Fishing (2:19)
04. Willie Love - My Own Boogie (3:01)
05. Willie Love - Feed My Body To The Fishes (2:32)
06. Willie Love - Falling Rain (3:02)
07. Willie Love - Vanity Dresser Boogie (2:28)
08. Willie Love - Seventy Four Blues (3:03)
09. Willie Love - 21 Minutes To Nine (2:32)
10. Willie Love - Shady Lane Blues (2:49)
11. Willie Love - Nelson Street Blues (2:47)
12. Willie Love - V-8 Ford (2:47)
13. Willie Love - Shout Brother, Shout (2:35)
14. Willie Love - Way Back (3:04)
15. Sherman 'Blues' Johnson - Pretty Baby Blues (2:56)
16. Sherman 'Blues' Johnson - Sugar Mama (3:13)
17. Sherman 'Blues' Johnson - Hot Fish (2:28)
18. Sherman 'Blues' Johnson - Lost In Korea (3:22)
19. Tiny Kennedy - Early In The Morning Baby (2:30)
20. Tiny Kennedy - Strange Kind Of Feeling (2:30)
21. Tiny Kennedy - Blues Disease (2:29)
22. Tiny Kennedy - Don't Lay This Job On Me (3:05)
23. Tiny Kennedy - Have You Heard About The Farmer's Daughter (2:49)
24. Wally Mercer - Too Old To Get Married (2:41)
25. Wally Mercer - If You Don't Mean Business (2:17)
26. Wally Mercer - Hey, Miss Lula (2:25)

EAC extraction logfile from 5. July 2009, 12:31 for CD
Various Artists / Cool, Cool Blues, The Classic Sides (1951-54) - Disc C (Jackson, Houston, Memphis)

Used drive : Optiarc DVD RW AD-7590A Adapter: 3 ID: 0
Read mode : Secure with NO C2, accurate stream, disable cache
Read offset correction : 48
Overread into Lead-In and Lead-Out : No

Used output format : C:\Program Files\Exact Audio Copy\Flac\flac.exe (User Defined Encoder)
192 kBit/s
Additional command line options : -8 -A tukey(0.25) -A gauss(0.1875) -b 4096 -V -T "artist=%a" -T "title=%t" -T "album=%g" -T "date=%y" -T "tracknumber=%n" -T "genre=%m" %s –sector-align

Other options :
Fill up missing offset samples with silence : Yes
Delete leading and trailing silent blocks : No
Native Win32 interface for Win NT & 2000


Track 1
Filename D:\flac\Cool, Cool Blues, The Classic Sides (1951-54) - Disc C (Jackson, Houston, Memphis)\01 - Willie Love - Take It Easy Baby.wav

Pre-gap length 0:00:02.00

Peak level 94.2 %
Track quality 100.0 %
Test CRC 6D5F8CD1
Copy CRC 6D5F8CD1
Copy OK

Track 2
Filename D:\flac\Cool, Cool Blues, The Classic Sides (1951-54) - Disc C (Jackson, Houston, Memphis)\02 - Willie Love - Little Car Blues.wav

Pre-gap length 0:00:02.40

Peak level 94.2 %
Track quality 100.0 %
Test CRC E89D5002
Copy CRC E89D5002
Copy OK

Track 3
Filename D:\flac\Cool, Cool Blues, The Classic Sides (1951-54) - Disc C (Jackson, Houston, Memphis)\03 - Willie Love - Everybody's Fishing.wav

Pre-gap length 0:00:02.39

Peak level 77.6 %
Track quality 100.0 %
Test CRC 259DE665
Copy CRC 259DE665
Copy OK

Track 4
Filename D:\flac\Cool, Cool Blues, The Classic Sides (1951-54) - Disc C (Jackson, Houston, Memphis)\04 - Willie Love - My Own Boogie.wav

Pre-gap length 0:00:02.40

Peak level 94.2 %
Track quality 100.0 %
Test CRC B5B7E0A5
Copy CRC B5B7E0A5
Copy OK

Track 5
Filename D:\flac\Cool, Cool Blues, The Classic Sides (1951-54) - Disc C (Jackson, Houston, Memphis)\05 - Willie Love - Feed My Body To The Fishes.wav

Pre-gap length 0:00:02.30

Peak level 94.3 %
Track quality 100.0 %
Test CRC 5B8D46E6
Copy CRC 5B8D46E6
Copy OK

Track 6
Filename D:\flac\Cool, Cool Blues, The Classic Sides (1951-54) - Disc C (Jackson, Houston, Memphis)\06 - Willie Love - Falling Rain.wav

Pre-gap length 0:00:02.36

Peak level 94.2 %
Track quality 99.9 %
Test CRC 8C2E85DA
Copy CRC 8C2E85DA
Copy OK

Track 7
Filename D:\flac\Cool, Cool Blues, The Classic Sides (1951-54) - Disc C (Jackson, Houston, Memphis)\07 - Willie Love - Vanity Dresser Boogie.wav

Pre-gap length 0:00:02.31

Peak level 94.2 %
Track quality 100.0 %
Test CRC 20014E57
Copy CRC 20014E57
Copy OK

Track 8
Filename D:\flac\Cool, Cool Blues, The Classic Sides (1951-54) - Disc C (Jackson, Houston, Memphis)\08 - Willie Love - Seventy Four Blues.wav

Pre-gap length 0:00:02.38

Peak level 94.2 %
Track quality 100.0 %
Test CRC 14F573A9
Copy CRC 14F573A9
Copy OK

Track 9
Filename D:\flac\Cool, Cool Blues, The Classic Sides (1951-54) - Disc C (Jackson, Houston, Memphis)\09 - Willie Love - 21 Minutes To Nine.wav

Pre-gap length 0:00:02.35

Peak level 94.2 %
Track quality 99.9 %
Test CRC 8D742AA2
Copy CRC 8D742AA2
Copy OK

Track 10
Filename D:\flac\Cool, Cool Blues, The Classic Sides (1951-54) - Disc C (Jackson, Houston, Memphis)\10 - Willie Love - Shady Lane Blues.wav

Pre-gap length 0:00:02.27

Peak level 94.2 %
Track quality 100.0 %
Test CRC 1BD8A72C
Copy CRC 1BD8A72C
Copy OK

Track 11
Filename D:\flac\Cool, Cool Blues, The Classic Sides (1951-54) - Disc C (Jackson, Houston, Memphis)\11 - Willie Love - Nelson Street Blues.wav

Pre-gap length 0:00:02.37

Peak level 94.3 %
Track quality 100.0 %
Test CRC 1D27EFF5
Copy CRC 1D27EFF5
Copy OK

Track 12
Filename D:\flac\Cool, Cool Blues, The Classic Sides (1951-54) - Disc C (Jackson, Houston, Memphis)\12 - Willie Love - V-8 Ford.wav

Pre-gap length 0:00:02.34

Peak level 94.2 %
Track quality 99.9 %
Test CRC 2D2DFCFD
Copy CRC 2D2DFCFD
Copy OK

Track 13
Filename D:\flac\Cool, Cool Blues, The Classic Sides (1951-54) - Disc C (Jackson, Houston, Memphis)\13 - Willie Love - Shout Brother, Shout.wav

Pre-gap length 0:00:02.21

Peak level 94.2 %
Track quality 100.0 %
Test CRC 1E890A6E
Copy CRC 1E890A6E
Copy OK

Track 14
Filename D:\flac\Cool, Cool Blues, The Classic Sides (1951-54) - Disc C (Jackson, Houston, Memphis)\14 - Willie Love - Way Back.wav

Pre-gap length 0:00:02.36

Peak level 94.2 %
Track quality 99.9 %
Test CRC BEB2794A
Copy CRC BEB2794A
Copy OK

Track 15
Filename D:\flac\Cool, Cool Blues, The Classic Sides (1951-54) - Disc C (Jackson, Houston, Memphis)\15 - Sherman 'Blues' Johnson - Pretty Baby Blues.wav

Pre-gap length 0:00:02.37

Peak level 94.3 %
Track quality 100.0 %
Test CRC F89A7F11
Copy CRC F89A7F11
Copy OK

Track 16
Filename D:\flac\Cool, Cool Blues, The Classic Sides (1951-54) - Disc C (Jackson, Houston, Memphis)\16 - Sherman 'Blues' Johnson - Sugar Mama.wav

Pre-gap length 0:00:02.39

Peak level 94.2 %
Track quality 100.0 %
Test CRC 529C7CAB
Copy CRC 529C7CAB
Copy OK

Track 17
Filename D:\flac\Cool, Cool Blues, The Classic Sides (1951-54) - Disc C (Jackson, Houston, Memphis)\17 - Sherman 'Blues' Johnson - Hot Fish.wav

Pre-gap length 0:00:02.31

Peak level 94.2 %
Track quality 100.0 %
Test CRC C8F01674
Copy CRC C8F01674
Copy OK

Track 18
Filename D:\flac\Cool, Cool Blues, The Classic Sides (1951-54) - Disc C (Jackson, Houston, Memphis)\18 - Sherman 'Blues' Johnson - Lost In Korea.wav

Pre-gap length 0:00:02.35

Peak level 94.2 %
Track quality 100.0 %
Test CRC B47D7D83
Copy CRC B47D7D83
Copy OK

Track 19
Filename D:\flac\Cool, Cool Blues, The Classic Sides (1951-54) - Disc C (Jackson, Houston, Memphis)\19 - Tiny Kennedy - Early In The Morning Baby.wav

Pre-gap length 0:00:02.37

Peak level 94.2 %
Track quality 100.0 %
Test CRC 702783E3
Copy CRC 702783E3
Copy OK

Track 20
Filename D:\flac\Cool, Cool Blues, The Classic Sides (1951-54) - Disc C (Jackson, Houston, Memphis)\20 - Tiny Kennedy - Strange Kind Of Feeling.wav

Pre-gap length 0:00:02.31

Peak level 94.2 %
Track quality 99.9 %
Test CRC 0A2BC0F9
Copy CRC 0A2BC0F9
Copy OK

Track 21
Filename D:\flac\Cool, Cool Blues, The Classic Sides (1951-54) - Disc C (Jackson, Houston, Memphis)\21 - Tiny Kennedy - Blues Disease.wav

Pre-gap length 0:00:02.33

Peak level 94.2 %
Track quality 100.0 %
Test CRC 40EDF247
Copy CRC 40EDF247
Copy OK

Track 22
Filename D:\flac\Cool, Cool Blues, The Classic Sides (1951-54) - Disc C (Jackson, Houston, Memphis)\22 - Tiny Kennedy - Don't Lay This Job On Me.wav

Pre-gap length 0:00:02.28

Peak level 92.8 %
Track quality 100.0 %
Test CRC F6FC34BF
Copy CRC F6FC34BF
Copy OK

Track 23
Filename D:\flac\Cool, Cool Blues, The Classic Sides (1951-54) - Disc C (Jackson, Houston, Memphis)\23 - Tiny Kennedy - Have You Heard About The Farmer's Daughter.wav

Pre-gap length 0:00:02.26

Peak level 94.2 %
Track quality 100.0 %
Test CRC 7AB90C73
Copy CRC 7AB90C73
Copy OK

Track 24
Filename D:\flac\Cool, Cool Blues, The Classic Sides (1951-54) - Disc C (Jackson, Houston, Memphis)\24 - Wally Mercer - Too Old To Get Married.wav

Pre-gap length 0:00:02.25

Peak level 94.2 %
Track quality 100.0 %
Test CRC E989E832
Copy CRC E989E832
Copy OK

Track 25
Filename D:\flac\Cool, Cool Blues, The Classic Sides (1951-54) - Disc C (Jackson, Houston, Memphis)\25 - Wally Mercer - If You Don't Mean Business.wav

Pre-gap length 0:00:02.36

Peak level 94.2 %
Track quality 100.0 %
Test CRC F527AD66
Copy CRC F527AD66
Copy OK

Track 26
Filename D:\flac\Cool, Cool Blues, The Classic Sides (1951-54) - Disc C (Jackson, Houston, Memphis)\26 - Wally Mercer - Hey, Miss Lula.wav

Pre-gap length 0:00:02.42

Peak level 93.9 %
Track quality 100.0 %
Test CRC C6AA992C
Copy CRC C6AA992C
Copy OK

No errors occured


End of status report


[CUETools log; Date: 07.02.2018 5:41:07; Version: 2.1.5]
[AccurateRip ID: 004328b0-04e56835-8610cb1a] found.
Track [ CRC | V2 ] Status
01 [b67747b9|cbf5c0ed] (03+06/11) Accurately ripped
02 [8b632c09|bd44b09a] (03+06/12) Accurately ripped
03 [9df04387|868f82c0] (03+06/12) Accurately ripped
04 [963157f1|9d1c8d70] (03+06/12) Accurately ripped
05 [c7ab104c|c493b129] (03+06/12) Accurately ripped
06 [1617b4f5|e8e3ae02] (03+06/12) Accurately ripped
07 [0b30105e|73ca7aa8] (03+06/12) Accurately ripped
08 [df496f65|f59e3d2c] (03+06/12) Accurately ripped
09 [4cf0c431|368cd647] (03+06/12) Accurately ripped
10 [9a17beb6|28995d3f] (03+06/12) Accurately ripped
11 [ce55035f|5bb6f2b0] (03+06/12) Accurately ripped
12 [b27c9096|cbee651d] (03+06/12) Accurately ripped
13 [c40e5fae|e1a381e1] (03+06/12) Accurately ripped
14 [bbecfe7a|b0c7af0e] (03+06/12) Accurately ripped
15 [aac5a8cc|a793643e] (03+06/12) Accurately ripped
16 [15dd095b|8da469d8] (03+06/12) Accurately ripped
17 [5960414d|6423b3de] (03+06/12) Accurately ripped
18 [2df332ad|83d34801] (03+06/12) Accurately ripped
19 [6cbbf453|dcd552bf] (03+06/12) Accurately ripped
20 [94b18523|37e687a3] (03+06/12) Accurately ripped
21 [27685849|79cc6883] (03+06/12) Accurately ripped
22 [b2509562|b911388e] (03+06/12) Accurately ripped
23 [24d36583|ad589ec3] (03+06/12) Accurately ripped
24 [ba804774|7ed4282e] (03+06/12) Accurately ripped
25 [d546619f|95a6963a] (03+06/12) Accurately ripped
26 [b99fae20|a79fa217] (03+06/12) Accurately ripped
Offsetted by -6:
01 [8938ae73] (00/11) No match (V2 was not tested)
02 [62c4674f] (00/12) No match (V2 was not tested)
03 [4c7d07fb] (00/12) No match (V2 was not tested)
04 [1d3a27cd] (00/12) No match (V2 was not tested)
05 [7b6380be] (00/12) No match (V2 was not tested)
06 [96fa8f19] (00/12) No match (V2 was not tested)
07 [8108e57a] (00/12) No match (V2 was not tested)
08 [9bf9b7b9] (00/12) No match (V2 was not tested)
09 [eaa0bc07] (00/12) No match (V2 was not tested)
10 [c44f35fe] (00/12) No match (V2 was not tested)
11 [8aa3a6db] (00/12) No match (V2 was not tested)
12 [8cfec9ca] (00/12) No match (V2 was not tested)
13 [ffd3a8da] (00/12) No match (V2 was not tested)
14 [3d9b2d0c] (00/12) No match (V2 was not tested)
15 [59e8f97a] (00/12) No match (V2 was not tested)
16 [9e6697b5] (00/12) No match (V2 was not tested)
17 [3a21fa79] (00/12) No match (V2 was not tested)
18 [65e100db] (00/12) No match (V2 was not tested)
19 [1af783db] (00/12) No match (V2 was not tested)
20 [674065ff] (00/12) No match (V2 was not tested)
21 [a7171109] (00/12) No match (V2 was not tested)
22 [0235d3ce] (00/12) No match (V2 was not tested)
23 [134764ad] (00/12) No match (V2 was not tested)
24 [a9e542fe] (00/12) No match (V2 was not tested)
25 [8f741bd1] (00/12) No match (V2 was not tested)
26 [af7657d2] (00/12) No match (V2 was not tested)

Track Peak [ CRC32 ] [W/O NULL] [ LOG ]
– 94,3 [9A0A4AF8] [66A86C28]
01 94,2 [6D5F8CD1] [0FE8E504] CRC32
02 94,2 [E89D5002] [437E466B] CRC32
03 77,6 [259DE665] [F02586B4] CRC32
04 94,2 [B5B7E0A5] [8D178907] CRC32
05 94,3 [5B8D46E6] [0563C32C] CRC32
06 94,2 [8C2E85DA] [2A039270] CRC32
07 94,2 [20014E57] [94456274] CRC32
08 94,2 [14F573A9] [619063CC] CRC32
09 94,2 [8D742AA2] [91DF0CCE] CRC32
10 94,2 [1BD8A72C] [5CD1FAE2] CRC32
11 94,3 [1D27EFF5] [150C217D] CRC32
12 94,2 [2D2DFCFD] [FE570F3F] CRC32
13 94,2 [1E890A6E] [6E12A1A5] CRC32
14 94,2 [BEB2794A] [FA449CA4] CRC32
15 94,3 [F89A7F11] [35DF1AA8] CRC32
16 94,2 [529C7CAB] [ED31A67C] CRC32
17 94,2 [C8F01674] [B147687D] CRC32
18 94,2 [B47D7D83] [4798F0DD] CRC32
19 94,2 [702783E3] [4A0015E7] CRC32
20 94,2 [0A2BC0F9] [A3A6707B] CRC32
21 94,2 [40EDF247] [BE4524AE] CRC32
22 92,8 [F6FC34BF] [9B0D4498] CRC32
23 94,2 [7AB90C73] [929CBCD6] CRC32
24 94,2 [E989E832] [643052FC] CRC32
25 94,2 [F527AD66] [4D3627B5] CRC32
26 93,9 [C6AA992C] [FAD16BE2] CRC32


Ensemble Wien-Berlin - 20th Century Wind Quintets (1991)

Tracklist CD4:

01. Sonny Boy Williamson - She's Crazy (Take 1) (2:49)
02. Sonny Boy Williamson - 309 (2:44)
03. Sonny Boy Williamson - Sonny's Rhythm (Take 1) (2:20)
04. Sonny Boy Williamson - City Of New Orleans (2:30)
05. Sonny Boy Williamson - Keep It To Yourself (Take 1) (3:14)
06. Sonny Boy Williamson - Going In Your Direction (Take 4) (1:50)
07. Sonny Boy Williamson - Clowning With The World (Take 1) (2:44)
08. Sonny Boy Williamson - I Ain't Beggin' Nobody (Take 2) (2:45)
09. Sonny Boy Williamson - Shuckin' Mama (2:23)
10. Sonny Boy Williamson - From The Bottom (Take 1) (2:46)
11. Sonny Boy Williamson - She's Crazy (Take 2) (2:52)
12. Sonny Boy Williamson - Sonny's Rhythm (Take 2) (2:24)
13. Sonny Boy Williamson - Keep It To Yourself (Take 2) (2:35)
14. Sonny Boy Williamson - Going In You Direction (Take 5) (2:39)
15. Sonny Boy Williamson - From The Bottom (Take 3) (2:42)
16. Sonny Boy Williamson - I Ain't Beggin' Nobody (Take 3) (2:46)
17. Sonny Boy Williamson - From The Bottom (Take 6) (2:43)
18. Arthur 'Big Boy' Crudup - Gotta Find My Baby (Alt. Take) (3:14)
19. Arthur 'Big Boy' Crudup - Gotta Find My Baby (Alt. Take) (2:44)
20. Willie Love - Worried Blues (Alt. Take) (3:04)
21. Willie Love - Lonesome World Blues (2:29)
22. Willie Love - Wonderful Baby (2:44)
23. Willie Love - Wille Mae (2:48)
24. Willie Love - Worried Blues (Take 2) (2:54)
25. Willie Love - Shout Brother, Shout (Alt. Take) (2:35)
26. Willie Love - Willie Mae (Alt. Take) (2:47)

EAC extraction logfile from 5. July 2009, 13:50 for CD
Various Artists / Cool, Cool Blues, The Classic Sides (1951-54) - Disc D (Jackson, Houston)

Used drive : Optiarc DVD RW AD-7590A Adapter: 3 ID: 0
Read mode : Secure with NO C2, accurate stream, disable cache
Read offset correction : 48
Overread into Lead-In and Lead-Out : No

Used output format : C:\Program Files\Exact Audio Copy\Flac\flac.exe (User Defined Encoder)
192 kBit/s
Additional command line options : -8 -A tukey(0.25) -A gauss(0.1875) -b 4096 -V -T "artist=%a" -T "title=%t" -T "album=%g" -T "date=%y" -T "tracknumber=%n" -T "genre=%m" %s –sector-align

Other options :
Fill up missing offset samples with silence : Yes
Delete leading and trailing silent blocks : No
Native Win32 interface for Win NT & 2000


Track 1
Filename D:\flac\Cool, Cool Blues, The Classic Sides (1951-54) - Disc D (Jackson, Houston)\01 - Sonny Boy Williamson - She's Crazy (Take 1).wav

Pre-gap length 0:00:02.00

Peak level 94.2 %
Track quality 100.0 %
Test CRC A5678229
Copy CRC A5678229
Copy OK

Track 2
Filename D:\flac\Cool, Cool Blues, The Classic Sides (1951-54) - Disc D (Jackson, Houston)\02 - Sonny Boy Williamson - 309.wav

Pre-gap length 0:00:02.17

Peak level 94.2 %
Track quality 100.0 %
Test CRC 5FAB4374
Copy CRC 5FAB4374
Copy OK

Track 3
Filename D:\flac\Cool, Cool Blues, The Classic Sides (1951-54) - Disc D (Jackson, Houston)\03 - Sonny Boy Williamson - Sonny's Rhythm (Take 1).wav

Pre-gap length 0:00:02.32

Peak level 84.0 %
Track quality 99.9 %
Test CRC 1632BB0F
Copy CRC 1632BB0F
Copy OK

Track 4
Filename D:\flac\Cool, Cool Blues, The Classic Sides (1951-54) - Disc D (Jackson, Houston)\04 - Sonny Boy Williamson - City Of New Orleans.wav

Pre-gap length 0:00:02.32

Peak level 94.2 %
Track quality 99.9 %
Test CRC 7608AA09
Copy CRC 7608AA09
Copy OK

Track 5
Filename D:\flac\Cool, Cool Blues, The Classic Sides (1951-54) - Disc D (Jackson, Houston)\05 - Sonny Boy Williamson - Keep It To Yourself (Take 1).wav

Pre-gap length 0:00:02.30

Peak level 94.2 %
Track quality 100.0 %
Test CRC 5E49C727
Copy CRC 5E49C727
Copy OK

Track 6
Filename D:\flac\Cool, Cool Blues, The Classic Sides (1951-54) - Disc D (Jackson, Houston)\06 - Sonny Boy Williamson - Going In Your Direction (Take 4).wav

Pre-gap length 0:00:02.23

Peak level 94.2 %
Track quality 99.9 %
Test CRC 824EECCC
Copy CRC 824EECCC
Copy OK

Track 7
Filename D:\flac\Cool, Cool Blues, The Classic Sides (1951-54) - Disc D (Jackson, Houston)\07 - Sonny Boy Williamson - Clowning With The World (Take 1).wav

Pre-gap length 0:00:02.30

Peak level 84.0 %
Track quality 99.9 %
Test CRC 37AD6C42
Copy CRC 37AD6C42
Copy OK

Track 8
Filename D:\flac\Cool, Cool Blues, The Classic Sides (1951-54) - Disc D (Jackson, Houston)\08 - Sonny Boy Williamson - I Ain't Beggin' Nobody (Take 2).wav

Pre-gap length 0:00:02.34

Peak level 94.2 %
Track quality 99.9 %
Test CRC 5C882C6D
Copy CRC 5C882C6D
Copy OK

Track 9
Filename D:\flac\Cool, Cool Blues, The Classic Sides (1951-54) - Disc D (Jackson, Houston)\09 - Sonny Boy Williamson - Shuckin' Mama.wav

Pre-gap length 0:00:02.30

Peak level 84.0 %
Track quality 100.0 %
Test CRC E33CC4D0
Copy CRC E33CC4D0
Copy OK

Track 10
Filename D:\flac\Cool, Cool Blues, The Classic Sides (1951-54) - Disc D (Jackson, Houston)\10 - Sonny Boy Williamson - From The Bottom (Take 1).wav

Pre-gap length 0:00:02.33

Peak level 94.2 %
Track quality 100.0 %
Test CRC AE457E0F
Copy CRC AE457E0F
Copy OK

Track 11
Filename D:\flac\Cool, Cool Blues, The Classic Sides (1951-54) - Disc D (Jackson, Houston)\11 - Sonny Boy Williamson - She's Crazy (Take 2).wav

Pre-gap length 0:00:02.33

Peak level 94.3 %
Track quality 99.9 %
Test CRC 46A522AB
Copy CRC 46A522AB
Copy OK

Track 12
Filename D:\flac\Cool, Cool Blues, The Classic Sides (1951-54) - Disc D (Jackson, Houston)\12 - Sonny Boy Williamson - Sonny's Rhythm (Take 2).wav

Pre-gap length 0:00:02.25

Peak level 94.3 %
Track quality 100.0 %
Test CRC 75B3C292
Copy CRC 75B3C292
Copy OK

Track 13
Filename D:\flac\Cool, Cool Blues, The Classic Sides (1951-54) - Disc D (Jackson, Houston)\13 - Sonny Boy Williamson - Keep It To Yourself (Take 2).wav

Pre-gap length 0:00:02.33

Peak level 94.2 %
Track quality 100.0 %
Test CRC AD8E1BB2
Copy CRC AD8E1BB2
Copy OK

Track 14
Filename D:\flac\Cool, Cool Blues, The Classic Sides (1951-54) - Disc D (Jackson, Houston)\14 - Sonny Boy Williamson - Going In You Direction (Take 5).wav

Pre-gap length 0:00:02.25

Peak level 94.2 %
Track quality 100.0 %
Test CRC 2E9C98AC
Copy CRC 2E9C98AC
Copy OK

Track 15
Filename D:\flac\Cool, Cool Blues, The Classic Sides (1951-54) - Disc D (Jackson, Houston)\15 - Sonny Boy Williamson - From The Bottom (Take 3).wav

Pre-gap length 0:00:02.35

Peak level 94.2 %
Track quality 100.0 %
Test CRC AD8878B4
Copy CRC AD8878B4
Copy OK

Track 16
Filename D:\flac\Cool, Cool Blues, The Classic Sides (1951-54) - Disc D (Jackson, Houston)\16 - Sonny Boy Williamson - I Ain't Beggin' Nobody (Take 3).wav

Pre-gap length 0:00:02.35

Peak level 84.0 %
Track quality 100.0 %
Test CRC D535B955
Copy CRC D535B955
Copy OK

Track 17
Filename D:\flac\Cool, Cool Blues, The Classic Sides (1951-54) - Disc D (Jackson, Houston)\17 - Sonny Boy Williamson - From The Bottom (Take 6).wav

Pre-gap length 0:00:02.33

Peak level 89.0 %
Track quality 100.0 %
Test CRC A11113B1
Copy CRC A11113B1
Copy OK

Track 18
Filename D:\flac\Cool, Cool Blues, The Classic Sides (1951-54) - Disc D (Jackson, Houston)\18 - Arthur 'Big Boy' Crudup - Gotta Find My Baby (Alt. Take).wav

Pre-gap length 0:00:02.32

Peak level 89.0 %
Track quality 99.9 %
Test CRC D0F8C836
Copy CRC D0F8C836
Copy OK

Track 19
Filename D:\flac\Cool, Cool Blues, The Classic Sides (1951-54) - Disc D (Jackson, Houston)\19 - Arthur 'Big Boy' Crudup - Gotta Find My Baby (Alt. Take).wav

Pre-gap length 0:00:02.23

Peak level 84.0 %
Track quality 100.0 %
Test CRC 3D01AD1B
Copy CRC 3D01AD1B
Copy OK

Track 20
Filename D:\flac\Cool, Cool Blues, The Classic Sides (1951-54) - Disc D (Jackson, Houston)\20 - Willie Love - Worried Blues (Alt. Take).wav

Pre-gap length 0:00:02.30

Peak level 94.2 %
Track quality 100.0 %
Test CRC 815925AC
Copy CRC 815925AC
Copy OK

Track 21
Filename D:\flac\Cool, Cool Blues, The Classic Sides (1951-54) - Disc D (Jackson, Houston)\21 - Willie Love - Lonesome World Blues.wav

Pre-gap length 0:00:02.28

Peak level 94.2 %
Track quality 100.0 %
Test CRC C118ED4C
Copy CRC C118ED4C
Copy OK

Track 22
Filename D:\flac\Cool, Cool Blues, The Classic Sides (1951-54) - Disc D (Jackson, Houston)\22 - Willie Love - Wonderful Baby.wav

Pre-gap length 0:00:02.28

Peak level 94.2 %
Track quality 99.9 %
Test CRC B7BA1E99
Copy CRC B7BA1E99
Copy OK

Track 23
Filename D:\flac\Cool, Cool Blues, The Classic Sides (1951-54) - Disc D (Jackson, Houston)\23 - Willie Love - Wille Mae.wav

Pre-gap length 0:00:02.29

Peak level 89.0 %
Track quality 99.9 %
Test CRC F4A48D9D
Copy CRC F4A48D9D
Copy OK

Track 24
Filename D:\flac\Cool, Cool Blues, The Classic Sides (1951-54) - Disc D (Jackson, Houston)\24 - Willie Love - Worried Blues (Take 2).wav

Pre-gap length 0:00:02.23

Peak level 94.2 %
Track quality 100.0 %
Test CRC 5CC2BD0F
Copy CRC 5CC2BD0F
Copy OK

Track 25
Filename D:\flac\Cool, Cool Blues, The Classic Sides (1951-54) - Disc D (Jackson, Houston)\25 - Willie Love - Shout Brother, Shout (Alt. Take).wav

Pre-gap length 0:00:02.28

Peak level 94.2 %
Track quality 99.9 %
Test CRC 98151CBF
Copy CRC 98151CBF
Copy OK

Track 26
Filename D:\flac\Cool, Cool Blues, The Classic Sides (1951-54) - Disc D (Jackson, Houston)\26 - Willie Love - Willie Mae (Alt. Take).wav

Pre-gap length 0:00:02.26

Peak level 94.2 %
Track quality 100.0 %
Test CRC E0647829
Copy CRC E0647829
Copy OK

No errors occured


End of status report


[CUETools log; Date: 07.02.2018 5:46:13; Version: 2.1.5]
[AccurateRip ID: 00400430-04af0f49-95106a1a] found.
Track [ CRC | V2 ] Status
01 [7d1c1282|d33b1c2f] (03+06/11) Accurately ripped
02 [5aa1671e|1eabe51a] (03+06/12) Accurately ripped
03 [37fc1f24|285fc7c4] (03+06/12) Accurately ripped
04 [c2352f7d|7e0e0836] (03+06/12) Accurately ripped
05 [d970c329|c04488e7] (03+06/12) Accurately ripped
06 [45bf134e|57af68f2] (03+06/12) Accurately ripped
07 [61976dc1|ecccc919] (03+06/12) Accurately ripped
08 [b787baa0|a73b08ce] (03+06/12) Accurately ripped
09 [656394d3|1505fb49] (03+06/12) Accurately ripped
10 [fa529371|00a038f0] (03+06/12) Accurately ripped
11 [1a6cc7e0|f643fdbd] (03+06/12) Accurately ripped
12 [80f7a730|5ddbc52a] (03+06/12) Accurately ripped
13 [b0586ac4|bc3895e9] (03+06/12) Accurately ripped
14 [284641b2|515de261] (03+06/12) Accurately ripped
15 [7b5d24c9|aef318cc] (03+06/12) Accurately ripped
16 [f39603a1|aa88e09f] (03+06/12) Accurately ripped
17 [3763a2f4|25e04ab6] (03+06/12) Accurately ripped
18 [09c1e571|1e27e270] (03+06/12) Accurately ripped
19 [f59cc6d3|25d3b5e5] (03+06/12) Accurately ripped
20 [0a50c1dc|ebf5ec95] (03+06/12) Accurately ripped
21 [eed05d95|b7755fa6] (03+06/12) Accurately ripped
22 [0cc8d8ca|35aef2d7] (03+06/12) Accurately ripped
23 [b3bdf2b9|5016c8d2] (03+05/11) Accurately ripped
24 [245d87ba|3b9eaa75] (03+05/11) Accurately ripped
25 [69bef10b|143cba4b] (03+05/11) Accurately ripped
26 [22d50eb7|45caf21c] (03+06/12) Accurately ripped
Offsetted by -6:
01 [2a76d53e] (00/11) No match (V2 was not tested)
02 [096b906c] (00/12) No match (V2 was not tested)
03 [9fc70746] (00/12) No match (V2 was not tested)
04 [9428d6a9] (00/12) No match (V2 was not tested)
05 [2577c78d] (00/12) No match (V2 was not tested)
06 [136f6052] (00/12) No match (V2 was not tested)
07 [e51a2fa7] (00/12) No match (V2 was not tested)
08 [a6abebba] (00/12) No match (V2 was not tested)
09 [6a759a71] (00/12) No match (V2 was not tested)
10 [6d532b0b] (00/12) No match (V2 was not tested)
11 [5892d6f0] (00/12) No match (V2 was not tested)
12 [f1181122] (00/12) No match (V2 was not tested)
13 [994f31a8] (00/12) No match (V2 was not tested)
14 [efd7fcd0] (00/12) No match (V2 was not tested)
15 [8d3134e5] (00/12) No match (V2 was not tested)
16 [d65867c1] (00/12) No match (V2 was not tested)
17 [98fd337a] (00/12) No match (V2 was not tested)
18 [c422ae1d] (00/12) No match (V2 was not tested)
19 [07d55be5] (00/12) No match (V2 was not tested)
20 [0804b708] (00/12) No match (V2 was not tested)
21 [e0966adf] (00/12) No match (V2 was not tested)
22 [fe544c64] (00/12) No match (V2 was not tested)
23 [afaf0e11] (00/11) No match (V2 was not tested)
24 [bfb4b808] (00/11) No match (V2 was not tested)
25 [d1228879] (00/11) No match (V2 was not tested)
26 [07691c2b] (00/12) No match (V2 was not tested)

Track Peak [ CRC32 ] [W/O NULL] [ LOG ]
– 94,3 [355DECF9] [B7239DFF]
01 94,2 [A5678229] [973A2170] CRC32
02 94,2 [5FAB4374] [6846C5F7] CRC32
03 84,0 [1632BB0F] [C0B06AF0] CRC32
04 94,2 [7608AA09] [3592D1DE] CRC32
05 94,2 [5E49C727] [4A78B776] CRC32
06 94,2 [824EECCC] [C70F8070] CRC32
07 84,0 [37AD6C42] [1979B10E] CRC32
08 94,2 [5C882C6D] [BF3E25AE] CRC32
09 84,0 [E33CC4D0] [6C1EECD3] CRC32
10 94,2 [AE457E0F] [5883FB1A] CRC32
11 94,3 [46A522AB] [2906E682] CRC32
12 94,3 [75B3C292] [55402813] CRC32
13 94,2 [AD8E1BB2] [3FC5342E] CRC32
14 94,2 [2E9C98AC] [F9519B26] CRC32
15 94,2 [AD8878B4] [76A1BD7B] CRC32
16 84,0 [D535B955] [E6A0AA4E] CRC32
17 89,0 [A11113B1] [0594946C] CRC32
18 89,0 [D0F8C836] [D4AF0A75] CRC32
19 84,0 [3D01AD1B] [2165501F] CRC32
20 94,2 [815925AC] [EA311448] CRC32
21 94,2 [C118ED4C] [17350E6F] CRC32
22 94,2 [B7BA1E99] [50107E64] CRC32
23 89,0 [F4A48D9D] [86701234] CRC32
24 94,2 [5CC2BD0F] [2D6490F7] CRC32
25 94,2 [98151CBF] [A64BB6B4] CRC32
26 94,2 [E0647829] [B65B41CB] CRC32


Ensemble Wien-Berlin - 20th Century Wind Quintets (1991)

All thanks go to the original releaser

Download Sonny Boy Williamson - Cool Cool Blues: The Classic Sides 1951-1954 (2006):