Sonorhc - Purf (1972)/Outrelande (1973–82) [2014] + Portes d'Orient (1984)/Amazonia (1985) [2015] ("2 in 1" editions)

Posted By: popsakov
Sonorhc - Purf (1972)/Outrelande (1973–82) [2014] + Portes d'Orient (1984)/Amazonia (1985) [2015] ("2 in 1" editions)

Sonorhc - Purf (1972) / Outrelande (1973–82) [2014] + Portes d'Orient (1984) / Amazonia (1985) [2015]
2 CD | EAC Rip | FLAC (Img) + Cue + Log ~ 686 Mb | MP3 CBR320 ~ 358 Mb
Scans (JPG, 600 dpi) ~ 156 Mb | RAR 5% Recovery
Progressive Rock, Avant-Prog, Experimental | Fractal Records #820, 840

Experimental ethnic fusion outfit based around the duo of Jean-François Gaël, Pierre Buffenoir, initially with Arcane V members: Philippe Gumplowicz and Youval Micenmacher, and others. Sonorhc (Chronos backwards) played a wide-ranging mixture of styles, covering all sorts of ancient and modern cultural elements, medieval, baroque, oriental, you name it, they mixed and matched, fused and collided, making unusual and original concoctions, resulting in three very different albums, and also Jean-François Gaël et Pierre Buffenoir - Portes D'Orient which was essentially Sonorhc although it didn't bear their name.
~ Discogs

***************

Sonorhc - Purf (1972)/Outrelande (1973–82) [2014] + Portes d'Orient (1984)/Amazonia (1985) [2015] ("2 in 1" editions)

Sonorhc - Purf (1972) / Outrelande (1973–82) [2014]
EAC Rip | FLAC (Img) + Cue + Log ~ 398 Mb | MP3 CBR320 ~ 179 Mb
Scans (JPG, 600 dpi) ~ 66 Mb | RAR 5% Recovery
Progressive Rock, Avant-Prog, Experimental | Fractal Records #820

Early 70’s, a group of musicians around Jean-François Gaël, André Chini, Philippe Gumplowicz, Pierre Buffenoir and Youval Micenmacher formed Sonorhc in 1971 near Paris. This discreet band had released only three albums in twenty years : « Purf » (LP-1972), « Outrelande » (LP-1982) et « K’an » (CD-1991). 2014, Fractal Records propose today the first official reissue of the two first albums in a beautiful remastered edition after more than forty and thirty years respectively (!) ; two rare albums, difficult to find and much sought after by collectors.
The musical world of Sonorhc is oriented to collective improvisation and the research of tones ; they create a sound full of invention, rich technically, made by many differents instruments which incorporated judiciously elements from the rock music, free-jazz, acid-psych, concrete, ethnic and experimental making them as one of the most atypical French Underground group, and seems somewhere more closer to the German “krautrock” bands like Between, Agitation Free, Deuter, Limbus 3, Dzyan or the UK group Third Ear Band. But as the most well-known French band Magma, Sonorhc owns their original and strange logo and shows a strong collective : Jean-François Gaël studied musical composition with Michel Puig, guitar with Roger Chaput, electro-acoustic music with Pierre Schaefer at the GRM, and had composed many movie soundtracks later. Pierre Buffenoir taught guitar at the Conservatoire d’Ivry. André Chini is composer of contemporary music in Sweden. Philippe Gumplowicz is a music teacher at the University of Evry and with the percussionist Youval Micenmacher had recorded the 1978’s album “Marron Dingue” with the band Arcane V (see the Nurse With Wound list).
The present edition “2 albums in 1” includes the first “Purf”, a pure jewel of the genre and this one, for example, could had been easily one of the landmark album of the legendary 70’s Futura Records “son” or “impro” series and “Purf” well worth alone the purchase of this disc (!!), plus the second “Outrelande” a compilation of tracks recorded from 1973 to 1982, and with for both their original cover.
To summarize these 74 minutes with Sonorhc, just 3 words as the American blog “Mutant Sounds” has wrote : “A Total Mindbomb”.
THIS IS A « MUST » HAVE ! CD limited edition 300 copies.

Jean-François Gaël : Guitare électrique, Basse, Flûte.
Pierre Buffenoir : Guitare électrique, Basse.
Philippe Gumplowicz : Guitare électrique, Guitare sèche, Trompette.
André Chini : Hautbois, Flûte.
Youval Micenmacher : Percussions.

- Album « Purf » : Remastered by Alexis Frenkel at Art & Son Studio, Paris July 2013.
- Album « Outrelande » : Remastered by Jean-François Gaël.
~ fractal-records.com
***************

Sonorhc - Purf (1972)/Outrelande (1973–82) [2014] + Portes d'Orient (1984)/Amazonia (1985) [2015] ("2 in 1" editions)

Track List:

01. « Purf » (1972) | Plaine du Tal [05:18]
02. « Purf » (1972) | Sept Éléments pour Sonorhc — A [03:14]
03. « Purf » (1972) | Sept Éléments pour Sonorhc — B, C, D [03:06]
04. « Purf » (1972) | Sept Éléments pour Sonorhc — E [02:37]
05. « Purf » (1972) | Sept Éléments pour Sonorhc — F, G [03:24]
06. « Purf » (1972) | Bruage [05:00]
07. « Purf » (1972) | Saga Bolaska [05:40]
08. « Purf » (1972) | Une Rue sur la Planète Purf (improvisation collective) [06:01]
09. « Outrelande » (1973–82) | Gouzouland [02:34]
10. « Outrelande » (1973–82) | Danse du Tal [01:23]
11. « Outrelande » (1973–82) | Marche des Éléphants [03:42]
12. « Outrelande » (1973–82) | Danse de la Pierre [02:15]
13. « Outrelande » (1973–82) | Danse des Chiens [02:51]
14. « Outrelande » (1973–82) | Voyage des Bergers [02:33]
15. « Outrelande » (1973–82) | Berceuse d’Outrelande [01:45]
16. « Outrelande » (1973–82) | Berceuse de l’Eau [03:07]
17. « Outrelande » (1973–82) | Shaï [07:31]
18. « Outrelande » (1973–82) | La Reine des Sables [03:41]
19. « Outrelande » (1973–82) | Hulud [07:03]
20. « Outrelande » (1973–82) | Pachaski le Chasseur [01:58]

Exact Audio Copy V1.0 beta 3 from 29. August 2011

Отчёт EAC об извлечении, выполненном 18. апреля 2014, 15:53

SONORHC / Purf ('72) / Outrelande ('73-'82)

Дисковод: TSSTcorpCDDVDW SH-224DB Adapter: 4 ID: 1

Режим чтения : Достоверность
Использование точного потока : Да
Отключение кэша аудио : Да
Использование указателей C2 : Нет

Коррекция смещения при чтении : 6
Способность читать области Lead-in и Lead-out : Нет
Заполнение пропущенных сэмплов тишиной : Да
Удаление блоков с тишиной в начале и конце : Нет
При вычислениях CRC использовались нулевые сэмплы : Да
Интерфейс : Встроенный Win32-интерфейс для Win NT/2000

Выходной формат : Внутренние WAV-операции
Формат сэмплов : 44.100 Гц; 16 бит; стерео


TOC извлечённого CD

Трек | Старт | Длительность | Начальный сектор | Конечный сектор
––––––––––––––––––––––––––––––––––-
1 | 0:00.00 | 5:17.15 | 0 | 23789
2 | 5:17.15 | 3:13.08 | 23790 | 38272
3 | 8:30.23 | 3:05.13 | 38273 | 52160
4 | 11:35.36 | 2:36.27 | 52161 | 63887
5 | 14:11.63 | 3:23.31 | 63888 | 79143
6 | 17:35.19 | 4:59.18 | 79144 | 101586
7 | 22:34.37 | 5:39.64 | 101587 | 127075
8 | 28:14.26 | 6:00.17 | 127076 | 154092
9 | 34:14.43 | 2:33.41 | 154093 | 165608
10 | 36:48.09 | 1:22.64 | 165609 | 171822
11 | 38:10.73 | 3:41.24 | 171823 | 188421
12 | 41:52.22 | 2:14.36 | 188422 | 198507
13 | 44:06.58 | 2:50.74 | 198508 | 211331
14 | 46:57.57 | 2:32.57 | 211332 | 222788
15 | 49:30.39 | 1:44.35 | 222789 | 230623
16 | 51:14.74 | 3:06.36 | 230624 | 244609
17 | 54:21.35 | 7:30.28 | 244610 | 278387
18 | 61:51.63 | 3:40.65 | 278388 | 294952
19 | 65:32.53 | 7:02.16 | 294953 | 326618
20 | 72:34.69 | 1:57.53 | 326619 | 335446


Характеристики диапазона извлечения и сообщения об ошибках

Выбранный диапазон

Имя файла D:\TEMP\SONORHC - 2014 - Purf ('72) & Outrelande ('73-'82).wav

Пиковый уровень 99.1 %
Скорость извлечения 8.4 X
Качество диапазона 100.0 %
CRC теста F3F4C7FC
CRC копии F3F4C7FC
Копирование… OK

Ошибок не произошло


AccurateRip: сводка

Трек 1 отсутствует в базе данных
Трек 2 отсутствует в базе данных
Трек 3 отсутствует в базе данных
Трек 4 отсутствует в базе данных
Трек 5 отсутствует в базе данных
Трек 6 отсутствует в базе данных
Трек 7 отсутствует в базе данных
Трек 8 отсутствует в базе данных
Трек 9 отсутствует в базе данных
Трек 10 отсутствует в базе данных
Трек 11 отсутствует в базе данных
Трек 12 отсутствует в базе данных
Трек 13 отсутствует в базе данных
Трек 14 отсутствует в базе данных
Трек 15 отсутствует в базе данных
Трек 16 отсутствует в базе данных
Трек 17 отсутствует в базе данных
Трек 18 отсутствует в базе данных
Трек 19 отсутствует в базе данных
Трек 20 отсутствует в базе данных

Ни одного трека нет в базе AccurateRip

Конец отчёта

==== Контрольная сумма отчёта B1B7E00495F1743733B5B062A7CDF0CD01AAA7FAA087FFA14AE1E7330217410C ====

foobar2000 1.2.6 / Dynamic Range Meter 1.1.1
log date: 2015-05-19 09:26:46

––––––––––––––––––––––––––––––––––––––––
Analyzed: SONORHC / Purf / Outrelande
––––––––––––––––––––––––––––––––––––––––

DR Peak RMS Duration Track
––––––––––––––––––––––––––––––––––––––––
DR11 -0.12 dB -13.16 dB 5:17 01-« Purf » (1972) | Plaine du Tal
DR13 -5.19 dB -24.82 dB 3:13 02-« Purf » (1972) | Sept Éléments pour Sonorhc — A
DR13 -3.24 dB -22.64 dB 3:05 03-« Purf » (1972) | Sept Éléments pour Sonorhc — B, C, D
DR13 -1.61 dB -17.43 dB 2:36 04-« Purf » (1972) | Sept Éléments pour Sonorhc — E
DR13 -0.13 dB -20.04 dB 3:23 05-« Purf » (1972) | Sept Éléments pour Sonorhc — F, G
DR12 -1.61 dB -18.36 dB 4:59 06-« Purf » (1972) | Bruage
DR12 -2.67 dB -18.65 dB 5:40 07-« Purf » (1972) | Saga Bolaska
DR13 -0.46 dB -19.00 dB 6:00 08-« Purf » (1972) | Une Rue sur la Planète Purf (improvisation collective)
DR12 -2.25 dB -19.91 dB 2:34 09-« Outrelande » (1973–82) | Gouzouland
DR11 -2.19 dB -16.07 dB 1:23 10-« Outrelande » (1973–82) | Danse du Tal
DR14 -1.95 dB -18.83 dB 3:41 11-« Outrelande » (1973–82) | Marche des Éléphants
DR13 -0.40 dB -18.38 dB 2:14 12-« Outrelande » (1973–82) | Danse de la Pierre
DR14 -2.87 dB -19.38 dB 2:51 13-« Outrelande » (1973–82) | Danse des Chiens
DR10 -4.72 dB -17.68 dB 2:33 14-« Outrelande » (1973–82) | Voyage des Bergers
DR9 -4.10 dB -17.22 dB 1:44 15-« Outrelande » (1973–82) | Berceuse d’Outrelande
DR12 -3.78 dB -18.47 dB 3:06 16-« Outrelande » (1973–82) | Berceuse de l’Eau
DR16 -0.24 dB -18.72 dB 7:30 17-« Outrelande » (1973–82) | Shaï
DR11 -4.76 dB -19.64 dB 3:41 18-« Outrelande » (1973–82) | La Reine des Sables
DR13 -1.66 dB -18.57 dB 7:02 19-« Outrelande » (1973–82) | Hulud
DR14 -0.08 dB -19.23 dB 1:58 20-« Outrelande » (1973–82) | Pachaski le Chasseur
––––––––––––––––––––––––––––––––––––––––

Number of tracks: 20
Official DR value: DR12

Samplerate: 44100 Hz
Channels: 2
Bits per sample: 16
Bitrate: 711 kbps
Codec: FLAC
================================================================================

[CUETools log; Date: 19.05.2015 9:02:37; Version: 2.1.5]
[CTDB TOCID: 9Vb78pIeZF9qyW.hzPjMOjNVhW0-] found.
Track | CTDB Status
1 | (2/2) Accurately ripped
2 | (2/2) Accurately ripped
3 | (2/2) Accurately ripped
4 | (2/2) Accurately ripped
5 | (2/2) Accurately ripped
6 | (2/2) Accurately ripped
7 | (2/2) Accurately ripped
8 | (2/2) Accurately ripped
9 | (2/2) Accurately ripped
10 | (2/2) Accurately ripped
11 | (2/2) Accurately ripped
12 | (2/2) Accurately ripped
13 | (2/2) Accurately ripped
14 | (2/2) Accurately ripped
15 | (2/2) Accurately ripped
16 | (2/2) Accurately ripped
17 | (2/2) Accurately ripped
18 | (2/2) Accurately ripped
19 | (2/2) Accurately ripped
20 | (2/2) Accurately ripped
[AccurateRip ID: 00358b90-030a5398-2a117814] found.
Track [ CRC | V2 ] Status
01 [ddee71c0|6bb5f2a6] (0+2/2) Accurately ripped
02 [a3091323|8fc19e78] (0+2/2) Accurately ripped
03 [b8877277|251e980c] (0+2/2) Accurately ripped
04 [14b91860|3cd28995] (0+2/2) Accurately ripped
05 [ebf3a15a|b945a609] (0+2/2) Accurately ripped
06 [62159e05|b91cceec] (0+2/2) Accurately ripped
07 [66445cf7|61694089] (0+2/2) Accurately ripped
08 [5503d93d|24b57092] (0+2/2) Accurately ripped
09 [824fdd8c|d2562cd6] (0+2/2) Accurately ripped
10 [50f8a342|e2d730e5] (0+2/2) Accurately ripped
11 [1982cc68|546bc82a] (0+2/2) Accurately ripped
12 [9750f01b|1115b7eb] (0+2/2) Accurately ripped
13 [4c76e225|0ecfb5a3] (0+2/2) Accurately ripped
14 [d0d9f170|1c220cd4] (0+2/2) Accurately ripped
15 [2ce89bcd|edef32cc] (0+2/2) Accurately ripped
16 [c2e124bf|736d5d16] (0+2/2) Accurately ripped
17 [76274f3c|8c1f3259] (0+2/2) Accurately ripped
18 [f9eb4f94|1114f59f] (0+2/2) Accurately ripped
19 [f16a1217|c2dde58b] (0+2/2) Accurately ripped
20 [73b255a7|ee7a01e8] (0+2/2) Accurately ripped

Track Peak [ CRC32 ] [W/O NULL] [ LOG ]
– 99,1 [F3F4C7FC] [47431A33] CRC32
01 98,6 [E1600B27] [CD36DE18]
02 55,0 [EA3E30B6] [640F877A]
03 68,9 [D03AFC02] [266B4099]
04 83,1 [E9B28D36] [36933FDC]
05 98,4 [18D4FEFA] [D9439CBD]
06 83,0 [019A4D70] [EC3B8792]
07 73,4 [C8D2882F] [D3A758BD]
08 94,8 [48E48346] [B1DE8B06]
09 77,1 [674CC633] [1C323E79]
10 77,7 [EDD416A5] [378722FF]
11 79,8 [E5E01E20] [FABAC624]
12 95,5 [6F2DB3B4] [EAF0C967]
13 71,8 [41B49F82] [9445FAF5]
14 58,0 [E0AA7BF8] [FF5E0119]
15 62,3 [EDFF9CE8] [C493C5AE]
16 64,7 [B614BE37] [6B521A2C]
17 97,2 [991A9E1F] [8A46B0A8]
18 57,8 [D349EFF5] [938D5B3A]
19 82,5 [B72B0BE4] [422DCD07]
20 99,1 [870BE309] [03A3A9C6]

Sonorhc - Purf (1972)/Outrelande (1973–82) [2014] + Portes d'Orient (1984)/Amazonia (1985) [2015] ("2 in 1" editions)

***************

Sonorhc - Purf (1972)/Outrelande (1973–82) [2014] + Portes d'Orient (1984)/Amazonia (1985) [2015] ("2 in 1" editions)

Sonorhc - Portes d'Orient (1984) / Amazonia (1985) [2015]
EAC Rip | FLAC (Img) + Cue + Log ~ 288 Mb | MP3 CBR320 ~ 179 Mb
Scans (JPG, 600 dpi) ~ 90 Mb | RAR 5% Recovery
Progressive Rock, Avant-Prog, Experimental | Fractal Records #840

Good news from the Sonorhc’s « space shuttle » ! After the two first albums « Purf » (1972) and « Outrelande » (1982) released last year, Fractal records deliver now the second volume of the expedition with the third and the fourth album of the band : « Portes d’Orient (East Gates) » (1984) and « Amazonia » (1985) again on CD, perfectly remastered and in the same concept « two albums in one ».

As a band who claim to be « without leader », Sonorhc is a collective with variable line-up as shows this reissue : four musicians (Youval Micenmacher, Laurent Cokelaere, Pierre Buffenoir, Jean-François Gaël) on « Portes d’Orient » and only two for « Amazonia » despite this one could be saw as almost entirely composed by Jean-François Gaël alone, inevitably one of the major force in their ranks. Jean-François Gaël is born in Paris in 1938. He worked as guitarist, composer or arranger with : Hélène Martin, Francesca Solleville, Marc Ogeret, Marcel Mouloudji, Jean Ferrat, Colette Magny, Catherine Sauvage, Henri Gougaud, Antoine Tomé, Mama Béa and with poets : Jacques Prévert, Louis Aragon, Eugène Guillevic, René Char, Pierre Seghers… Theses collaborations will find success five times for the «Grand Prix du Disque de l’Académie Charles Cros» award. He worked at the GRM in 1965, at the GMEB in Bourges in 1985 and at the IRCAM in 1995. He now composed film soundtrack for cinema and TV in his own studio.

So, here is finally reissued and for the first time after thirty years (yeah !) two sounds library records. Title name for each will transport you immediately in the right place: don’t need to move, the space shuttle travel for you ! With 32 tracks in total and with the adequate instrumentation for both albums : « Portes d’Orient » is a stunning meditative ethnic musical trip for guitars, bass, drum, percussions, moog, duduk, flute, guembri, arghoul, woodblock, hurdy gurdy… Overall it reminds the famous Agitation Free first album « Malesch » without the « rock » side but adding the « spiritual » side of Peter Michael Hamel works. « Portes d’Orient » is a very scarce album nowadays and almost impossible to find now in original vinyl LP. « Amazonia » use more synths but also many others ethnics instruments making this one a relaxing and melodic album in a reverie jungle mood. Jean-François Gaël done three trips in the Wayanas tribe in Amazonia and he also worked at that time for the french serie TV « Carnets de l’Aventure » and then brings together all his « amazonia » themes for this album. The patterns are diverses and united, going from Bernard Parmegiani’s electroacoustic side (« Passoula ») to Francis Bebey’s « psychedelic » sanza (« Sanza Sun »), Jorge Reyes’s ambiant ritual (« A Ouanary ») or Steve Roach’s tribal works (« Pakira »)… Two hidden lost gems made in France finally dig up ! Sonorhc go back in time (the space shuttle show you the correct sense of the reading : from the right to the left) and explore the consciousness!

NB :
- (1) : « Portes d’Orient » from 1984, is the real third album of the GROUP Sonorhc, and it should be NOT credited only to the duo : « Jean François Gaël - Pierre Buffenoir » (it’s an error) : there were no artists name printed indeed on the original cover album, but the Sonorhc logo appears well on the camel saddle in the drawing made by Jean Pierre Lamerand at that time.
« Amazonia » is a complete unreleased album recorded in 1985, never published before, and again with a front cover made again and at that time (!) by Jean-Pierre Lamerand.
- (2) : The album « K’an » (1993) became in that way the fifth album of Sonorhc.

PORTES D'ORIENT :
- Jean-François Gaël
- Pierre Buffenoir
- Youval Micenmacher
- Laurent Cokelaere

AMAZONIA :
- Jean-François Gaël
- Youval Micenmacher

Remastered by Jean-François Gaël in 2014.

Released : April 2015.
~ fractal-records.com
***************

Sonorhc - Purf (1972)/Outrelande (1973–82) [2014] + Portes d'Orient (1984)/Amazonia (1985) [2015] ("2 in 1" editions)

Track List:

01. « Portes d’Orient » (1984) | Shayoun [03:00]
02. « Portes d’Orient » (1984) | Flûte pour un Commencement [02:03]
03. « Portes d’Orient » (1984) | Lamdouk [02:24]
04. « Portes d’Orient » (1984) | Course de la Gazelle [02:27]
05. « Portes d’Orient » (1984) | Mosquée Mauve [02:09]
06. « Portes d’Orient » (1984) | Nhawand [02:21]
07. « Portes d’Orient » (1984) | Petite Salutation à Pan [02:07]
08. « Portes d’Orient » (1984) | Mixolydia [02:18]
09. « Portes d’Orient » (1984) | Saba [02:26]
10. « Portes d’Orient » (1984) | Appel du Marché [02:09]
11. « Portes d’Orient » (1984) | Noces des Bergers [03:12]
12. « Portes d’Orient » (1984) | Désert Rouge [02:30]
13. « Portes d’Orient » (1984) | Marché de Zakar [02:18]
14. « Portes d’Orient » (1984) | Ouizer Ouizer [02:23]
15. « Portes d’Orient » (1984) | Bonnes Nouvelles de Simbad [02:34]
16. « Portes d’Orient » (1984) | Panier de Cobras [02:10]
17. « Amazonia » (1985) | Toulé [02:29]
18. « Amazonia » (1985) | Anaconda [02:24]
19. « Amazonia » (1985) | Passoula [02:19]
20. « Amazonia » (1985) | Saül [02:11]
21. « Amazonia » (1985) | Takari [03:22]
22. « Amazonia » (1985) | Green Tank [02:15]
23. « Amazonia » (1985) | Aprouage [02:39]
24. « Amazonia » (1985) | Padre Joachim [02:50]
25. « Amazonia » (1985) | Pakira [01:40]
26. « Amazonia » (1985) | A Ouanary [02:12]
27. « Amazonia » (1985) | Chant de Copal [01:51]
28. « Amazonia » (1985) | Oyapock [01:40]
29. « Amazonia » (1985) | Guimbarde Selva [01:38]
30. « Amazonia » (1985) | Sanza Sun [02:22]
31. « Amazonia » (1985) | Caïaku [02:18]
32. « Amazonia » (1985) | Toulé Blues [02:10]

Exact Audio Copy V1.0 beta 3 from 29. August 2011

Отчёт EAC об извлечении, выполненном 18. мая 2015, 15:44

SONORHC / Portes d'Orient ('84) / Amazonia ('85)

Дисковод: TSSTcorpCDDVDW SH-224DB Adapter: 4 ID: 1

Режим чтения : Достоверность
Использование точного потока : Да
Отключение кэша аудио : Да
Использование указателей C2 : Нет

Коррекция смещения при чтении : 6
Способность читать области Lead-in и Lead-out : Нет
Заполнение пропущенных сэмплов тишиной : Да
Удаление блоков с тишиной в начале и конце : Нет
При вычислениях CRC использовались нулевые сэмплы : Да
Интерфейс : Встроенный Win32-интерфейс для Win NT/2000

Выходной формат : Внутренние WAV-операции
Формат сэмплов : 44.100 Гц; 16 бит; стерео


TOC извлечённого CD

Трек | Старт | Длительность | Начальный сектор | Конечный сектор
––––––––––––––––––––––––––––––––––-
1 | 0:00.00 | 2:59.49 | 0 | 13473
2 | 2:59.49 | 2:02.43 | 13474 | 22666
3 | 5:02.17 | 2:23.13 | 22667 | 33404
4 | 7:25.30 | 2:26.64 | 33405 | 44418
5 | 9:52.19 | 2:08.23 | 44419 | 54041
6 | 12:00.42 | 2:20.05 | 54042 | 64546
7 | 14:20.47 | 2:06.51 | 64547 | 74047
8 | 16:27.23 | 2:17.21 | 74048 | 84343
9 | 18:44.44 | 2:25.20 | 84344 | 95238
10 | 21:09.64 | 2:08.55 | 95239 | 104893
11 | 23:18.44 | 3:11.25 | 104894 | 119243
12 | 26:29.69 | 2:29.68 | 119244 | 130486
13 | 28:59.62 | 2:17.17 | 130487 | 140778
14 | 31:17.04 | 2:22.08 | 140779 | 151436
15 | 33:39.12 | 2:33.29 | 151437 | 162940
16 | 36:12.41 | 2:09.38 | 162941 | 172653
17 | 38:22.04 | 2:28.71 | 172654 | 183824
18 | 40:51.00 | 2:23.10 | 183825 | 194559
19 | 43:14.10 | 2:18.68 | 194560 | 204977
20 | 45:33.03 | 2:10.09 | 204978 | 214736
21 | 47:43.12 | 3:21.24 | 214737 | 229835
22 | 51:04.36 | 2:14.33 | 229836 | 239918
23 | 53:18.69 | 2:38.31 | 239919 | 251799
24 | 55:57.25 | 2:49.20 | 251800 | 264494
25 | 58:46.45 | 1:39.67 | 264495 | 271986
26 | 60:26.37 | 2:11.18 | 271987 | 281829
27 | 62:37.55 | 1:50.05 | 281830 | 290084
28 | 64:27.60 | 1:39.04 | 290085 | 297513
29 | 66:06.64 | 1:37.08 | 297514 | 304796
30 | 67:43.72 | 2:21.10 | 304797 | 315381
31 | 70:05.07 | 2:17.17 | 315382 | 325673
32 | 72:22.24 | 2:09.72 | 325674 | 335420


Характеристики диапазона извлечения и сообщения об ошибках

Выбранный диапазон

Имя файла D:\TEMP\SONORHC - 2015 - Portes d'Orient ('84) & Amazonia ('85).wav

Пиковый уровень 100.0 %
Скорость извлечения 8.4 X
Качество диапазона 100.0 %
CRC теста 68B24662
CRC копии 68B24662
Копирование… OK

Ошибок не произошло


AccurateRip: сводка

Трек 1 отсутствует в базе данных
Трек 2 отсутствует в базе данных
Трек 3 отсутствует в базе данных
Трек 4 отсутствует в базе данных
Трек 5 отсутствует в базе данных
Трек 6 отсутствует в базе данных
Трек 7 отсутствует в базе данных
Трек 8 отсутствует в базе данных
Трек 9 отсутствует в базе данных
Трек 10 отсутствует в базе данных
Трек 11 отсутствует в базе данных
Трек 12 отсутствует в базе данных
Трек 13 отсутствует в базе данных
Трек 14 отсутствует в базе данных
Трек 15 отсутствует в базе данных
Трек 16 отсутствует в базе данных
Трек 17 отсутствует в базе данных
Трек 18 отсутствует в базе данных
Трек 19 отсутствует в базе данных
Трек 20 отсутствует в базе данных
Трек 21 отсутствует в базе данных
Трек 22 отсутствует в базе данных
Трек 23 отсутствует в базе данных
Трек 24 отсутствует в базе данных
Трек 25 отсутствует в базе данных
Трек 26 отсутствует в базе данных
Трек 27 отсутствует в базе данных
Трек 28 отсутствует в базе данных
Трек 29 отсутствует в базе данных
Трек 30 отсутствует в базе данных
Трек 31 отсутствует в базе данных
Трек 32 отсутствует в базе данных

Ни одного трека нет в базе AccurateRip

Конец отчёта

==== Контрольная сумма отчёта 5547364614A371911FC5B46969043A60E7FA996E15110E6FE60316DE39A6D4C8 ====

foobar2000 1.2.6 / Dynamic Range Meter 1.1.1
log date: 2015-05-19 09:31:12

––––––––––––––––––––––––––––––––––––––––
Analyzed: SONORHC / Portes d’Orient / Amazonia
––––––––––––––––––––––––––––––––––––––––

DR Peak RMS Duration Track
––––––––––––––––––––––––––––––––––––––––
DR13 -4.66 dB -19.44 dB 3:00 01-« Portes d’Orient » (1984) | Shayoun
DR9 -8.93 dB -20.97 dB 2:03 02-« Portes d’Orient » (1984) | Flûte pour un Commencement
DR10 -5.43 dB -17.33 dB 2:23 03-« Portes d’Orient » (1984) | Lamdouk
DR13 -9.64 dB -25.19 dB 2:27 04-« Portes d’Orient » (1984) | Course de la Gazelle
DR12 -4.96 dB -18.57 dB 2:08 05-« Portes d’Orient » (1984) | Mosquée Mauve
DR11 0.00 dB -15.18 dB 2:20 06-« Portes d’Orient » (1984) | Nhawand
DR8 -5.00 dB -18.29 dB 2:07 07-« Portes d’Orient » (1984) | Petite Salutation à Pan
DR12 -3.50 dB -18.72 dB 2:17 08-« Portes d’Orient » (1984) | Mixolydia
DR10 -3.11 dB -15.41 dB 2:25 09-« Portes d’Orient » (1984) | Saba
DR10 -3.07 dB -17.00 dB 2:09 10-« Portes d’Orient » (1984) | Appel du Marché
DR10 -4.05 dB -16.29 dB 3:11 11-« Portes d’Orient » (1984) | Noces des Bergers
DR12 -3.27 dB -17.03 dB 2:30 12-« Portes d’Orient » (1984) | Désert Rouge
DR12 -6.26 dB -20.26 dB 2:17 13-« Portes d’Orient » (1984) | Marché de Zakar
DR12 -2.70 dB -17.68 dB 2:22 14-« Portes d’Orient » (1984) | Ouizer Ouizer
DR10 -10.24 dB -23.19 dB 2:33 15-« Portes d’Orient » (1984) | Bonnes Nouvelles de Simbad
DR10 -4.72 dB -16.67 dB 2:10 16-« Portes d’Orient » (1984) | Panier de Cobras
DR9 -7.78 dB -20.58 dB 2:29 17-« Amazonia » (1985) | Toulé
DR11 -6.89 dB -21.65 dB 2:23 18-« Amazonia » (1985) | Anaconda
DR11 -8.80 dB -22.90 dB 2:19 19-« Amazonia » (1985) | Passoula
DR10 -9.72 dB -23.77 dB 2:10 20-« Amazonia » (1985) | Saül
DR11 -9.69 dB -23.76 dB 3:21 21-« Amazonia » (1985) | Takari
DR10 -10.50 dB -21.89 dB 2:14 22-« Amazonia » (1985) | Green Tank
DR10 -10.66 dB -23.75 dB 2:38 23-« Amazonia » (1985) | Aprouage
DR12 -11.53 dB -24.97 dB 2:49 24-« Amazonia » (1985) | Padre Joachim
DR14 -10.21 dB -29.62 dB 1:40 25-« Amazonia » (1985) | Pakira
DR11 -12.15 dB -26.40 dB 2:11 26-« Amazonia » (1985) | A Ouanary
DR12 -10.75 dB -26.42 dB 1:50 27-« Amazonia » (1985) | Chant de Copal
DR12 -10.69 dB -25.55 dB 1:39 28-« Amazonia » (1985) | Oyapock
DR15 -13.15 dB -30.98 dB 1:37 29-« Amazonia » (1985) | Guimbarde Selva
DR12 -8.10 dB -24.19 dB 2:21 30-« Amazonia » (1985) | Sanza Sun
DR8 -15.50 dB -26.61 dB 2:17 31-« Amazonia » (1985) | Caïaku
DR10 -10.65 dB -24.71 dB 2:10 32-« Amazonia » (1985) | Toulé Blues
––––––––––––––––––––––––––––––––––––––––

Number of tracks: 32
Official DR value: DR11

Samplerate: 44100 Hz
Channels: 2
Bits per sample: 16
Bitrate: 515 kbps
Codec: FLAC
================================================================================

[CUETools log; Date: 19.05.2015 9:03:14; Version: 2.1.5]
[CTDB TOCID: uPFfaOC.knySkqsaTwIHUDm.luc-] disk not present in database.
[AccurateRip ID: 005699c5-07a5739a-e4117820] disk not present in database.

Track Peak [ CRC32 ] [W/O NULL] [ LOG ]
– 100,0 [68B24662] [C676FFDD] CRC32
01 58,4 [2E646A67] [B570A524]
02 35,7 [A4361B73] [2534AE79]
03 53,5 [974F7C08] [DCD42D1E]
04 32,9 [383B880A] [33446484]
05 56,5 [E291097E] [20F28241]
06 100,0 [14352D9A] [52587B75]
07 56,2 [A5C86F93] [45E77E87]
08 66,8 [C4F7B19C] [5717B523]
09 69,9 [7350FBA2] [3F27ACDC]
10 70,2 [0586F008] [6F5BB55A]
11 62,7 [957FAA40] [A6513DC2]
12 68,6 [4AA7AF9C] [D7ADD87E]
13 48,6 [44D0564F] [E587FCFD]
14 73,2 [DE1F1E68] [FD7D749B]
15 30,7 [C3EE6659] [8D553431]
16 58,0 [3125B80B] [E7795395]
17 40,8 [EC9B05B2] [99A04A74]
18 45,2 [C755F576] [B98493CA]
19 36,3 [75DFD8AA] [CD5DC7F6]
20 32,6 [1E52D3B4] [B0BCC18D]
21 32,7 [A234A164] [3FBC9569]
22 29,8 [2F4CCC7B] [727B2A95]
23 29,3 [B16F4962] [AC5D7416]
24 26,5 [1A3802BB] [62C61484]
25 30,8 [B5DEF11E] [ACABD46F]
26 24,6 [E9BC19BD] [94A68A47]
27 29,0 [42023656] [ABA8689B]
28 29,2 [4837CEF1] [E946576E]
29 21,9 [A109D0D4] [27F3D81B]
30 39,3 [7E6A4C2E] [F1E0BD79]
31 16,7 [99E38154] [21415B6F]
32 29,3 [38A69F70] [81E872C0]

Sonorhc - Purf (1972)/Outrelande (1973–82) [2014] + Portes d'Orient (1984)/Amazonia (1985) [2015] ("2 in 1" editions)

All thanks go to spAceLover

Visit my blog!

Download: