Subcategories
Tags
Language
Tags

Stacy Lattisaw - What You Need (1989)

Posted By: BlondStyle
Stacy Lattisaw - What You Need (1989)

Stacy Lattisaw - What You Need (1989)
R&B, Hip Hop, Soul, Electronic | EAC Rip | FLAC, Tracks+CUE+LOG +Scans (JPEG) | 50:28 | 340,62 Mb
Label: Motown/BMG Ariola (Germany) | Cat.# ZD72685 | Released: 1989-10-17

"What You Need" is the 10th studio album by American contemporary R&B singer Stacy Lattisaw, released October 17, 1989 via Motown Records. It did not chart on the Billboard 200, but it peaked at #16 on the Billboard R&B chart. It was also Lattisaw's final album before she retired from the music industry. Four singles were released from the album: "What You Need", "Where Do We Go from Here", "Dance for You" and "I Don't Have the Heart". "Where Do We Go from Here" was the most successful single from the album, peaking at #1 on the Billboard R&B singles chart in 1990.
~Wikipedia

Though Stacy Lattisaw first came to fame with the 1980 Top Ten R&B/Top 21 pop ballad "Let Me Be Your Angel," she does mostly up-tempo material on her Top 16 R&B LP What You Need. The standouts are the pumpin', sensual "Dance for You," "You Touched the Woman in Me," "R U Man Enuff," and "Guilty (Lock Me Up)." The title-track single broke the R&B Top 30 in the fall of 1989. Ironically, it would be a ballad duet with frequent singing partner Johnny Gill that would prove to be the album's biggest single. "Where Do We Go From Here" parked at number one R&B while curiously crossing over to the pop charts in late 1989. The followup was another ballad, "I Don't Have the Heart." "Where Do We Go From Here" is on Johnny Gill's Ultimate Collection.
~Review by Ed Hogan

Stacy Lattisaw - What You Need (1989)

Stacy Lattisaw - What You Need (1989)




Release of the album: 1989, October, 17 [LP Motown Records, Cat.# MOT-6280, USA]
Release of this CD: 1989 [CD Motown/BMG Ariola (Germany), Cat.# ZD72685 / UPC: 0035627268526]
℗&© 1989 Motown Record Company, L.P.
Made from masters of Motown Record Company, L.P.
Distributed in the EU by BMG Ariola.
Printed in Germany by TOPAC.
Made in Germany


Credits:

Art Direction – Jeff Adamoff, Lynda Simmons
Coordinator [Production] – Nadine O. Baker
Design – Michael Diehl
Producers – Gordon Williams (tracks: 01), Phillip Damien (tracks: 02), Hubert Eaves III (tracks: 03), Kenni Hairston (tracks: 04, 06), Cevin Fisher (tracks: 05), LeMel Humes (tracks: 07, 08), Ron Kersey (tracks: 09, 10)
Executive-Producer – Timmy Regisford
Management – Hush Productions
Mastered By – Herb Powers Jr.
Photography By – Carol Weinberg


Tracklist:

01. "What You Need" (05:43)
(Gordon Williams, Niki Richards)
02. "Dance For You" (05:47)
(Kevin Grady, Phillip Damien)
03. "You Touched The Woman In Me" (04:11)
(Dana Eaves, Hubert Eaves III)
04. "R U Man Enuff" (05:18)
(Kenni Hairston, Trevor Gale)
05. "Guilty (Lock Me Up)" (04:42)
(Kevin Fisher, Angel Valentine)
06. "Falling (In Love Again)" (04:31)
(Debbie Cole, Kenn Hairston, Trevor Gale)
07. "I Don't Have The Heart" (05:02)
(Alan Rich, Jud Friedman)
08. "Where Do We Go From Here" (featuring Johnny Gill) (05:50)
(LeMel Humes)
09. "Tender Love" (04:36)
(Alex Brown, Ron "Have Mercy" Kersey)
10. "That's The Reason Why I Love" (04:49)
(John Potts, Stacy Lattisaw)

Exact Audio Copy V0.99 prebeta 5 from 4. May 2009

EAC extraction logfile from 29. August 2010, 21:52

Stacy Lattisaw / What You Need

Used drive : Optiarc DVD RW AD-5200A Adapter: 1 ID: 0

Read mode : Secure
Utilize accurate stream : Yes
Defeat audio cache : Yes
Make use of C2 pointers : No

Read offset correction : 48
Overread into Lead-In and Lead-Out : No
Fill up missing offset samples with silence : Yes
Delete leading and trailing silent blocks : No
Null samples used in CRC calculations : Yes
Used interface : Native Win32 interface for Win NT & 2000
Gap handling : Appended to previous track

Used output format : User Defined Encoder
Selected bitrate : 128 kBit/s
Quality : High
Add ID3 tag : No
Command line compressor : C:\Program Files\FLAC\flac.exe
Additional command line options : -5 -V -T "ARTIST=%a" -T "TITLE=%t" -T "ALBUM=%g" -T "DATE=%y" -T "TRACKNUMBER=%n" -T "GENRE=%m" -T "COMMENT=Ripped by andygrakoff aka yetiisyou" %s


TOC of the extracted CD

Track | Start | Length | Start sector | End sector
––––––––––––––––––––––––––––-
1 | 0:00.33 | 5:42.70 | 33 | 25752
2 | 5:43.28 | 5:47.15 | 25753 | 51792
3 | 11:30.43 | 4:10.42 | 51793 | 70584
4 | 15:41.10 | 5:17.68 | 70585 | 94427
5 | 20:59.03 | 4:41.67 | 94428 | 115569
6 | 25:40.70 | 4:30.43 | 115570 | 135862
7 | 30:11.38 | 5:01.65 | 135863 | 158502
8 | 35:13.28 | 5:50.15 | 158503 | 184767
9 | 41:03.43 | 4:36.20 | 184768 | 205487
10 | 45:39.63 | 4:49.05 | 205488 | 227167


Track 1

Filename E:\!Rips\Stacy Lattisaw - What You Need (ZD72685) 1989\01 – What You Need.wav

Pre-gap length 0:00:02.44

Peak level 95.3 %
Track quality 100.0 %
Test CRC 01BAFEC3
Copy CRC 01BAFEC3
Track not present in AccurateRip database
Copy OK

Track 2

Filename E:\!Rips\Stacy Lattisaw - What You Need (ZD72685) 1989\02 – Dance For You.wav

Pre-gap length 0:00:02.53

Peak level 98.9 %
Track quality 100.0 %
Test CRC 135EB4E5
Copy CRC 135EB4E5
Track not present in AccurateRip database
Copy OK

Track 3

Filename E:\!Rips\Stacy Lattisaw - What You Need (ZD72685) 1989\03 – You Touched The Woman In Me.wav

Pre-gap length 0:00:02.60

Peak level 93.7 %
Track quality 100.0 %
Test CRC 8E1D82DB
Copy CRC 8E1D82DB
Track not present in AccurateRip database
Copy OK

Track 4

Filename E:\!Rips\Stacy Lattisaw - What You Need (ZD72685) 1989\04 – R U Man Enuff.wav

Pre-gap length 0:00:01.89

Peak level 93.9 %
Track quality 100.0 %
Test CRC 704016EC
Copy CRC 704016EC
Track not present in AccurateRip database
Copy OK

Track 5

Filename E:\!Rips\Stacy Lattisaw - What You Need (ZD72685) 1989\05 – Guilty (Lock Me Up).wav

Pre-gap length 0:00:02.77

Peak level 98.0 %
Track quality 99.9 %
Test CRC AAF2DE66
Copy CRC AAF2DE66
Track not present in AccurateRip database
Copy OK

Track 6

Filename E:\!Rips\Stacy Lattisaw - What You Need (ZD72685) 1989\06 – Falling (In Love Again).wav

Pre-gap length 0:00:01.80

Peak level 97.9 %
Track quality 100.0 %
Test CRC A7C7FD0B
Copy CRC A7C7FD0B
Track not present in AccurateRip database
Copy OK

Track 7

Filename E:\!Rips\Stacy Lattisaw - What You Need (ZD72685) 1989\07 – I Don't Have The Heart.wav

Pre-gap length 0:00:02.04

Peak level 94.0 %
Track quality 100.0 %
Test CRC 34DD2667
Copy CRC 34DD2667
Track not present in AccurateRip database
Copy OK

Track 8

Filename E:\!Rips\Stacy Lattisaw - What You Need (ZD72685) 1989\08 – Where Do We Go From Here.wav

Pre-gap length 0:00:02.73

Peak level 92.6 %
Track quality 100.0 %
Test CRC 37DB0C2A
Copy CRC 37DB0C2A
Track not present in AccurateRip database
Copy OK

Track 9

Filename E:\!Rips\Stacy Lattisaw - What You Need (ZD72685) 1989\09 – Tender Love.wav

Pre-gap length 0:00:01.77

Peak level 97.3 %
Track quality 99.9 %
Test CRC 7D4577D3
Copy CRC 7D4577D3
Track not present in AccurateRip database
Copy OK

Track 10

Filename E:\!Rips\Stacy Lattisaw - What You Need (ZD72685) 1989\10 – That's The Reason Why I Love.wav

Pre-gap length 0:00:03.13

Peak level 74.9 %
Track quality 100.0 %
Test CRC 6635255D
Copy CRC 6635255D
Track not present in AccurateRip database
Copy OK


None of the tracks are present in the AccurateRip database

No errors occurred

End of status report

––––––––––––––––––––––––––––––––––––––––
Analyzed: Stacy Lattisaw / What You Need
––––––––––––––––––––––––––––––––––––––––

DR Peak RMS Duration Track
––––––––––––––––––––––––––––––––––––––––
DR12 -0.41 dB -15.06 dB 5:43 01-What You Need
DR13 -0.09 dB -15.05 dB 5:47 02-Dance For You
DR12 -0.56 dB -14.97 dB 4:11 03-You Touched The Woman In Me
DR13 -0.54 dB -16.01 dB 5:18 04-R U Man Enuff
DR13 -0.17 dB -14.74 dB 4:42 05-Guilty (Lock Me Up)
DR14 -0.18 dB -16.58 dB 4:31 06-Falling (In Love Again)
DR12 -0.54 dB -16.28 dB 5:02 07-I Don't Have The Heart
DR13 -0.67 dB -15.72 dB 5:50 08-Where Do We Go From Here
DR12 -0.23 dB -15.23 dB 4:36 09-Tender Love
DR13 -2.51 dB -18.05 dB 4:49 10-That's The Reason Why I Love
––––––––––––––––––––––––––––––––––––––––

Number of tracks: 10
Official DR value: DR13

Samplerate: 44100 Hz
Channels: 2
Bits per sample: 16
Bitrate: 743 kbps
Codec: FLAC
================================================================================

Thanks to funky_cat & Аndy

♫~Welcome To My Blog~♫

password: BlondStyle