Stan Getz With Laurindo Almeida - Stan Getz With Guest Artist Laurindo Almeida (1963)

Posted By: uff
Stan Getz With Laurindo Almeida - Stan Getz With Guest Artist Laurindo Almeida (1963)

Stan Getz With Laurindo Almeida - Stan Getz With Guest Artist Laurindo Almeida (1963)
Jazz | 1cd | EAC Rip | Flac + Cue + Log | covers
Verve, 0602517679238 | rem: 2008 | 225Mb

Three weeks after completing his meeting with Luiz Bonfá and only two days after the epochal Getz/Gilberto sessions, Stan Getz was back in the studio recording more bossa nova. Producer Creed Taylor was obviously striking while the iron was hot, getting in as many Brazilian sessions as he could, yet the quality of the music-making remained consistently marvelous. Continuing his practice of running through one star guitarist after another, this time Getz has Laurindo Almeida as the designated rhythm man, featured composer, and solo foil. The rhythm section is an authentically swinging mixture of American sidemen (including Steve Kuhn on piano and George Duvivier on bass) and Brazilian percussionists. Almeida didn't like to improvise, so his solos stay close to the tunes, inflected with a perfectly matched feeling for the groove along with classical poise. Jobim's "Outra Vez" is a particularly lovely example of Getz's freedom and effortless lyricism contrasted against Almeida's anchored embroidering. Sessions like these might have been seen as cashing in on the boom at the time, yet in the long view, one should be thankful that these musicians were recording so much cherishable material. ~Allmusic

Track listing
01. Minina Moca (5:41)
02. Once Again (6:42)
03. Winter Moon (5:21)
04. Do What You Do, Do (4:35)
05. Samba Da Sahra (4:54)
06. Maracatu-Too (5:00)

Personnel
- Stan Getz - tenor saxophone
- Laurindo Almeida - guitar
- George Duvivier - bass
- José Paulo, Luiz Parga - percussion
- Dave Bailey, Edison Machado, Jose Soorez - drums
- Steve Kuhn - piano (tracks 1&6)


Exact Audio Copy V0.99 prebeta 4 from 23. January 2008

EAC extraction logfile from 10. November 2008, 15:07

Stan Getz / With Guest Artist Laurindo Almeida

Used drive : PLEXTOR CD-R PREMIUM2 Adapter: 1 ID: 1

Read mode : Secure
Utilize accurate stream : Yes
Defeat audio cache : Yes
Make use of C2 pointers : No

Read offset correction : 30
Overread into Lead-In and Lead-Out : No
Fill up missing offset samples with silence : Yes
Delete leading and trailing silent blocks : No
Null samples used in CRC calculations : Yes
Used interface : Installed external ASPI interface
Gap handling : Appended to previous track

Used output format : User Defined Encoder
Selected bitrate : 32 kBit/s
Quality : High
Add ID3 tag : No
Command line compressor : C:\Programmi\FLAC\flac.exe
Additional command line options : -8 -V -T "ARTIST=%a" -T "TITLE=%t" -T "ALBUM=%g" -T "DATE=%y" -T "TRACKNUMBER=%n" -T "GENRE=%m" -T "COMMENT=EAC FLAC -8" %s


TOC of the extracted CD

Track | Start | Length | Start sector | End sector
––––––––––––––––––––––––––––-
1 | 0:00.00 | 5:41.65 | 0 | 25639
2 | 5:41.65 | 6:42.38 | 25640 | 55827
3 | 12:24.28 | 5:21.15 | 55828 | 79917
4 | 17:45.43 | 4:35.62 | 79918 | 100604
5 | 22:21.30 | 4:54.63 | 100605 | 122717
6 | 27:16.18 | 5:00.12 | 122718 | 145229


Track 1

Filename C:\My Rip\01 - Minina Moca.wav

Pre-gap length 0:00:02.00

Peak level 100.0 %
Track quality 100.0 %
Test CRC 61718677
Copy CRC 61718677
Accurately ripped (confidence 2) [82BA6A23]
Copy OK

Track 2

Filename C:\My Rip\02 - Once Again.wav

Peak level 100.0 %
Track quality 100.0 %
Test CRC F2275388
Copy CRC F2275388
Accurately ripped (confidence 2) [8DA28E55]
Copy OK

Track 3

Filename C:\My Rip\03 - Winter Moon.wav

Peak level 99.1 %
Track quality 100.0 %
Test CRC B0BF31CD
Copy CRC B0BF31CD
Accurately ripped (confidence 2) [D3249A5E]
Copy OK

Track 4

Filename C:\My Rip\04 - Do What You Do, Do.wav

Peak level 99.7 %
Track quality 100.0 %
Test CRC A4B6F59C
Copy CRC A4B6F59C
Accurately ripped (confidence 2) [9785459A]
Copy OK

Track 5

Filename C:\My Rip\05 - Samba Da Sahra.wav

Peak level 100.0 %
Track quality 99.9 %
Test CRC C4C35DDB
Copy CRC C4C35DDB
Accurately ripped (confidence 2) [2AE4D196]
Copy OK

Track 6

Filename C:\My Rip\06 - Maracatu-Too.wav

Peak level 100.0 %
Track quality 100.0 %
Test CRC 82C3F28E
Copy CRC 82C3F28E
Accurately ripped (confidence 2) [E194D181]
Copy OK


All tracks accurately ripped

No errors occurred

End of status report



[CUETools log; Date: 2017. 08. 30. 10:39:46; Version: 2.1.6]
[CTDB TOCID: _ktTMgpP5Oa2VkOvqYQx0WNM6sU-] found.
Track | CTDB Status
1 | (82/83) Accurately ripped
2 | (81/83) Accurately ripped
3 | (81/83) Accurately ripped
4 | (82/83) Accurately ripped
5 | (82/83) Accurately ripped
6 | (81/83) Accurately ripped
[AccurateRip ID: 00081613-002aa38c-48079006] found.
Track [ CRC | V2 ] Status
01 [82ba6a23|bb495614] (050+057/107) Accurately ripped
02 [8da28e55|950e5660] (051+058/109) Accurately ripped
03 [d3249a5e|6103d03f] (051+055/106) Accurately ripped
04 [9785459a|696f9fa7] (051+057/108) Accurately ripped
05 [2ae4d196|2cde79f3] (049+057/106) Accurately ripped
06 [e194d181|1f5ed517] (049+057/106) Accurately ripped

Track Peak [ CRC32 ] [W/O NULL] [ LOG ]
– 100,0 [ADC20563] [F8C7F836]
01 100,0 [61718677] [9A457945] CRC32
02 100,0 [F2275388] [5E22A140] CRC32
03 99,1 [B0BF31CD] [FE3252BC] CRC32
04 99,7 [A4B6F59C] [A49E8BB9] CRC32
05 100,0 [C4C35DDB] [541A1B56] CRC32
06 100,0 [82C3F28E] [4BA08D9C] CRC32


Original uploader unknown