Subcategories

Stan Getz - 1953 (2005)

Posted By: gribovar
Stan Getz - 1953 (2005)

Stan Getz - 1953 (2005)
EAC Rip | FLAC (image+.cue+log) - 298 MB | MP3 CBR 320 kbps (LAME 3.93) - 177 MB | Covers - 33 MB
Genre: Jazz | RAR 3% Rec. | Label: Classics Records (CLASSICS1395)

This CD collates 3 dates made within less than a month by the same quintet on the West Coast. The enclosed recordings with Getz, partly arranged by Bob Brookmeyer, predate his long collaboration with Gerry Mulligan. The frontline of trombone and tenor sax without trumpet, although rather unusual, proves highly successful. The selections include unexpected oldies such as Roger Wolfe Khan's Crazy Rhythm from 1928 or the inevitable It Don't Mean A Thing, pepped up by Brookmeyer. Although the two horns are in the limelight, pianist John Williams also contributes several remarkable solos. All in all, this short lived group has rarely been ranked among Getz's best but the present music underlines just how well it played that summer of 1953.
Tracklist:
01. Love and the Weather
02. It Don't Mean a Thing
03. Spring Is Here
04. The Varsity Drag
05. Crazy Rhythm
06. Minor Blues
07. Fascinatin' Rhythm
08. Willow Weep for Me
09. I Didn't Know What Time It Was
10. Tangerine
11. The Nearness of You
12. Pot Luck

Total time: 01:15:04

Exact Audio Copy V1.0 beta 3 from 29. August 2011

EAC extraction logfile from 21. February 2013, 0:33

Stan Getz / 1953

Used drive : ASUS DRW-24B1LT Adapter: 5 ID: 1

Read mode : Secure
Utilize accurate stream : Yes
Defeat audio cache : Yes
Make use of C2 pointers : No

Read offset correction : 6
Overread into Lead-In and Lead-Out : No
Fill up missing offset samples with silence : Yes
Delete leading and trailing silent blocks : No
Null samples used in CRC calculations : Yes
Used interface : Native Win32 interface for Win NT & 2000

Used output format : User Defined Encoder
Selected bitrate : 768 kBit/s
Quality : High
Add ID3 tag : No
Command line compressor : C:\Program Files\Exact Audio Copy\Flac\flac.exe
Additional command line options : -8 -V -T "ARTIST=%artist%" -T "TITLE=%title%" -T "ALBUM=%albumtitle%" -T "DATE=%year%" -T "TRACKNUMBER=%tracknr%" -T "TOTALTRACKS=%numtracks%" -T "GENRE=%genre%" -T "ALBUMARTIST=%albumartist%" -T "ALBUM ARTIST=%albumartist%" -T "COMMENT=EAC Secure Mode, Test & Copy, AccurateRip, FLAC -8" %source%


TOC of the extracted CD

Track | Start | Length | Start sector | End sector
––––––––––––––––––––––––––––-
1 | 0:00.00 | 6:34.58 | 0 | 29607
2 | 6:34.58 | 6:22.56 | 29608 | 58313
3 | 12:57.39 | 6:11.23 | 58314 | 86161
4 | 19:08.62 | 7:00.04 | 86162 | 117665
5 | 26:08.66 | 5:53.34 | 117666 | 144174
6 | 32:02.25 | 7:05.38 | 144175 | 176087
7 | 39:07.63 | 8:04.46 | 176088 | 212433
8 | 47:12.34 | 5:22.70 | 212434 | 236653
9 | 52:35.29 | 7:41.34 | 236654 | 271262
10 | 60:16.63 | 7:06.35 | 271263 | 303247
11 | 67:23.23 | 3:43.69 | 303248 | 320041
12 | 71:07.17 | 3:56.32 | 320042 | 337773


Range status and errors

Selected range

Filename F:\audio\Stan Getz - 1953.wav

Peak level 100.0 %
Extraction speed 6.7 X
Range quality 100.0 %
Test CRC 0A9CB2D6
Copy CRC 0A9CB2D6
Copy OK

No errors occurred


AccurateRip summary

Track 1 accurately ripped (confidence 1) [A5ED4D4B] (AR v1)
Track 2 accurately ripped (confidence 1) [844D3B75] (AR v1)
Track 3 accurately ripped (confidence 1) [32B5FC55] (AR v1)
Track 4 accurately ripped (confidence 1) [654175A6] (AR v1)
Track 5 accurately ripped (confidence 1) [47A3DE80] (AR v1)
Track 6 accurately ripped (confidence 1) [C0B1C0AE] (AR v1)
Track 7 accurately ripped (confidence 1) [DDFDDD57] (AR v1)
Track 8 accurately ripped (confidence 1) [6A282753] (AR v1)
Track 9 accurately ripped (confidence 1) [B7CE2F7C] (AR v1)
Track 10 accurately ripped (confidence 1) [B677DED8] (AR v1)
Track 11 accurately ripped (confidence 1) [29C10312] (AR v1)
Track 12 accurately ripped (confidence 1) [C3D96D29] (AR v1)

All tracks accurately ripped

End of status report

–– CUETools DB Plugin V2.1.3

[CTDB TOCID: xsbH1yLfvDK8fWhRTTGKT.koeNo-] found, Submit result: already submitted
[21bd9370] (1/1) Accurately ripped


==== Log checksum D210F7CCDFABB20659EB48297EF2ECD0A2B255072C6B474E2FE26DEA295C7C27 ====

[CUETools log; Date: 08.02.2018 22:19:22; Version: 2.1.4]
[CTDB TOCID: xsbH1yLfvDK8fWhRTTGKT.koeNo-] found.
Track | CTDB Status
1 | (2/2) Accurately ripped
2 | (2/2) Accurately ripped
3 | (2/2) Accurately ripped
4 | (2/2) Accurately ripped
5 | (2/2) Accurately ripped
6 | (2/2) Accurately ripped
7 | (2/2) Accurately ripped
8 | (2/2) Accurately ripped
9 | (2/2) Accurately ripped
10 | (2/2) Accurately ripped
11 | (2/2) Accurately ripped
12 | (2/2) Accurately ripped
[AccurateRip ID: 0022feb4-01462485-b611970c] found.
Track [ CRC | V2 ] Status
01 [a5ed4d4b|ec1ccf8b] (0+4/4) Accurately ripped
02 [844d3b75|b2181743] (0+4/4) Accurately ripped
03 [32b5fc55|a4c6d1d1] (0+4/4) Accurately ripped
04 [654175a6|05d5bcc8] (0+4/4) Accurately ripped
05 [47a3de80|9763ddf1] (0+4/4) Accurately ripped
06 [c0b1c0ae|d2b207d7] (0+4/4) Accurately ripped
07 [ddfddd57|84a8d0e8] (0+4/4) Accurately ripped
08 [6a282753|096d7cbe] (0+4/4) Accurately ripped
09 [b7ce2f7c|0119f30c] (0+4/4) Accurately ripped
10 [b677ded8|8f7d4009] (0+4/4) Accurately ripped
11 [29c10312|4c5d0f62] (0+4/4) Accurately ripped
12 [c3d96d29|8f2eda81] (0+4/4) Accurately ripped

Track Peak [ CRC32 ] [W/O NULL] [ LOG ]
– 100,0 [0A9CB2D6] [26C3FC76] CRC32
01 100,0 [884A06D2] [983C1F27]
02 100,0 [5CBC3A00] [C4063457]
03 99,0 [39538F31] [1E0FE703]
04 100,0 [F1BA0CF3] [417F8493]
05 100,0 [B5B637A6] [02F3CF52]
06 100,0 [0746C597] [CC5C4270]
07 100,0 [92260ACA] [54994C5A]
08 99,0 [408685C8] [02706331]
09 100,0 [5EFB696F] [21FFDBA3]
10 100,0 [3E39BDCD] [F15ADF31]
11 100,0 [6EF38A90] [D1C9D644]
12 99,0 [495A808C] [AC9ACAAE]

Thanks to fiks22

See also: