Subcategories

Stan Getz - Master Of The Sax [10CD Box Set] (2011)

Posted By: gribovar
Stan Getz - Master Of The Sax [10CD Box Set] (2011)

Stan Getz - Master Of The Sax [10CD Box Set] (2011)
EAC Rip | FLAC (tracks+.cue+log) - 2,24 GB | MP3 CBR 320 kbps (LAME 3.93) - 1,19 GB | Covers - 9 MB
Genre: Jazz | RAR 3% Rec. | Label: The Intense Media ‎(232755)

This 10 CD box contains around 500 minutes of recordings featuring Stan Getz from between 1946 and 1957. Most of those were originally released under his own name, but there is also stuff lead by (or cooperations with) Terry Gibbs, Al Haig, Jimmy Raney, Dizzy Gillespie, Lionel Hampton, Oscar Peterson and J. J. Johnson. After browsing some of the albums included here, it's safe to say that there are quite a few recordings that were most probably not released on CD before. Unlike most other documents wallet boxes this one comes with band names, recording locations and recording dates for all tracks.

Stan Getz - Master Of The Sax [10CD Box Set] (2011)

CD 1: Stan Getz - Interlude In Be Bop (1946-1949)
EAC Rip | FLAC (tracks+.cue+log) - 220 MB | MP3 CBR 320 kbps (LAME 3.93) - 118 MB
Genre: Jazz | RAR 3% Rec. | Label: The Intense Media ‎(232755/A)

Tracklist:
01. Opus De Bop [02:33]
02. And The Angels Swing [02:46]
03. Running Water [02:47]
04. Don't Worry 'Bout Me [02:40]
05. Pardon My Bop [02:37]
06. As I Live And I Bop [03:05]
07. Interlude In Be Bop [02:46]
08. Diaper Pin [02:44]
09. Michelle, Pt. 1 [02:21]
10. Michelle, Pt. 2 [02:19]
11. Michelle (alt tk) [03:34]
12. T & S [02:50]
13. Terry's Tune [03:04]
14. Cuddles [03:01]
15. Five Brothers [03:14]
16. Five Brothers (alt tk) [03:38]
17. Battle Of The Saxes [03:54]

Total time: 50:02

Exact Audio Copy V1.0 beta 3 from 29. August 2011

EAC extraction logfile from 4. June 2013, 12:39

Stan Getz / Interlude In Be Bop (CD1, 1946 - 1949)

Used drive : Optiarc DVD RW AD-5200A Adapter: 0 ID: 0

Read mode : Secure
Utilize accurate stream : Yes
Defeat audio cache : Yes
Make use of C2 pointers : No

Read offset correction : 48
Overread into Lead-In and Lead-Out : No
Fill up missing offset samples with silence : Yes
Delete leading and trailing silent blocks : No
Null samples used in CRC calculations : Yes
Used interface : Native Win32 interface for Win NT & 2000
Gap handling : Appended to previous track

Used output format : User Defined Encoder
Selected bitrate : 128 kBit/s
Quality : High
Add ID3 tag : No
Command line compressor : C:\Program Files\Exact Audio Copy\Flac\flac.exe
Additional command line options : -V -8 -T "Genre=%genre%" -T "Artist=%artist%" -T "Title=%title%" -T "Album=%albumtitle%" -T "Date=%year%" -T "Tracknumber=%tracknr%" -T "Comment=%comment%" %source%


TOC of the extracted CD

Track | Start | Length | Start sector | End sector
––––––––––––––––––––––––––––-
1 | 0:00.00 | 2:33.61 | 0 | 11535
2 | 2:33.61 | 2:46.08 | 11536 | 23993
3 | 5:19.69 | 2:47.59 | 23994 | 36577
4 | 8:07.53 | 2:40.31 | 36578 | 48608
5 | 10:48.09 | 2:37.40 | 48609 | 60423
6 | 13:25.49 | 3:05.11 | 60424 | 74309
7 | 16:30.60 | 2:46.74 | 74310 | 86833
8 | 19:17.59 | 2:44.42 | 86834 | 99175
9 | 22:02.26 | 2:21.63 | 99176 | 109813
10 | 24:24.14 | 2:19.61 | 109814 | 120299
11 | 26:44.00 | 3:34.44 | 120300 | 136393
12 | 30:18.44 | 2:50.01 | 136394 | 149144
13 | 33:08.45 | 3:04.64 | 149145 | 163008
14 | 36:13.34 | 3:01.43 | 163009 | 176626
15 | 39:15.02 | 3:14.23 | 176627 | 191199
16 | 42:29.25 | 3:38.41 | 191200 | 207590
17 | 46:07.66 | 3:54.41 | 207591 | 225181


Track 1

Filename F:\CD01 - Interlude In Be Bop (1946-1949)\01. Opus De Bop.wav

Pre-gap length 0:00:02.00

Peak level 99.9 %
Extraction speed 2.1 X
Track quality 100.0 %
Test CRC 9D4E1E0C
Copy CRC 9D4E1E0C
Cannot be verified as accurate (confidence 2) [988D3529], AccurateRip returned [1F11B22C] (AR v2)
Copy OK

Track 2

Filename F:\CD01 - Interlude In Be Bop (1946-1949)\02. And The Angels Swing.wav

Peak level 100.0 %
Extraction speed 2.3 X
Track quality 100.0 %
Test CRC A771F9A0
Copy CRC A771F9A0
Cannot be verified as accurate (confidence 2) [1BAA2A1C], AccurateRip returned [FCE2C7B1] (AR v2)
Copy OK

Track 3

Filename F:\CD01 - Interlude In Be Bop (1946-1949)\03. Running Water.wav

Peak level 100.0 %
Extraction speed 2.5 X
Track quality 100.0 %
Test CRC 79A6418E
Copy CRC 79A6418E
Cannot be verified as accurate (confidence 2) [E7B69533], AccurateRip returned [F18F65B6] (AR v2)
Copy OK

Track 4

Filename F:\CD01 - Interlude In Be Bop (1946-1949)\04. Don´t Worry ´Bout Me.wav

Peak level 100.0 %
Extraction speed 2.6 X
Track quality 100.0 %
Test CRC 072DEBF0
Copy CRC 072DEBF0
Cannot be verified as accurate (confidence 2) [67B46D32], AccurateRip returned [6C87E068] (AR v2)
Copy OK

Track 5

Filename F:\CD01 - Interlude In Be Bop (1946-1949)\05. Pardon My Bop.wav

Peak level 100.0 %
Extraction speed 2.7 X
Track quality 100.0 %
Test CRC 068293B1
Copy CRC 068293B1
Cannot be verified as accurate (confidence 2) [8267F08C], AccurateRip returned [AAC7EC4D] (AR v2)
Copy OK

Track 6

Filename F:\CD01 - Interlude In Be Bop (1946-1949)\06. As I Live And I Bop.wav

Peak level 99.9 %
Extraction speed 2.9 X
Track quality 100.0 %
Test CRC B793F2EF
Copy CRC B793F2EF
Cannot be verified as accurate (confidence 2) [096FA509], AccurateRip returned [ECC87A61] (AR v2)
Copy OK

Track 7

Filename F:\CD01 - Interlude In Be Bop (1946-1949)\07. Interlude In Be Bop.wav

Peak level 100.0 %
Extraction speed 2.5 X
Track quality 99.9 %
Test CRC 39950C7F
Copy CRC 39950C7F
Cannot be verified as accurate (confidence 2) [944C2D89], AccurateRip returned [419CF0C2] (AR v2)
Copy OK

Track 8

Filename F:\CD01 - Interlude In Be Bop (1946-1949)\08. Diaper Pin.wav

Peak level 100.0 %
Extraction speed 3.1 X
Track quality 100.0 %
Test CRC 217C196B
Copy CRC 217C196B
Cannot be verified as accurate (confidence 2) [E9604BBE], AccurateRip returned [5B861FC6] (AR v2)
Copy OK

Track 9

Filename F:\CD01 - Interlude In Be Bop (1946-1949)\09. Michelle, Pt. 1.wav

Peak level 99.9 %
Extraction speed 3.1 X
Track quality 100.0 %
Test CRC E3D8C44F
Copy CRC E3D8C44F
Cannot be verified as accurate (confidence 2) [32833DD9], AccurateRip returned [5D6EFF97] (AR v2)
Copy OK

Track 10

Filename F:\CD01 - Interlude In Be Bop (1946-1949)\10. Michelle, Pt. 2.wav

Peak level 100.0 %
Extraction speed 3.1 X
Track quality 100.0 %
Test CRC 05B4C9AA
Copy CRC 05B4C9AA
Cannot be verified as accurate (confidence 2) [619138DE], AccurateRip returned [5469A451] (AR v2)
Copy OK

Track 11

Filename F:\CD01 - Interlude In Be Bop (1946-1949)\11. Michelle (alt tk).wav

Peak level 99.9 %
Extraction speed 3.4 X
Track quality 100.0 %
Test CRC BB0624EE
Copy CRC BB0624EE
Cannot be verified as accurate (confidence 2) [080E11CF], AccurateRip returned [F3D61C4B] (AR v2)
Copy OK

Track 12

Filename F:\CD01 - Interlude In Be Bop (1946-1949)\12. T & S.wav

Peak level 100.0 %
Extraction speed 3.3 X
Track quality 100.0 %
Test CRC 5468DC3E
Copy CRC 5468DC3E
Cannot be verified as accurate (confidence 2) [96AF1E97], AccurateRip returned [C2B9803F] (AR v2)
Copy OK

Track 13

Filename F:\CD01 - Interlude In Be Bop (1946-1949)\13. Terry´s Tune.wav

Peak level 100.0 %
Extraction speed 3.4 X
Track quality 100.0 %
Test CRC F05354FA
Copy CRC F05354FA
Cannot be verified as accurate (confidence 2) [6C4DED9C], AccurateRip returned [96EDC7AE] (AR v2)
Copy OK

Track 14

Filename F:\CD01 - Interlude In Be Bop (1946-1949)\14. Cuddles.wav

Peak level 99.9 %
Extraction speed 3.0 X
Track quality 99.9 %
Test CRC A91BFBBF
Copy CRC A91BFBBF
Cannot be verified as accurate (confidence 2) [A5F006ED], AccurateRip returned [8342AFE9] (AR v2)
Copy OK

Track 15

Filename F:\CD01 - Interlude In Be Bop (1946-1949)\15. Five Brothers.wav

Peak level 100.0 %
Extraction speed 3.5 X
Track quality 100.0 %
Test CRC 693489DF
Copy CRC 693489DF
Cannot be verified as accurate (confidence 2) [EE591AB5], AccurateRip returned [A2070FB7] (AR v2)
Copy OK

Track 16

Filename F:\CD01 - Interlude In Be Bop (1946-1949)\16. Five Brothers (alt tk).wav

Peak level 85.2 %
Extraction speed 3.6 X
Track quality 100.0 %
Test CRC 37A71D39
Copy CRC 37A71D39
Cannot be verified as accurate (confidence 2) [20DB920C], AccurateRip returned [8F918E70] (AR v2)
Copy OK

Track 17

Filename F:\CD01 - Interlude In Be Bop (1946-1949)\17. Battle Of The Saxes.wav

Peak level 100.0 %
Extraction speed 3.6 X
Track quality 100.0 %
Test CRC F69FF876
Copy CRC F69FF876
Cannot be verified as accurate (confidence 2) [7DB9132D], AccurateRip returned [0EC8799D] (AR v2)
Copy OK


No tracks could be verified as accurate
You may have a different pressing from the one(s) in the database

No errors occurred

End of status report

==== Log checksum B61A0FF8B9BA4EA25B38C7A2D3D24ABCB46A06043E0BF361DD1502CFA87B6DD8 ====

[CUETools log; Date: 30.01.2018 19:08:58; Version: 2.1.4]
[CTDB TOCID: H8ntavL6yTfmssleTxY4SzUs8b4-] found.
Track | CTDB Status
1 | (7/7) Accurately ripped
2 | (7/7) Accurately ripped
3 | (7/7) Accurately ripped
4 | (7/7) Accurately ripped
5 | (7/7) Accurately ripped
6 | (7/7) Accurately ripped
7 | (7/7) Accurately ripped
8 | (7/7) Accurately ripped
9 | (7/7) Accurately ripped
10 | (7/7) Accurately ripped
11 | (7/7) Accurately ripped
12 | (7/7) Accurately ripped
13 | (7/7) Accurately ripped
14 | (7/7) Accurately ripped
15 | (7/7) Accurately ripped
16 | (7/7) Accurately ripped
17 | (7/7) Accurately ripped
[AccurateRip ID: 001d4ed3-017636c9-f10bba11] found.
Track [ CRC | V2 ] Status
01 [3006aa8a|988d3529] (0+3/8) Accurately ripped
02 [36de92d4|1baa2a1c] (0+3/8) Accurately ripped
03 [4b39eaac|e7b69533] (0+3/8) Accurately ripped
04 [c79c160f|67b46d32] (0+3/8) Accurately ripped
05 [44d3d9c3|8267f08c] (0+3/8) Accurately ripped
06 [fafd3fbc|096fa509] (0+3/8) Accurately ripped
07 [5433d222|944c2d89] (0+3/8) Accurately ripped
08 [c85cf431|e9604bbe] (0+3/8) Accurately ripped
09 [0bce844d|32833dd9] (0+3/8) Accurately ripped
10 [f7cb4c09|619138de] (0+3/8) Accurately ripped
11 [57937980|080e11cf] (0+3/8) Accurately ripped
12 [67d3736d|96af1e97] (0+3/8) Accurately ripped
13 [fea69c0c|6c4ded9c] (0+3/8) Accurately ripped
14 [743601f7|a5f006ed] (0+3/8) Accurately ripped
15 [edd50ca4|ee591ab5] (0+3/8) Accurately ripped
16 [73952bbd|20db920c] (0+3/8) Accurately ripped
17 [51d5b815|7db9132d] (0+3/8) Accurately ripped
Offsetted by -6:
01 [1f11b22c] (2/8) Accurately ripped
02 [fce2c7b1] (2/8) Accurately ripped
03 [f18f65b6] (2/8) Accurately ripped
04 [6c87e068] (2/8) Accurately ripped
05 [aac7ec4d] (2/8) Accurately ripped
06 [ecc87a61] (2/8) Accurately ripped
07 [419cf0c2] (2/8) Accurately ripped
08 [5b861fc6] (2/8) Accurately ripped
09 [5d6eff97] (2/8) Accurately ripped
10 [5469a451] (2/8) Accurately ripped
11 [f3d61c4b] (2/8) Accurately ripped
12 [c2b9803f] (2/8) Accurately ripped
13 [96edc7ae] (2/8) Accurately ripped
14 [8342afe9] (2/8) Accurately ripped
15 [a2070fb7] (2/8) Accurately ripped
16 [8f918e70] (2/8) Accurately ripped
17 [0ec8799d] (2/8) Accurately ripped

Track Peak [ CRC32 ] [W/O NULL] [ LOG ]
– 100,0 [AE99992D] [3CEAA7E6]
01 99,9 [9D4E1E0C] [3D4B260C] CRC32
02 100,0 [A771F9A0] [92D57F83] CRC32
03 100,0 [79A6418E] [670C9F60] CRC32
04 99,9 [072DEBF0] [99A0136E] CRC32
05 100,0 [068293B1] [BB3577C1] CRC32
06 99,9 [B793F2EF] [937CF87F] CRC32
07 100,0 [39950C7F] [8B41BBEF] CRC32
08 100,0 [217C196B] [1354E14B] CRC32
09 99,9 [E3D8C44F] [FDEC5882] CRC32
10 100,0 [05B4C9AA] [B6A0924A] CRC32
11 99,9 [BB0624EE] [CD8D001D] CRC32
12 99,9 [5468DC3E] [1844F435] CRC32
13 100,0 [F05354FA] [3D9DD20F] CRC32
14 99,9 [A91BFBBF] [F285C4DE] CRC32
15 100,0 [693489DF] [5737FE5E] CRC32
16 85,2 [37A71D39] [B4B55FB6] CRC32
17 100,0 [F69FF876] [ECCE136A] CRC32

Stan Getz - Master Of The Sax [10CD Box Set] (2011)

CD 2: Stan Getz - Crazy Chords (1949)
EAC Rip | FLAC (tracks+.cue+log) - 206 MB | MP3 CBR 320 kbps (LAME 3.93) - 116 MB
Genre: Jazz | RAR 3% Rec. | Label: The Intense Media ‎(232755/B)

Tracklist:
01. Four And One Moore [03:49]
02. Four And One Moore (Alt) [03:35]
03. Bettleground [03:25]
04. Battleground (Alt) [03:19]
05. Stan Getz Along [02:58]
06. Stan's Mood [02:44]
07. Slow [02:55]
08. Fast [03:08]
09. Skull Buster [02:29]
10. Ante Room [02:48]
11. Poop Deck [02:53]
12. Pennies From Heaven [03:24]
13. Long Island Sound [03:00]
14. Crazy Chords [02:38]
15. Prezervation [02:45]
16. Pinch Bottle [03:01]

Total time: 48:59

Exact Audio Copy V1.0 beta 3 from 29. August 2011

EAC extraction logfile from 4. June 2013, 13:33

Stan Getz / Crazy Chords (CD2, 1949)

Used drive : Optiarc DVD RW AD-5200A Adapter: 0 ID: 0

Read mode : Secure
Utilize accurate stream : Yes
Defeat audio cache : Yes
Make use of C2 pointers : No

Read offset correction : 48
Overread into Lead-In and Lead-Out : No
Fill up missing offset samples with silence : Yes
Delete leading and trailing silent blocks : No
Null samples used in CRC calculations : Yes
Used interface : Native Win32 interface for Win NT & 2000
Gap handling : Appended to previous track

Used output format : User Defined Encoder
Selected bitrate : 128 kBit/s
Quality : High
Add ID3 tag : No
Command line compressor : C:\Program Files\Exact Audio Copy\Flac\flac.exe
Additional command line options : -V -8 -T "Genre=%genre%" -T "Artist=%artist%" -T "Title=%title%" -T "Album=%albumtitle%" -T "Date=%year%" -T "Tracknumber=%tracknr%" -T "Comment=%comment%" %source%


TOC of the extracted CD

Track | Start | Length | Start sector | End sector
––––––––––––––––––––––––––––-
1 | 0:00.00 | 3:49.74 | 0 | 17248
2 | 3:49.74 | 3:35.23 | 17249 | 33396
3 | 7:25.22 | 3:25.66 | 33397 | 48837
4 | 10:51.13 | 3:19.19 | 48838 | 63781
5 | 14:10.32 | 2:58.05 | 63782 | 77136
6 | 17:08.37 | 2:44.71 | 77137 | 89507
7 | 19:53.33 | 2:55.72 | 89508 | 102704
8 | 22:49.30 | 3:08.26 | 102705 | 116830
9 | 25:57.56 | 2:29.27 | 116831 | 128032
10 | 28:27.08 | 2:48.32 | 128033 | 140664
11 | 31:15.40 | 2:53.54 | 140665 | 153693
12 | 34:09.19 | 3:24.46 | 153694 | 169039
13 | 37:33.65 | 3:00.06 | 169040 | 182545
14 | 40:33.71 | 2:38.38 | 182546 | 194433
15 | 43:12.34 | 2:45.56 | 194434 | 206864
16 | 45:58.15 | 3:01.43 | 206865 | 220482


Track 1

Filename F:\CD02 - Crazy Chords (1949)\01. Four And One Moore.wav

Pre-gap length 0:00:02.00

Peak level 91.3 %
Extraction speed 2.3 X
Track quality 100.0 %
Test CRC F4BF9F6D
Copy CRC F4BF9F6D
Cannot be verified as accurate (confidence 2) [8903CE2A], AccurateRip returned [A0404634] (AR v2)
Copy OK

Track 2

Filename F:\CD02 - Crazy Chords (1949)\02. Four And One Moore (Alt).wav

Peak level 100.0 %
Extraction speed 2.5 X
Track quality 100.0 %
Test CRC BAD73071
Copy CRC BAD73071
Cannot be verified as accurate (confidence 2) [EF8ED1C7], AccurateRip returned [D0F1565C] (AR v2)
Copy OK

Track 3

Filename F:\CD02 - Crazy Chords (1949)\03. Bettleground.wav

Peak level 100.0 %
Extraction speed 2.7 X
Track quality 100.0 %
Test CRC DB51984C
Copy CRC DB51984C
Cannot be verified as accurate (confidence 2) [A4DDD427], AccurateRip returned [65478FDA] (AR v2)
Copy OK

Track 4

Filename F:\CD02 - Crazy Chords (1949)\04. Battleground (Alt).wav

Peak level 85.1 %
Extraction speed 2.9 X
Track quality 100.0 %
Test CRC EBA87127
Copy CRC EBA87127
Cannot be verified as accurate (confidence 2) [8E38D6A0], AccurateRip returned [FA2ED824] (AR v2)
Copy OK

Track 5

Filename F:\CD02 - Crazy Chords (1949)\05. Stan Getz Along.wav

Peak level 100.0 %
Extraction speed 3.0 X
Track quality 100.0 %
Test CRC 7F8118C9
Copy CRC 7F8118C9
Cannot be verified as accurate (confidence 2) [701862A7], AccurateRip returned [609129CE] (AR v2)
Copy OK

Track 6

Filename F:\CD02 - Crazy Chords (1949)\06. Stan´s Mood.wav

Peak level 100.0 %
Extraction speed 3.0 X
Track quality 100.0 %
Test CRC 36ADA0E4
Copy CRC 36ADA0E4
Cannot be verified as accurate (confidence 2) [B7157DF9], AccurateRip returned [A0F14A7D] (AR v2)
Copy OK

Track 7

Filename F:\CD02 - Crazy Chords (1949)\07. Slow.wav

Peak level 99.9 %
Extraction speed 2.7 X
Track quality 99.9 %
Test CRC EB331CAA
Copy CRC EB331CAA
Cannot be verified as accurate (confidence 2) [62431B26], AccurateRip returned [C24B89E8] (AR v2)
Copy OK

Track 8

Filename F:\CD02 - Crazy Chords (1949)\08. Fast.wav

Peak level 100.0 %
Extraction speed 3.3 X
Track quality 100.0 %
Test CRC 0F6EB699
Copy CRC 0F6EB699
Cannot be verified as accurate (confidence 2) [CAC9C4DE], AccurateRip returned [2B853406] (AR v2)
Copy OK

Track 9

Filename F:\CD02 - Crazy Chords (1949)\09. Skull Buster.wav

Peak level 100.0 %
Extraction speed 2.7 X
Track quality 99.9 %
Test CRC 7616CA1B
Copy CRC 7616CA1B
Cannot be verified as accurate (confidence 2) [8FB0F2CC], AccurateRip returned [E8490D17] (AR v2)
Copy OK

Track 10

Filename F:\CD02 - Crazy Chords (1949)\10. Ante Room.wav

Peak level 100.0 %
Extraction speed 3.3 X
Track quality 100.0 %
Test CRC E2E937E7
Copy CRC E2E937E7
Cannot be verified as accurate (confidence 2) [1867F4F0], AccurateRip returned [DFEAA9C2] (AR v2)
Copy OK

Track 11

Filename F:\CD02 - Crazy Chords (1949)\11. Poop Deck.wav

Peak level 100.0 %
Extraction speed 3.4 X
Track quality 100.0 %
Test CRC E0E024C9
Copy CRC E0E024C9
Cannot be verified as accurate (confidence 2) [6764BEF9], AccurateRip returned [6C88D82E] (AR v2)
Copy OK

Track 12

Filename F:\CD02 - Crazy Chords (1949)\12. Pennies From Heaven.wav

Peak level 100.0 %
Extraction speed 3.5 X
Track quality 100.0 %
Test CRC 0E8DBFDC
Copy CRC 0E8DBFDC
Cannot be verified as accurate (confidence 2) [5F599C86], AccurateRip returned [7653461D] (AR v2)
Copy OK

Track 13

Filename F:\CD02 - Crazy Chords (1949)\13. Long Island Sound.wav

Peak level 100.0 %
Extraction speed 3.5 X
Track quality 100.0 %
Test CRC 522CBFA7
Copy CRC 522CBFA7
Cannot be verified as accurate (confidence 2) [225757C8], AccurateRip returned [FF74490F] (AR v2)
Copy OK

Track 14

Filename F:\CD02 - Crazy Chords (1949)\14. Crazy Chords.wav

Peak level 100.0 %
Extraction speed 3.5 X
Track quality 100.0 %
Test CRC 735F56AB
Copy CRC 735F56AB
Cannot be verified as accurate (confidence 2) [0086EB6D], AccurateRip returned [4A4BBA65] (AR v2)
Copy OK

Track 15

Filename F:\CD02 - Crazy Chords (1949)\15. Prezervation.wav

Peak level 100.0 %
Extraction speed 3.5 X
Track quality 100.0 %
Test CRC B6813255
Copy CRC B6813255
Cannot be verified as accurate (confidence 2) [3E858DCD], AccurateRip returned [4AFC5021] (AR v2)
Copy OK

Track 16

Filename F:\CD02 - Crazy Chords (1949)\16. Pinch Bottle.wav

Peak level 100.0 %
Extraction speed 3.0 X
Track quality 99.9 %
Test CRC D7673F5F
Copy CRC D7673F5F
Cannot be verified as accurate (confidence 2) [E5D39CC2], AccurateRip returned [7FD1988B] (AR v2)
Copy OK


No tracks could be verified as accurate
You may have a different pressing from the one(s) in the database

No errors occurred

End of status report

==== Log checksum F3007B2B89E68F77CFC27AEB3FAEFE06A0B008F03B2F76E35EB7A7F100EDED9E ====

[CUETools log; Date: 30.01.2018 19:11:01; Version: 2.1.4]
[CTDB TOCID: u7sfd8LT93zh8QPOn.gtcyXCLiw-] found.
Track | CTDB Status
1 | (7/7) Accurately ripped
2 | (7/7) Accurately ripped
3 | (7/7) Accurately ripped
4 | (7/7) Accurately ripped
5 | (7/7) Accurately ripped
6 | (7/7) Accurately ripped
7 | (7/7) Accurately ripped
8 | (7/7) Accurately ripped
9 | (7/7) Accurately ripped
10 | (7/7) Accurately ripped
11 | (7/7) Accurately ripped
12 | (7/7) Accurately ripped
13 | (7/7) Accurately ripped
14 | (7/7) Accurately ripped
15 | (7/7) Accurately ripped
16 | (7/7) Accurately ripped
[AccurateRip ID: 001dae77-015f1f4b-d70b7b10] found.
Track [ CRC | V2 ] Status
01 [f61b4d0c|8903ce2a] (0+2/7) Accurately ripped
02 [55dddb98|ef8ed1c7] (0+2/7) Accurately ripped
03 [710344f9|a4ddd427] (0+2/7) Accurately ripped
04 [d5395711|8e38d6a0] (0+2/7) Accurately ripped
05 [a1e629ab|701862a7] (0+2/7) Accurately ripped
06 [387cc68a|b7157df9] (0+2/7) Accurately ripped
07 [9cdfe304|62431b26] (0+2/7) Accurately ripped
08 [b53e56c0|cac9c4de] (0+2/7) Accurately ripped
09 [24656d3c|8fb0f2cc] (0+2/7) Accurately ripped
10 [b31586e8|1867f4f0] (0+2/7) Accurately ripped
11 [dba138b8|6764bef9] (0+2/7) Accurately ripped
12 [cda42fdb|5f599c86] (0+2/7) Accurately ripped
13 [e63519ee|225757c8] (0+2/7) Accurately ripped
14 [c5cfeec0|0086eb6d] (0+2/7) Accurately ripped
15 [b50fbc84|3e858dcd] (0+2/7) Accurately ripped
16 [509ec1bb|e5d39cc2] (0+2/7) Accurately ripped
Offsetted by -6:
01 [a0404634] (2/7) Accurately ripped
02 [d0f1565c] (2/7) Accurately ripped
03 [65478fda] (2/7) Accurately ripped
04 [fa2ed824] (2/7) Accurately ripped
05 [609129ce] (2/7) Accurately ripped
06 [a0f14a7d] (2/7) Accurately ripped
07 [c24b89e8] (2/7) Accurately ripped
08 [2b853406] (2/7) Accurately ripped
09 [e8490d17] (2/7) Accurately ripped
10 [dfeaa9c2] (2/7) Accurately ripped
11 [6c88d82e] (2/7) Accurately ripped
12 [7653461d] (2/7) Accurately ripped
13 [ff74490f] (2/7) Accurately ripped
14 [4a4bba65] (2/7) Accurately ripped
15 [4afc5021] (2/7) Accurately ripped
16 [7fd1988b] (2/7) Accurately ripped

Track Peak [ CRC32 ] [W/O NULL] [ LOG ]
– 100,0 [FE19A05F] [8F9F65C4]
01 91,3 [F4BF9F6D] [B9C57B29] CRC32
02 100,0 [BAD73071] [FB660B5D] CRC32
03 100,0 [DB51984C] [06B57838] CRC32
04 85,1 [EBA87127] [0B0F4B3E] CRC32
05 100,0 [7F8118C9] [887D692E] CRC32
06 100,0 [36ADA0E4] [17643D69] CRC32
07 99,9 [EB331CAA] [36F9056E] CRC32
08 100,0 [0F6EB699] [BB62BB87] CRC32
09 100,0 [7616CA1B] [6A443A09] CRC32
10 100,0 [E2E937E7] [08966152] CRC32
11 100,0 [E0E024C9] [29CECC67] CRC32
12 100,0 [0E8DBFDC] [9E25AF0A] CRC32
13 100,0 [522CBFA7] [B43137B0] CRC32
14 100,0 [735F56AB] [52766F53] CRC32
15 99,9 [B6813255] [CBA5C6E1] CRC32
16 100,0 [D7673F5F] [49C33CE3] CRC32

Stan Getz - Master Of The Sax [10CD Box Set] (2011)

CD 3: Stan Getz - For Stompers Only (1949-1950)
EAC Rip | FLAC (tracks+.cue+log) - 202 MB | MP3 CBR 320 kbps (LAME 3.93) - 119 MB
Genre: Jazz | RAR 3% Rec. | Label: The Intense Media ‎(232755/C)

Tracklist:
01. Earless Engineering [02:56]
02. Be Still TV [03:11]
03. Short P Not LP [03:21]
04. There's A Small Hotel [02:57]
05. Too Marvelous For Words [02:58]
06. I've Got You Under my Skin [03:20]
07. Stardust [02:43]
08. Goodnight My Love [02:42]
09. Intoit [03:24]
10. You Stepped Out Of A Dream [02:55]
11. The Lady In Red [03:18]
12. Wrap Your Troubles In Dreams [03:05]
13. On The Alamo (alt) [02:47]
14. Sweety Pie [02:33]
15. Imagination (alt) [02:35]
16. For Stompers Only [02:54]
17. Navy Blue [02:44]

Total time: 50:29

Exact Audio Copy V1.0 beta 3 from 29. August 2011

EAC extraction logfile from 4. June 2013, 15:06

Stan Getz / For Stompers Only (CD3, 1949 - 1950)

Used drive : Optiarc DVD RW AD-5200A Adapter: 0 ID: 0

Read mode : Secure
Utilize accurate stream : Yes
Defeat audio cache : Yes
Make use of C2 pointers : No

Read offset correction : 48
Overread into Lead-In and Lead-Out : No
Fill up missing offset samples with silence : Yes
Delete leading and trailing silent blocks : No
Null samples used in CRC calculations : Yes
Used interface : Native Win32 interface for Win NT & 2000
Gap handling : Appended to previous track

Used output format : User Defined Encoder
Selected bitrate : 128 kBit/s
Quality : High
Add ID3 tag : No
Command line compressor : C:\Program Files\Exact Audio Copy\Flac\flac.exe
Additional command line options : -V -8 -T "Genre=%genre%" -T "Artist=%artist%" -T "Title=%title%" -T "Album=%albumtitle%" -T "Date=%year%" -T "Tracknumber=%tracknr%" -T "Comment=%comment%" %source%


TOC of the extracted CD

Track | Start | Length | Start sector | End sector
––––––––––––––––––––––––––––-
1 | 0:00.00 | 2:56.21 | 0 | 13220
2 | 2:56.21 | 3:11.11 | 13221 | 27556
3 | 6:07.32 | 3:21.24 | 27557 | 42655
4 | 9:28.56 | 2:57.16 | 42656 | 55946
5 | 12:25.72 | 2:58.08 | 55947 | 69304
6 | 15:24.05 | 3:20.01 | 69305 | 84305
7 | 18:44.06 | 2:43.21 | 84306 | 96551
8 | 21:27.27 | 2:42.41 | 96552 | 108742
9 | 24:09.68 | 3:24.03 | 108743 | 124045
10 | 27:33.71 | 2:55.58 | 124046 | 137228
11 | 30:29.54 | 3:18.06 | 137229 | 152084
12 | 33:47.60 | 3:05.64 | 152085 | 166023
13 | 36:53.49 | 2:47.66 | 166024 | 178614
14 | 39:41.40 | 2:33.36 | 178615 | 190125
15 | 42:15.01 | 2:35.54 | 190126 | 201804
16 | 44:50.55 | 2:54.06 | 201805 | 214860
17 | 47:44.61 | 2:44.54 | 214861 | 227214


Track 1

Filename F:\CD03 - For Stompers Only (1949-1950)\01. Earless Engineering.wav

Pre-gap length 0:00:02.00

Peak level 99.9 %
Extraction speed 1.9 X
Track quality 99.9 %
Test CRC 494D7F85
Copy CRC 494D7F85
Track not present in AccurateRip database
Copy OK

Track 2

Filename F:\CD03 - For Stompers Only (1949-1950)\02. Be Still TV.wav

Peak level 100.0 %
Extraction speed 2.4 X
Track quality 100.0 %
Test CRC FBCC2548
Copy CRC FBCC2548
Cannot be verified as accurate (confidence 2) [26F270BC], AccurateRip returned [2C4FE52C] (AR v2)
Copy OK

Track 3

Filename F:\CD03 - For Stompers Only (1949-1950)\03. Short P Not LP.wav

Peak level 100.0 %
Extraction speed 2.6 X
Track quality 100.0 %
Test CRC E60DC3FE
Copy CRC E60DC3FE
Cannot be verified as accurate (confidence 2) [9A322BC3], AccurateRip returned [8C510C7D] (AR v2)
Copy OK

Track 4

Filename F:\CD03 - For Stompers Only (1949-1950)\04. There´s A Small Hotel.wav

Peak level 99.9 %
Extraction speed 2.7 X
Track quality 100.0 %
Test CRC C9175E51
Copy CRC C9175E51
Cannot be verified as accurate (confidence 2) [03495972], AccurateRip returned [E0AEAC3A] (AR v2)
Copy OK

Track 5

Filename F:\CD03 - For Stompers Only (1949-1950)\05. Too Marvelous For Words.wav

Peak level 100.0 %
Extraction speed 2.9 X
Track quality 100.0 %
Test CRC CE507A5A
Copy CRC CE507A5A
Cannot be verified as accurate (confidence 2) [737FC2CC], AccurateRip returned [13496270] (AR v2)
Copy OK

Track 6

Filename F:\CD03 - For Stompers Only (1949-1950)\06. I´ve Got You Under my Skin.wav

Peak level 100.0 %
Extraction speed 3.1 X
Track quality 100.0 %
Test CRC 16449413
Copy CRC 16449413
Cannot be verified as accurate (confidence 2) [942236D8], AccurateRip returned [65D5D830] (AR v2)
Copy OK

Track 7

Filename F:\CD03 - For Stompers Only (1949-1950)\07. Stardust.wav

Peak level 99.9 %
Extraction speed 3.0 X
Track quality 100.0 %
Test CRC DFACD706
Copy CRC DFACD706
Cannot be verified as accurate (confidence 2) [8325639D], AccurateRip returned [5BC30CA1] (AR v2)
Copy OK

Track 8

Filename F:\CD03 - For Stompers Only (1949-1950)\08. Goodnight My Love.wav

Peak level 100.0 %
Extraction speed 3.1 X
Track quality 100.0 %
Test CRC 97B074F7
Copy CRC 97B074F7
Cannot be verified as accurate (confidence 2) [1FADD74D], AccurateRip returned [2B4A5720] (AR v2)
Copy OK

Track 9

Filename F:\CD03 - For Stompers Only (1949-1950)\09. Intoit.wav

Peak level 100.0 %
Extraction speed 3.3 X
Track quality 100.0 %
Test CRC FC292E44
Copy CRC FC292E44
Cannot be verified as accurate (confidence 2) [BBBCD60A], AccurateRip returned [255EA3E1] (AR v2)
Copy OK

Track 10

Filename F:\CD03 - For Stompers Only (1949-1950)\10. You Stepped Out Of A Dream.wav

Peak level 100.0 %
Extraction speed 3.3 X
Track quality 100.0 %
Test CRC 50C606B9
Copy CRC 50C606B9
Cannot be verified as accurate (confidence 2) [5FFB6D94], AccurateRip returned [0ADABA04] (AR v2)
Copy OK

Track 11

Filename F:\CD03 - For Stompers Only (1949-1950)\11. The Lady In Red.wav

Peak level 100.0 %
Extraction speed 2.4 X
Track quality 99.9 %
Test CRC E62835AD
Copy CRC E62835AD
Cannot be verified as accurate (confidence 2) [DAC23942], AccurateRip returned [BDAAB9CB] (AR v2)
Copy OK

Track 12

Filename F:\CD03 - For Stompers Only (1949-1950)\12. Wrap Your Troubles In Dreams.wav

Peak level 99.9 %
Extraction speed 3.4 X
Track quality 100.0 %
Test CRC 62762297
Copy CRC 62762297
Cannot be verified as accurate (confidence 2) [CF1C22CB], AccurateRip returned [FCDF25C0] (AR v2)
Copy OK

Track 13

Filename F:\CD03 - For Stompers Only (1949-1950)\13. On The Alamo (alt).wav

Peak level 100.0 %
Extraction speed 3.4 X
Track quality 100.0 %
Test CRC 977D229E
Copy CRC 977D229E
Cannot be verified as accurate (confidence 2) [4FE866FC], AccurateRip returned [A8AAB4A7] (AR v2)
Copy OK

Track 14

Filename F:\CD03 - For Stompers Only (1949-1950)\14. Sweety Pie.wav

Peak level 100.0 %
Extraction speed 3.4 X
Track quality 100.0 %
Test CRC 2032446E
Copy CRC 2032446E
Cannot be verified as accurate (confidence 2) [7FEAF64D], AccurateRip returned [F1F7772A] (AR v2)
Copy OK

Track 15

Filename F:\CD03 - For Stompers Only (1949-1950)\15. Imagination (alt).wav

Peak level 100.0 %
Extraction speed 2.9 X
Track quality 99.9 %
Test CRC 6335F78E
Copy CRC 6335F78E
Cannot be verified as accurate (confidence 2) [4B2AB7BB], AccurateRip returned [1489DBC2] (AR v2)
Copy OK

Track 16

Filename F:\CD03 - For Stompers Only (1949-1950)\16. For Stompers Only.wav

Peak level 100.0 %
Extraction speed 3.5 X
Track quality 100.0 %
Test CRC 6FA9CD72
Copy CRC 6FA9CD72
Cannot be verified as accurate (confidence 2) [D5FD5E2F], AccurateRip returned [6C91EF5B] (AR v2)
Copy OK

Track 17

Filename F:\CD03 - For Stompers Only (1949-1950)\17. Navy Blue.wav

Peak level 100.0 %
Extraction speed 3.5 X
Track quality 100.0 %
Test CRC 1F214A08
Copy CRC 1F214A08
Cannot be verified as accurate (confidence 2) [6CF21E0E], AccurateRip returned [981B3043] (AR v2)
Copy OK


16 трек(и) не удалось проверить на точность
1 трек(и) не содержатся в базе AccurateRip

No tracks could be verified as accurate
You may have a different pressing from the one(s) in the database

No errors occurred

End of status report

==== Log checksum 2798895005EC510A3D2E19326A7620022CF5CD45C0158B0099407EE7B4B83ADE ====

[CUETools log; Date: 30.01.2018 19:17:25; Version: 2.1.4]
[CTDB TOCID: mep594QRKi3lN75W2B2PXtKDtGE-] found.
Track | CTDB Status
1 | (6/6) Accurately ripped
2 | (6/6) Accurately ripped
3 | (6/6) Accurately ripped
4 | (6/6) Accurately ripped
5 | (6/6) Accurately ripped
6 | (6/6) Accurately ripped
7 | (6/6) Accurately ripped
8 | (6/6) Accurately ripped
9 | (6/6) Accurately ripped
10 | (6/6) Accurately ripped
11 | (6/6) Differs in 182 samples @00:42:03
12 | (6/6) Accurately ripped
13 | (6/6) Accurately ripped
14 | (6/6) Accurately ripped
15 | (6/6) Accurately ripped
16 | (6/6) Accurately ripped
17 | (6/6) Accurately ripped
[AccurateRip ID: 001fe535-01926e72-fb0bd511] found.
Track [ CRC | V2 ] Status
01 [496729f1|39809972] (0+2/5) Accurately ripped
02 [c08f1c38|26f270bc] (0+2/7) Accurately ripped
03 [567ed2c7|9a322bc3] (0+2/7) Accurately ripped
04 [b1d380d4|03495972] (0+2/7) Accurately ripped
05 [e8e563c8|737fc2cc] (0+2/7) Accurately ripped
06 [b8cdfd23|942236d8] (0+2/7) Accurately ripped
07 [eda085f7|8325639d] (0+2/7) Accurately ripped
08 [7be4c251|1fadd74d] (0+2/7) Accurately ripped
09 [17593647|bbbcd60a] (0+2/7) Accurately ripped
10 [cbb7f2f3|5ffb6d94] (0+2/7) Accurately ripped
11 [9d80110d|dac23942] (0+0/7) No match
12 [ea80ad25|cf1c22cb] (0+2/7) Accurately ripped
13 [d456eeae|4fe866fc] (0+2/7) Accurately ripped
14 [5079720e|7feaf64d] (0+2/7) Accurately ripped
15 [ee17f8a7|4b2ab7bb] (0+2/7) Accurately ripped
16 [2528233a|d5fd5e2f] (0+2/7) Accurately ripped
17 [8754a18a|6cf21e0e] (0+2/7) Accurately ripped
Offsetted by -6:
01 [9819c32d] (0/5) No match (V2 was not tested)
02 [2c4fe52c] (2/7) Accurately ripped
03 [8c510c7d] (2/7) Accurately ripped
04 [e0aeac3a] (2/7) Accurately ripped
05 [13496270] (2/7) Accurately ripped
06 [65d5d830] (2/7) Accurately ripped
07 [5bc30ca1] (2/7) Accurately ripped
08 [2b4a5720] (2/7) Accurately ripped
09 [255ea3e1] (2/7) Accurately ripped
10 [0adaba04] (2/7) Accurately ripped
11 [8ba41d43] (0/7) No match (V2 was not tested)
12 [fcdf25c0] (2/7) Accurately ripped
13 [a8aab4a7] (2/7) Accurately ripped
14 [f1f7772a] (2/7) Accurately ripped
15 [1489dbc2] (2/7) Accurately ripped
16 [6c91ef5b] (2/7) Accurately ripped
17 [981b3043] (2/7) Accurately ripped

Track Peak [ CRC32 ] [W/O NULL] [ LOG ]
– 100,0 [0968B15B] [DBCABC1C]
01 99,9 [494D7F85] [27096EF0] CRC32
02 99,9 [FBCC2548] [770A4DE4] CRC32
03 100,0 [E60DC3FE] [48A01A62] CRC32
04 99,9 [C9175E51] [61FECC2A] CRC32
05 100,0 [CE507A5A] [85340E1A] CRC32
06 100,0 [16449413] [1B83F26B] CRC32
07 99,9 [DFACD706] [D3AC49A2] CRC32
08 99,9 [97B074F7] [C3DAC92A] CRC32
09 100,0 [FC292E44] [B299D95B] CRC32
10 100,0 [50C606B9] [4E481169] CRC32
11 100,0 [E62835AD] [808E8D98] CRC32
12 99,9 [62762297] [12BAD99B] CRC32
13 99,9 [977D229E] [02E6A70A] CRC32
14 100,0 [2032446E] [B5B2B6BD] CRC32
15 100,0 [6335F78E] [45820588] CRC32
16 100,0 [6FA9CD72] [9030155E] CRC32
17 100,0 [1F214A08] [13FEA756] CRC32

Stan Getz - Master Of The Sax [10CD Box Set] (2011)

CD 4: Stan Getz - Don't Be Afraid (1950-1953)
EAC Rip | FLAC (tracks+.cue+log) - 192 MB | MP3 CBR 320 kbps (LAME 3.93) - 131 MB
Genre: Jazz | RAR 3% Rec. | Label: The Intense Media ‎(232755/D)

Tracklist:
01. Out Of Nowhere [02:31]
02. S Wonderful [02:57]
03. Tootsie Roll [02:12]
04. Split Kick (Alt) [03:13]
05. Split Kick [02:56]
06. S'Cool Boy [02:44]
07. Dear Old Stockholm [02:50]
08. I'm Getting Sentimental Over You [02:35]
09. I Only Have Eyes For You [03:24]
10. Prelude To A Kiss [02:54]
11. Night And Day [03:07]
12. Don't Be Afraid [03:09]
13. Flamingo [03:24]
14. Tis Autumn [03:17]
15. You Turned The Tables On Me [03:01]
16. These Foolish Thiongs [02:26]
17. Hymn Of The Orient [02:58]
18. Signal [05:40]

Total time: 55:27

Exact Audio Copy V1.0 beta 3 from 29. August 2011

EAC extraction logfile from 4. June 2013, 15:55

Stan Getz / Don't Be Afraid (CD4, 1950 - 1953)

Used drive : Optiarc DVD RW AD-5200A Adapter: 0 ID: 0

Read mode : Secure
Utilize accurate stream : Yes
Defeat audio cache : Yes
Make use of C2 pointers : No

Read offset correction : 48
Overread into Lead-In and Lead-Out : No
Fill up missing offset samples with silence : Yes
Delete leading and trailing silent blocks : No
Null samples used in CRC calculations : Yes
Used interface : Native Win32 interface for Win NT & 2000
Gap handling : Appended to previous track

Used output format : User Defined Encoder
Selected bitrate : 128 kBit/s
Quality : High
Add ID3 tag : No
Command line compressor : C:\Program Files\Exact Audio Copy\Flac\flac.exe
Additional command line options : -V -8 -T "Genre=%genre%" -T "Artist=%artist%" -T "Title=%title%" -T "Album=%albumtitle%" -T "Date=%year%" -T "Tracknumber=%tracknr%" -T "Comment=%comment%" %source%


TOC of the extracted CD

Track | Start | Length | Start sector | End sector
––––––––––––––––––––––––––––-
1 | 0:00.00 | 2:31.13 | 0 | 11337
2 | 2:31.13 | 2:57.51 | 11338 | 24663
3 | 5:28.64 | 2:12.33 | 24664 | 34596
4 | 7:41.22 | 3:13.46 | 34597 | 49117
5 | 10:54.68 | 2:56.73 | 49118 | 62390
6 | 13:51.66 | 2:44.68 | 62391 | 74758
7 | 16:36.59 | 2:50.13 | 74759 | 87521
8 | 19:26.72 | 2:35.53 | 87522 | 99199
9 | 22:02.50 | 3:24.42 | 99200 | 114541
10 | 25:27.17 | 2:54.61 | 114542 | 127652
11 | 28:22.03 | 3:07.03 | 127653 | 141680
12 | 31:29.06 | 3:09.44 | 141681 | 155899
13 | 34:38.50 | 3:24.16 | 155900 | 171215
14 | 38:02.66 | 3:17.39 | 171216 | 186029
15 | 41:20.30 | 3:01.13 | 186030 | 199617
16 | 44:21.43 | 2:26.48 | 199618 | 210615
17 | 46:48.16 | 2:58.51 | 210616 | 224016
18 | 49:46.67 | 5:40.68 | 224017 | 249584


Track 1

Filename F:\CD04 - Don't Be Afraid (1950-1953)\01. Out Of Nowhere.wav

Pre-gap length 0:00:02.00

Peak level 99.9 %
Extraction speed 2.1 X
Track quality 100.0 %
Test CRC 1EDEC4D1
Copy CRC 1EDEC4D1
Cannot be verified as accurate (confidence 2) [6672851C], AccurateRip returned [F4E4BBC3] (AR v2)
Copy OK

Track 2

Filename F:\CD04 - Don't Be Afraid (1950-1953)\02. S Wonderful.wav

Peak level 100.0 %
Extraction speed 2.4 X
Track quality 100.0 %
Test CRC 5699A7D8
Copy CRC 5699A7D8
Cannot be verified as accurate (confidence 2) [7871F8F7], AccurateRip returned [5496DFA7] (AR v2)
Copy OK

Track 3

Filename F:\CD04 - Don't Be Afraid (1950-1953)\03. Tootsie Roll.wav

Peak level 99.9 %
Extraction speed 1.9 X
Track quality 99.9 %
Test CRC 34F3D4F7
Copy CRC 34F3D4F7
Cannot be verified as accurate (confidence 2) [1037166C], AccurateRip returned [A4C3A5FD] (AR v2)
Copy OK

Track 4

Filename F:\CD04 - Don't Be Afraid (1950-1953)\04. Split Kick (Alt).wav

Peak level 100.0 %
Extraction speed 1.8 X
Track quality 99.9 %
Test CRC 815349E5
Copy CRC 815349E5
Cannot be verified as accurate (confidence 2) [89D3963E], AccurateRip returned [52F31EA5] (AR v2)
Copy OK

Track 5

Filename F:\CD04 - Don't Be Afraid (1950-1953)\05. Split Kick.wav

Peak level 100.0 %
Extraction speed 2.4 X
Track quality 99.9 %
Test CRC 988BF142
Copy CRC 988BF142
Cannot be verified as accurate (confidence 2) [FB753A83], AccurateRip returned [7E10962F] (AR v2)
Copy OK

Track 6

Filename F:\CD04 - Don't Be Afraid (1950-1953)\06. S´Cool Boy.wav

Peak level 100.0 %
Extraction speed 2.9 X
Track quality 100.0 %
Test CRC 6B552886
Copy CRC 6B552886
Cannot be verified as accurate (confidence 2) [1A2A0C41], AccurateRip returned [05087A0A] (AR v2)
Copy OK

Track 7

Filename F:\CD04 - Don't Be Afraid (1950-1953)\07. Dear Old Stockholm.wav

Peak level 100.0 %
Extraction speed 3.0 X
Track quality 100.0 %
Test CRC 265290B4
Copy CRC 265290B4
Cannot be verified as accurate (confidence 2) [06309355], AccurateRip returned [0BA4FAD4] (AR v2)
Copy OK

Track 8

Filename F:\CD04 - Don't Be Afraid (1950-1953)\08. I´m Getting Sentimental Over You.wav

Peak level 100.0 %
Extraction speed 2.6 X
Track quality 99.9 %
Test CRC 15A55E47
Copy CRC 15A55E47
Cannot be verified as accurate (confidence 2) [1DDF81E6], AccurateRip returned [15A64C0B] (AR v2)
Copy OK

Track 9

Filename F:\CD04 - Don't Be Afraid (1950-1953)\09. I Only Have Eyes For You.wav

Peak level 99.9 %
Extraction speed 3.3 X
Track quality 100.0 %
Test CRC 588C13F9
Copy CRC 588C13F9
Cannot be verified as accurate (confidence 2) [444CEC56], AccurateRip returned [5F06BC54] (AR v2)
Copy OK

Track 10

Filename F:\CD04 - Don't Be Afraid (1950-1953)\10. Prelude To A Kiss.wav

Peak level 100.0 %
Extraction speed 3.3 X
Track quality 100.0 %
Test CRC 85DC59E3
Copy CRC 85DC59E3
Cannot be verified as accurate (confidence 2) [7A47E0EE], AccurateRip returned [E0977843] (AR v2)
Copy OK

Track 11

Filename F:\CD04 - Don't Be Afraid (1950-1953)\11. Night And Day.wav

Peak level 100.0 %
Extraction speed 3.4 X
Track quality 100.0 %
Test CRC 10286461
Copy CRC 10286461
Cannot be verified as accurate (confidence 2) [5122FB02], AccurateRip returned [13824476] (AR v2)
Copy OK

Track 12

Filename F:\CD04 - Don't Be Afraid (1950-1953)\12. Don´t Be Afraid.wav

Peak level 99.9 %
Extraction speed 3.0 X
Track quality 99.9 %
Test CRC 06ECED0E
Copy CRC 06ECED0E
Cannot be verified as accurate (confidence 2) [9D78CC45], AccurateRip returned [B800DEE1] (AR v2)
Copy OK

Track 13

Filename F:\CD04 - Don't Be Afraid (1950-1953)\13. Flamingo.wav

Peak level 100.0 %
Extraction speed 3.5 X
Track quality 100.0 %
Test CRC 94540036
Copy CRC 94540036
Cannot be verified as accurate (confidence 2) [69E769F9], AccurateRip returned [68802AFF] (AR v2)
Copy OK

Track 14

Filename F:\CD04 - Don't Be Afraid (1950-1953)\14. Tis Autumn.wav

Peak level 100.0 %
Extraction speed 3.0 X
Track quality 99.9 %
Test CRC 9C9C2B4B
Copy CRC 9C9C2B4B
Cannot be verified as accurate (confidence 2) [DE201E69], AccurateRip returned [C54892B5] (AR v2)
Copy OK

Track 15

Filename F:\CD04 - Don't Be Afraid (1950-1953)\15. You Turned The Tables On Me.wav

Peak level 99.9 %
Extraction speed 3.5 X
Track quality 100.0 %
Test CRC 10B8DD08
Copy CRC 10B8DD08
Cannot be verified as accurate (confidence 2) [9C9AF76D], AccurateRip returned [E45C25B0] (AR v2)
Copy OK

Track 16

Filename F:\CD04 - Don't Be Afraid (1950-1953)\16. These Foolish Thiongs.wav

Peak level 100.0 %
Extraction speed 3.4 X
Track quality 100.0 %
Test CRC 1E027DEC
Copy CRC 1E027DEC
Cannot be verified as accurate (confidence 2) [B9282C60], AccurateRip returned [57D8C9DF] (AR v2)
Copy OK

Track 17

Filename F:\CD04 - Don't Be Afraid (1950-1953)\17. Hymn Of The Orient.wav

Peak level 100.0 %
Extraction speed 3.5 X
Track quality 100.0 %
Test CRC 69E500DB
Copy CRC 69E500DB
Cannot be verified as accurate (confidence 2) [C67C1937], AccurateRip returned [9008FBCC] (AR v2)
Copy OK

Track 18

Filename F:\CD04 - Don't Be Afraid (1950-1953)\18. Signal.wav

Peak level 100.0 %
Extraction speed 3.7 X
Track quality 100.0 %
Test CRC 1B4C8F9E
Copy CRC 1B4C8F9E
Cannot be verified as accurate (confidence 1) [2B0B4ADB], AccurateRip returned [CD001B55] (AR v2)
Copy OK


No tracks could be verified as accurate
You may have a different pressing from the one(s) in the database

No errors occurred

End of status report

==== Log checksum 99ECC14E51C8CF59450C998BA8F88A47BFECA13F68F9CDC9E7FEEA58029CD38B ====

[CUETools log; Date: 30.01.2018 19:36:39; Version: 2.1.4]
[CTDB TOCID: 0Ot8y0RXz5nKSU3GPkdFpqFhmv4-] found.
Track | CTDB Status
1 | (7/7) Accurately ripped
2 | (7/7) Accurately ripped
3 | (7/7) Accurately ripped
4 | (7/7) Differs in 183 samples @01:19:52
5 | (7/7) Accurately ripped
6 | (7/7) Accurately ripped
7 | (7/7) Accurately ripped
8 | (7/7) Accurately ripped
9 | (7/7) Accurately ripped
10 | (7/7) Accurately ripped
11 | (7/7) Accurately ripped
12 | (7/7) Accurately ripped
13 | (7/7) Accurately ripped
14 | (7/7) Accurately ripped
15 | (7/7) Accurately ripped
16 | (7/7) Accurately ripped
17 | (7/7) Accurately ripped
18 | (7/7) Accurately ripped
[AccurateRip ID: 0021f13f-01c9850c-030cff12] found.
Track [ CRC | V2 ] Status
01 [aed6eb82|6672851c] (0+2/7) Accurately ripped
02 [076a65b1|7871f8f7] (0+2/7) Accurately ripped
03 [349594db|1037166c] (0+2/7) Accurately ripped
04 [9b257325|89d3963e] (0+0/7) No match
05 [beea2602|fb753a83] (0+2/7) Accurately ripped
06 [5f2c5ea9|1a2a0c41] (0+2/7) Accurately ripped
07 [0fb7119f|06309355] (0+2/7) Accurately ripped
08 [56c496ef|1ddf81e6] (0+2/7) Accurately ripped
09 [e619c919|444cec56] (0+2/7) Accurately ripped
10 [f9cfc0e7|7a47e0ee] (0+2/7) Accurately ripped
11 [8c8fada1|5122fb02] (0+2/7) Accurately ripped
12 [4e2953d2|9d78cc45] (0+2/7) Accurately ripped
13 [ec7cd7c7|69e769f9] (0+2/7) Accurately ripped
14 [854531a8|de201e69] (0+2/7) Accurately ripped
15 [f70b1b45|9c9af76d] (0+2/7) Accurately ripped
16 [10969215|b9282c60] (0+2/7) Accurately ripped
17 [0d31d7ef|c67c1937] (0+2/7) Accurately ripped
18 [5fade77b|2b0b4adb] (0+2/5) Accurately ripped
Offsetted by -6:
01 [f4e4bbc3] (2/7) Accurately ripped
02 [5496dfa7] (2/7) Accurately ripped
03 [a4c3a5fd] (2/7) Accurately ripped
04 [4c4f62e5] (0/7) No match (V2 was not tested)
05 [7e10962f] (2/7) Accurately ripped
06 [05087a0a] (2/7) Accurately ripped
07 [0ba4fad4] (2/7) Accurately ripped
08 [15a64c0b] (2/7) Accurately ripped
09 [5f06bc54] (2/7) Accurately ripped
10 [e0977843] (2/7) Accurately ripped
11 [13824476] (2/7) Accurately ripped
12 [b800dee1] (2/7) Accurately ripped
13 [68802aff] (2/7) Accurately ripped
14 [c54892b5] (2/7) Accurately ripped
15 [e45c25b0] (2/7) Accurately ripped
16 [57d8c9df] (2/7) Accurately ripped
17 [9008fbcc] (2/7) Accurately ripped
18 [cd001b55] (0/5) No match (V2 was not tested)

Track Peak [ CRC32 ] [W/O NULL] [ LOG ]
– 100,0 [CB4CB0E4] [D2BDD07A]
01 99,9 [1EDEC4D1] [D93B78C4] CRC32
02 100,0 [5699A7D8] [C3C34213] CRC32
03 99,9 [34F3D4F7] [F7CF6D0A] CRC32
04 100,0 [815349E5] [5A587A34] CRC32
05 100,0 [988BF142] [565686D1] CRC32
06 100,0 [6B552886] [70D6F736] CRC32
07 100,0 [265290B4] [16AF9000] CRC32
08 99,9 [15A55E47] [8EF20403] CRC32
09 99,9 [588C13F9] [70968B88] CRC32
10 99,9 [85DC59E3] [ED44B0C9] CRC32
11 100,0 [10286461] [0A19F031] CRC32
12 99,9 [06ECED0E] [C34D0FA9] CRC32
13 99,9 [94540036] [202B71A4] CRC32
14 100,0 [9C9C2B4B] [80C646E5] CRC32
15 99,9 [10B8DD08] [BA5A1705] CRC32
16 99,9 [1E027DEC] [38593757] CRC32
17 100,0 [69E500DB] [AE82FC49] CRC32
18 100,0 [1B4C8F9E] [79C83546] CRC32

Stan Getz - Master Of The Sax [10CD Box Set] (2011)

CD 5: Stan Getz - Cool Mix (1953)
EAC Rip | FLAC (tracks+.cue+log) - 258 MB | MP3 CBR 320 kbps (LAME 3.93) - 121 MB
Genre: Jazz | RAR 3% Rec. | Label: The Intense Media ‎(232755/E)

Tracklist:
01. Lee [04:19]
02. Round Midnight [05:20]
03. Motion [05:22]
04. Cool Mix [03:06]
05. Rustic Hop [03:47]
06. Have You Met Miss Jones [03:17]
07. Erudition [03:12]
08. It Don't Mean A Thing [06:40]
09. Exactly Like You [05:00]
10. Impromptu [07:49]
11. Girl Of My Dreams [03:16]

Total time: 51:12

Exact Audio Copy V1.0 beta 3 from 29. August 2011

EAC extraction logfile from 4. June 2013, 16:41

Stan Getz / Cool Mix (CD5, 1953)

Used drive : Optiarc DVD RW AD-5200A Adapter: 0 ID: 0

Read mode : Secure
Utilize accurate stream : Yes
Defeat audio cache : Yes
Make use of C2 pointers : No

Read offset correction : 48
Overread into Lead-In and Lead-Out : No
Fill up missing offset samples with silence : Yes
Delete leading and trailing silent blocks : No
Null samples used in CRC calculations : Yes
Used interface : Native Win32 interface for Win NT & 2000
Gap handling : Appended to previous track

Used output format : User Defined Encoder
Selected bitrate : 128 kBit/s
Quality : High
Add ID3 tag : No
Command line compressor : C:\Program Files\Exact Audio Copy\Flac\flac.exe
Additional command line options : -V -8 -T "Genre=%genre%" -T "Artist=%artist%" -T "Title=%title%" -T "Album=%albumtitle%" -T "Date=%year%" -T "Tracknumber=%tracknr%" -T "Comment=%comment%" %source%


TOC of the extracted CD

Track | Start | Length | Start sector | End sector
––––––––––––––––––––––––––––-
1 | 0:00.00 | 4:19.14 | 0 | 19438
2 | 4:19.14 | 5:20.09 | 19439 | 43447
3 | 9:39.23 | 5:22.18 | 43448 | 67615
4 | 15:01.41 | 3:06.40 | 67616 | 81605
5 | 18:08.06 | 3:47.74 | 81606 | 98704
6 | 21:56.05 | 3:17.20 | 98705 | 113499
7 | 25:13.25 | 3:12.45 | 113500 | 127944
8 | 28:25.70 | 6:40.08 | 127945 | 157952
9 | 35:06.03 | 5:00.14 | 157953 | 180466
10 | 40:06.17 | 7:49.69 | 180467 | 215710
11 | 47:56.11 | 3:16.54 | 215711 | 230464


Track 1

Filename F:\CD05 - Cool Mix (1953)\01. Lee.wav

Pre-gap length 0:00:02.00

Peak level 100.0 %
Extraction speed 2.4 X
Track quality 100.0 %
Test CRC 0C7FEEF0
Copy CRC 0C7FEEF0
Cannot be verified as accurate (confidence 2) [24258BC8], AccurateRip returned [D104EF32] (AR v2)
Copy OK

Track 2

Filename F:\CD05 - Cool Mix (1953)\02. Round Midnight.wav

Pre-gap length 0:00:02.00

Peak level 100.0 %
Extraction speed 2.7 X
Track quality 100.0 %
Test CRC 0B17DD36
Copy CRC 0B17DD36
Cannot be verified as accurate (confidence 2) [C744F810], AccurateRip returned [C579E716] (AR v2)
Copy OK

Track 3

Filename F:\CD05 - Cool Mix (1953)\03. Motion.wav

Pre-gap length 0:00:02.00

Peak level 99.9 %
Extraction speed 3.0 X
Track quality 100.0 %
Test CRC 132E8313
Copy CRC 132E8313
Cannot be verified as accurate (confidence 2) [ACF26CD5], AccurateRip returned [BC73C5AC] (AR v2)
Copy OK

Track 4

Filename F:\CD05 - Cool Mix (1953)\04. Cool Mix.wav

Pre-gap length 0:00:02.00

Peak level 99.9 %
Extraction speed 2.6 X
Track quality 99.9 %
Test CRC B00EF4D6
Copy CRC B00EF4D6
Cannot be verified as accurate (confidence 2) [87DD1819], AccurateRip returned [3D0DD2C8] (AR v2)
Copy OK

Track 5

Filename F:\CD05 - Cool Mix (1953)\05. Rustic Hop.wav

Pre-gap length 0:00:02.00

Peak level 100.0 %
Extraction speed 3.2 X
Track quality 100.0 %
Test CRC 0B12134E
Copy CRC 0B12134E
Cannot be verified as accurate (confidence 2) [03421FA0], AccurateRip returned [DBC264B5] (AR v2)
Copy OK

Track 6

Filename F:\CD05 - Cool Mix (1953)\06. Have You Met Miss Jones.wav

Pre-gap length 0:00:02.00

Peak level 100.0 %
Extraction speed 3.3 X
Track quality 100.0 %
Test CRC 5B8F1DE2
Copy CRC 5B8F1DE2
Cannot be verified as accurate (confidence 2) [1BF3DC55], AccurateRip returned [31AA14FA] (AR v2)
Copy OK

Track 7

Filename F:\CD05 - Cool Mix (1953)\07. Erudition.wav

Pre-gap length 0:00:02.00

Peak level 100.0 %
Extraction speed 3.4 X
Track quality 100.0 %
Test CRC B24DBE78
Copy CRC B24DBE78
Cannot be verified as accurate (confidence 2) [76A80713], AccurateRip returned [8A56842C] (AR v2)
Copy OK

Track 8

Filename F:\CD05 - Cool Mix (1953)\08. It Don´t Mean A Thing.wav

Pre-gap length 0:00:02.00

Peak level 99.9 %
Extraction speed 3.7 X
Track quality 100.0 %
Test CRC 7F5BC7AF
Copy CRC 7F5BC7AF
Cannot be verified as accurate (confidence 2) [C3A38408], AccurateRip returned [2305C9EA] (AR v2)
Copy OK

Track 9

Filename F:\CD05 - Cool Mix (1953)\09. Exactly Like You.wav

Pre-gap length 0:00:02.00

Peak level 100.0 %
Extraction speed 3.7 X
Track quality 100.0 %
Test CRC 05A14C87
Copy CRC 05A14C87
Cannot be verified as accurate (confidence 2) [0F0C3775], AccurateRip returned [BF985FEB] (AR v2)
Copy OK

Track 10

Filename F:\CD05 - Cool Mix (1953)\10. Impromptu.wav

Pre-gap length 0:00:02.00

Peak level 100.0 %
Extraction speed 3.8 X
Track quality 100.0 %
Test CRC CF6EE6F4
Copy CRC CF6EE6F4
Cannot be verified as accurate (confidence 2) [42434363], AccurateRip returned [AE5C85CC] (AR v2)
Copy OK

Track 11

Filename F:\CD05 - Cool Mix (1953)\11. Girl Of My Dreams.wav

Pre-gap length 0:00:02.00

Peak level 100.0 %
Extraction speed 3.5 X
Track quality 100.0 %
Test CRC D2C4342B
Copy CRC D2C4342B
Cannot be verified as accurate (confidence 2) [F7BB0F41], AccurateRip returned [73568C33] (AR v2)
Copy OK


No tracks could be verified as accurate
You may have a different pressing from the one(s) in the database

No errors occurred

End of status report

==== Log checksum 60AC83BA6B2EA1045BBC44428C4A20E5432CD6DB1639AC711F45BE729DDDA5EE ====

[CUETools log; Date: 30.01.2018 19:38:10; Version: 2.1.4]
[CTDB TOCID: v74mEbeEeneS5Pz1owWWE9udr9E-] found.
Track | CTDB Status
1 | (7/7) Accurately ripped
2 | (7/7) Accurately ripped
3 | (7/7) Accurately ripped
4 | (7/7) Accurately ripped
5 | (7/7) Accurately ripped
6 | (7/7) Accurately ripped
7 | (7/7) Accurately ripped
8 | (7/7) Accurately ripped
9 | (7/7) Accurately ripped
10 | (7/7) Accurately ripped
11 | (7/7) Accurately ripped
[AccurateRip ID: 00146617-00b158ff-890c000b] found.
Track [ CRC | V2 ] Status
01 [0d6c0537|24258bc8] (0+2/7) Accurately ripped
02 [ac70cf8a|c744f810] (0+2/7) Accurately ripped
03 [33e50388|acf26cd5] (0+2/7) Accurately ripped
04 [f8bffd1e|87dd1819] (0+2/7) Accurately ripped
05 [03126da9|03421fa0] (0+2/7) Accurately ripped
06 [2c58376e|1bf3dc55] (0+2/7) Accurately ripped
07 [71c754e2|76a80713] (0+2/7) Accurately ripped
08 [7fd6a658|c3a38408] (0+2/7) Accurately ripped
09 [389374ef|0f0c3775] (0+2/7) Accurately ripped
10 [61f6a6b4|42434363] (0+2/7) Accurately ripped
11 [b6ee3b45|f7bb0f41] (0+2/7) Accurately ripped
Offsetted by -6:
01 [d104ef32] (2/7) Accurately ripped
02 [c579e716] (2/7) Accurately ripped
03 [bc73c5ac] (2/7) Accurately ripped
04 [3d0dd2c8] (2/7) Accurately ripped
05 [dbc264b5] (2/7) Accurately ripped
06 [31aa14fa] (2/7) Accurately ripped
07 [8a56842c] (2/7) Accurately ripped
08 [2305c9ea] (2/7) Accurately ripped
09 [bf985feb] (2/7) Accurately ripped
10 [ae5c85cc] (2/7) Accurately ripped
11 [73568c33] (2/7) Accurately ripped

Track Peak [ CRC32 ] [W/O NULL] [ LOG ]
– 100,0 [DD44A121] [5F414C59]
01 100,0 [0C7FEEF0] [49470CD2] CRC32
02 100,0 [0B17DD36] [CBFDBD82] CRC32
03 99,9 [132E8313] [02C7E008] CRC32
04 99,9 [B00EF4D6] [15FDEA70] CRC32
05 100,0 [0B12134E] [920FD87E] CRC32
06 100,0 [5B8F1DE2] [9519545A] CRC32
07 100,0 [B24DBE78] [F58D0140] CRC32
08 99,9 [7F5BC7AF] [A09D6447] CRC32
09 100,0 [05A14C87] [B51DF8A2] CRC32
10 100,0 [CF6EE6F4] [52BB3180] CRC32
11 100,0 [D2C4342B] [7548D551] CRC32

Stan Getz - Master Of The Sax [10CD Box Set] (2011)

CD 6: Stan Getz - Nobody Else But Me (1953-1954)
EAC Rip | FLAC (tracks+.cue+log) - 243 MB | MP3 CBR 320 kbps (LAME 3.93) - 124 MB
Genre: Jazz | RAR 3% Rec. | Label: The Intense Media ‎(232755/F)

Tracklist:
01. Siboney, Pt.1 [04:25]
02. Siboney, Pt.2 [04:11]
03. Nobody Else But Me [03:34]
04. With The Wind And The Rain In Your Hair [03:48]
05. Flamingo [07:27]
06. Give Me The Simple Life [05:54]
07. Oh Jane Snavely [06:08]
08. We'll Be Together Again [08:44]
09. Father Merchant [08:14]

Total time: 52:29

Exact Audio Copy V1.0 beta 3 from 29. August 2011

EAC extraction logfile from 4. June 2013, 17:45

Stan Getz / Nobody Else But Me (CD6, 1953 - 1954)

Used drive : Optiarc DVD RW AD-5200A Adapter: 0 ID: 0

Read mode : Secure
Utilize accurate stream : Yes
Defeat audio cache : Yes
Make use of C2 pointers : No

Read offset correction : 48
Overread into Lead-In and Lead-Out : No
Fill up missing offset samples with silence : Yes
Delete leading and trailing silent blocks : No
Null samples used in CRC calculations : Yes
Used interface : Native Win32 interface for Win NT & 2000
Gap handling : Appended to previous track

Used output format : User Defined Encoder
Selected bitrate : 128 kBit/s
Quality : High
Add ID3 tag : No
Command line compressor : C:\Program Files\Exact Audio Copy\Flac\flac.exe
Additional command line options : -V -8 -T "Genre=%genre%" -T "Artist=%artist%" -T "Title=%title%" -T "Album=%albumtitle%" -T "Date=%year%" -T "Tracknumber=%tracknr%" -T "Comment=%comment%" %source%


TOC of the extracted CD

Track | Start | Length | Start sector | End sector
––––––––––––––––––––––––––––-
1 | 0:00.00 | 4:25.34 | 0 | 19908
2 | 4:25.34 | 4:11.60 | 19909 | 38793
3 | 8:37.19 | 3:34.36 | 38794 | 54879
4 | 12:11.55 | 3:48.10 | 54880 | 71989
5 | 15:59.65 | 7:27.42 | 71990 | 105556
6 | 23:27.32 | 5:54.31 | 105557 | 132137
7 | 29:21.63 | 6:08.26 | 132138 | 159763
8 | 35:30.14 | 8:44.68 | 159764 | 199131
9 | 44:15.07 | 8:14.49 | 199132 | 236230


Track 1

Filename F:\CD06 - Nobody Else But Me (1953-1954)\01. Siboney, Pt.1.wav

Pre-gap length 0:00:02.00

Peak level 100.0 %
Extraction speed 2.4 X
Track quality 100.0 %
Test CRC 5FA85FD7
Copy CRC 5FA85FD7
Cannot be verified as accurate (confidence 2) [5AA5B6A6], AccurateRip returned [8985F81D] (AR v2)
Copy OK

Track 2

Filename F:\CD06 - Nobody Else But Me (1953-1954)\02. Siboney, Pt.2.wav

Pre-gap length 0:00:02.00

Peak level 100.0 %
Extraction speed 2.6 X
Track quality 100.0 %
Test CRC DA91DB1B
Copy CRC DA91DB1B
Cannot be verified as accurate (confidence 2) [D1015E02], AccurateRip returned [077752F5] (AR v2)
Copy OK

Track 3

Filename F:\CD06 - Nobody Else But Me (1953-1954)\03. Nobody Else But Me.wav

Pre-gap length 0:00:02.00

Peak level 100.0 %
Extraction speed 2.4 X
Track quality 99.9 %
Test CRC 6D6A90E2
Copy CRC 6D6A90E2
Cannot be verified as accurate (confidence 2) [F18903F3], AccurateRip returned [21B04002] (AR v2)
Copy OK

Track 4

Filename F:\CD06 - Nobody Else But Me (1953-1954)\04. With The Wind And The Rain In Your Hair.wav

Pre-gap length 0:00:02.00

Peak level 100.0 %
Extraction speed 3.0 X
Track quality 100.0 %
Test CRC 45EA8906
Copy CRC 45EA8906
Cannot be verified as accurate (confidence 2) [3F982E3D], AccurateRip returned [CC2F4398] (AR v2)
Copy OK

Track 5

Filename F:\CD06 - Nobody Else But Me (1953-1954)\05. Flamingo.wav

Pre-gap length 0:00:02.00

Peak level 99.9 %
Extraction speed 3.4 X
Track quality 100.0 %
Test CRC 9E969DD3
Copy CRC 9E969DD3
Cannot be verified as accurate (confidence 2) [E9A00A70], AccurateRip returned [36AC860B] (AR v2)
Copy OK

Track 6

Filename F:\CD06 - Nobody Else But Me (1953-1954)\06. Give Me The Simple Life.wav

Pre-gap length 0:00:02.00

Peak level 100.0 %
Extraction speed 3.6 X
Track quality 100.0 %
Test CRC 4B5FC349
Copy CRC 4B5FC349
Cannot be verified as accurate (confidence 2) [F0FFF9D5], AccurateRip returned [AB901E15] (AR v2)
Copy OK

Track 7

Filename F:\CD06 - Nobody Else But Me (1953-1954)\07. Oh Jane Snavely.wav

Pre-gap length 0:00:02.00

Peak level 100.0 %
Extraction speed 3.7 X
Track quality 100.0 %
Test CRC C7A2D0E8
Copy CRC C7A2D0E8
Cannot be verified as accurate (confidence 2) [A01C1DD1], AccurateRip returned [76B2B908] (AR v2)
Copy OK

Track 8

Filename F:\CD06 - Nobody Else But Me (1953-1954)\08. We´ll Be Together Again.wav

Pre-gap length 0:00:02.00

Peak level 99.9 %
Extraction speed 3.6 X
Track quality 99.9 %
Test CRC 52B407A4
Copy CRC 52B407A4
Cannot be verified as accurate (confidence 2) [7421171E], AccurateRip returned [BBE31C07] (AR v2)
Copy OK

Track 9

Filename F:\CD06 - Nobody Else But Me (1953-1954)\09. Father Merchant.wav

Pre-gap length 0:00:02.00

Peak level 100.0 %
Extraction speed 3.6 X
Track quality 99.9 %
Test CRC FF22A7C8
Copy CRC FF22A7C8
Cannot be verified as accurate (confidence 2) [A8F7898A], AccurateRip returned [1427ECD8] (AR v2)
Copy OK


No tracks could be verified as accurate
You may have a different pressing from the one(s) in the database

No errors occurred

End of status report

==== Log checksum 7C80ED484C64A57FD4B1576C3D406226C8F6C88E70C335FA4E4AEDBF420CC2A5 ====

[CUETools log; Date: 30.01.2018 19:38:51; Version: 2.1.4]
[CTDB TOCID: DzzRtA3MLDFKaF9RnaY.9N55lU0-] found.
Track | CTDB Status
1 | (7/7) Accurately ripped
2 | (7/7) Accurately ripped
3 | (7/7) Accurately ripped
4 | (7/7) Accurately ripped
5 | (7/7) Accurately ripped
6 | (7/7) Accurately ripped
7 | (7/7) Accurately ripped
8 | (7/7) Accurately ripped
9 | (7/7) Accurately ripped
[AccurateRip ID: 000f8a1b-0075e5fd-780c4d09] found.
Track [ CRC | V2 ] Status
01 [a8660985|5aa5b6a6] (0+2/7) Accurately ripped
02 [9a870d93|d1015e02] (0+2/7) Accurately ripped
03 [af0114dc|f18903f3] (0+2/7) Accurately ripped
04 [54ccb5ac|3f982e3d] (0+2/7) Accurately ripped
05 [1976b2c7|e9a00a70] (0+2/7) Accurately ripped
06 [8e141389|f0fff9d5] (0+2/7) Accurately ripped
07 [930caf80|a01c1dd1] (0+2/7) Accurately ripped
08 [1eec3fc1|7421171e] (0+2/7) Accurately ripped
09 [fb0ef1bb|a8f7898a] (0+2/7) Accurately ripped
Offsetted by -6:
01 [8985f81d] (2/7) Accurately ripped
02 [077752f5] (2/7) Accurately ripped
03 [21b04002] (2/7) Accurately ripped
04 [cc2f4398] (2/7) Accurately ripped
05 [36ac860b] (2/7) Accurately ripped
06 [ab901e15] (2/7) Accurately ripped
07 [76b2b908] (2/7) Accurately ripped
08 [bbe31c07] (2/7) Accurately ripped
09 [1427ecd8] (2/7) Accurately ripped

Track Peak [ CRC32 ] [W/O NULL] [ LOG ]
– 100,0 [92C91125] [6D590985]
01 100,0 [5FA85FD7] [12B86BF6] CRC32
02 100,0 [DA91DB1B] [07CD8F55] CRC32
03 100,0 [6D6A90E2] [373C268A] CRC32
04 99,9 [45EA8906] [3E4C3A2A] CRC32
05 99,9 [9E969DD3] [5DC264D5] CRC32
06 100,0 [4B5FC349] [6AFC29B6] CRC32
07 99,9 [C7A2D0E8] [3DA405EE] CRC32
08 99,9 [52B407A4] [2A1FBAA5] CRC32
09 100,0 [FF22A7C8] [E269FB18] CRC32

Stan Getz - Master Of The Sax [10CD Box Set] (2011)

CD 7: Stan Getz - I'll Remember April (1954-1955)
EAC Rip | FLAC (tracks+.cue+log) - 236 MB | MP3 CBR 320 kbps (LAME 3.93) - 118 MB
Genre: Jazz | RAR 3% Rec. | Label: The Intense Media ‎(232755/G)

Tracklist:
01. I'll Remember April [10:58]
02. Cherokee [09:18]
03. Ballad Medley [08:10]
04. Louise [06:49]
05. Jumpin? At The Woodside [08:25]
06. Gladys (Alt) [06:13]

Total time: 49:54

Exact Audio Copy V1.0 beta 3 from 29. August 2011

EAC extraction logfile from 4. June 2013, 18:30

Stan Getz / I'll Remember April (CD7, 1954 - 1955)

Used drive : Optiarc DVD RW AD-5200A Adapter: 0 ID: 0

Read mode : Secure
Utilize accurate stream : Yes
Defeat audio cache : Yes
Make use of C2 pointers : No

Read offset correction : 48
Overread into Lead-In and Lead-Out : No
Fill up missing offset samples with silence : Yes
Delete leading and trailing silent blocks : No
Null samples used in CRC calculations : Yes
Used interface : Native Win32 interface for Win NT & 2000
Gap handling : Appended to previous track

Used output format : User Defined Encoder
Selected bitrate : 128 kBit/s
Quality : High
Add ID3 tag : No
Command line compressor : C:\Program Files\Exact Audio Copy\Flac\flac.exe
Additional command line options : -V -8 -T "Genre=%genre%" -T "Artist=%artist%" -T "Title=%title%" -T "Album=%albumtitle%" -T "Date=%year%" -T "Tracknumber=%tracknr%" -T "Comment=%comment%" %source%


TOC of the extracted CD

Track | Start | Length | Start sector | End sector
––––––––––––––––––––––––––––-
1 | 0:00.00 | 10:58.31 | 0 | 49380
2 | 10:58.31 | 9:18.04 | 49381 | 91234
3 | 20:16.35 | 8:10.11 | 91235 | 127995
4 | 28:26.46 | 6:49.27 | 127996 | 158697
5 | 35:15.73 | 8:25.59 | 158698 | 196631
6 | 43:41.57 | 6:13.12 | 196632 | 224618


Track 1

Filename F:\CD07 - I'll Remember April (1954-1955)\01. I´ll Remember April.wav

Pre-gap length 0:00:02.00

Peak level 100.0 %
Extraction speed 2.8 X
Track quality 100.0 %
Test CRC AD6ED719
Copy CRC AD6ED719
Cannot be verified as accurate (confidence 2) [0BFC3975], AccurateRip returned [D3436474] (AR v2)
Copy OK

Track 2

Filename F:\CD07 - I'll Remember April (1954-1955)\02. Cherokee.wav

Pre-gap length 0:00:02.00

Peak level 99.9 %
Extraction speed 3.3 X
Track quality 100.0 %
Test CRC 5B05186F
Copy CRC 5B05186F
Cannot be verified as accurate (confidence 2) [1EBE7D8A], AccurateRip returned [D8C87A6A] (AR v2)
Copy OK

Track 3

Filename F:\CD07 - I'll Remember April (1954-1955)\03. Ballad Medley.wav

Pre-gap length 0:00:02.00

Peak level 99.9 %
Extraction speed 3.6 X
Track quality 100.0 %
Test CRC B3C78597
Copy CRC B3C78597
Cannot be verified as accurate (confidence 2) [83CCE166], AccurateRip returned [218959CF] (AR v2)
Copy OK

Track 4

Filename F:\CD07 - I'll Remember April (1954-1955)\04. Louise.wav

Pre-gap length 0:00:02.00

Peak level 100.0 %
Extraction speed 3.4 X
Track quality 99.9 %
Test CRC 7FD96A55
Copy CRC 7FD96A55
Cannot be verified as accurate (confidence 2) [A84CEF83], AccurateRip returned [03C6007E] (AR v2)
Copy OK

Track 5

Filename F:\CD07 - I'll Remember April (1954-1955)\05. Jumpin´ At The Woodside.wav

Pre-gap length 0:00:02.00

Peak level 100.0 %
Extraction speed 3.7 X
Track quality 100.0 %
Test CRC A97E9F1F
Copy CRC A97E9F1F
Cannot be verified as accurate (confidence 2) [17F6061F], AccurateRip returned [E03973DD] (AR v2)
Copy OK

Track 6

Filename F:\CD07 - I'll Remember April (1954-1955)\06. Gladys (Alt).wav

Pre-gap length 0:00:02.00

Peak level 100.0 %
Extraction speed 3.4 X
Track quality 99.9 %
Test CRC 3526A516
Copy CRC 3526A516
Cannot be verified as accurate (confidence 2) [5A1B17A4], AccurateRip returned [2ADA7321] (AR v2)
Copy OK


No tracks could be verified as accurate
You may have a different pressing from the one(s) in the database

No errors occurred

End of status report

==== Log checksum 62177181C8532170471473C212BB633A4D964444DD54143FAACA383E30CDCC1B ====

[CUETools log; Date: 30.01.2018 19:39:21; Version: 2.1.4]
[CTDB TOCID: kt7MGAN03ldYnkLGpSiY.w2UrWI-] found.
Track | CTDB Status
1 | (7/7) Accurately ripped
2 | (7/7) Accurately ripped
3 | (7/7) Accurately ripped
4 | (7/7) Accurately ripped
5 | (7/7) Accurately ripped
6 | (6/7) Accurately ripped
[AccurateRip ID: 000cf2b1-004398f3-420bb206] found.
Track [ CRC | V2 ] Status
01 [55badefe|0bfc3975] (0+2/6) Accurately ripped
02 [22dd0f9e|1ebe7d8a] (0+2/7) Accurately ripped
03 [98e8a6fb|83cce166] (0+2/7) Accurately ripped
04 [afc94882|a84cef83] (0+2/7) Accurately ripped
05 [6009f6dd|17f6061f] (0+2/7) Accurately ripped
06 [fbe7944f|5a1b17a4] (0+2/7) Accurately ripped
Offsetted by -6:
01 [d3436474] (2/6) Accurately ripped
02 [d8c87a6a] (2/7) Accurately ripped
03 [218959cf] (2/7) Accurately ripped
04 [03c6007e] (2/7) Accurately ripped
05 [e03973dd] (2/7) Accurately ripped
06 [2ada7321] (2/7) Accurately ripped

Track Peak [ CRC32 ] [W/O NULL] [ LOG ]
– 100,0 [3210EFE7] [84E1E61A]
01 99,9 [AD6ED719] [3EB50D0F] CRC32
02 99,9 [5B05186F] [87A1D6E3] CRC32
03 99,9 [B3C78597] [E34BEA24] CRC32
04 100,0 [7FD96A55] [76FABCBB] CRC32
05 100,0 [A97E9F1F] [74DC468B] CRC32
06 100,0 [3526A516] [1E85A4F2] CRC32

Stan Getz - Master Of The Sax [10CD Box Set] (2011)

CD 8: Stan Getz - Indiana (1955)
EAC Rip | FLAC (tracks+.cue+log) - 280 MB | MP3 CBR 320 kbps (LAME 3.93) - 101 MB
Genre: Jazz | RAR 3% Rec. | Label: The Intense Media ‎(232755/H)

Tracklist:
01. Gladys [07:46]
02. Headache [05:07]
03. Of Thee I Sing [04:08]
04. A Handful of Stars [03:18]
05. Love Is Here to Stay [03:23]
06. Serenade In Blue [03:52]
07. Indiana [04:51]
08. Without A Song [04:38]
09. I Don't Stand a Ghost Of a Chance With You [05:48]

Total time: 42:54

Exact Audio Copy V1.0 beta 3 from 29. August 2011

EAC extraction logfile from 4. June 2013, 19:12

Stan Getz / Indiana (CD8, 1955)

Used drive : Optiarc DVD RW AD-5200A Adapter: 0 ID: 0

Read mode : Secure
Utilize accurate stream : Yes
Defeat audio cache : Yes
Make use of C2 pointers : No

Read offset correction : 48
Overread into Lead-In and Lead-Out : No
Fill up missing offset samples with silence : Yes
Delete leading and trailing silent blocks : No
Null samples used in CRC calculations : Yes
Used interface : Native Win32 interface for Win NT & 2000
Gap handling : Appended to previous track

Used output format : User Defined Encoder
Selected bitrate : 128 kBit/s
Quality : High
Add ID3 tag : No
Command line compressor : C:\Program Files\Exact Audio Copy\Flac\flac.exe
Additional command line options : -V -8 -T "Genre=%genre%" -T "Artist=%artist%" -T "Title=%title%" -T "Album=%albumtitle%" -T "Date=%year%" -T "Tracknumber=%tracknr%" -T "Comment=%comment%" %source%


TOC of the extracted CD

Track | Start | Length | Start sector | End sector
––––––––––––––––––––––––––––-
1 | 0:00.00 | 7:46.00 | 0 | 34949
2 | 7:46.00 | 5:07.48 | 34950 | 58022
3 | 12:53.48 | 4:08.37 | 58023 | 76659
4 | 17:02.10 | 3:18.48 | 76660 | 91557
5 | 20:20.58 | 3:23.18 | 91558 | 106800
6 | 23:44.01 | 3:52.14 | 106801 | 124214
7 | 27:36.15 | 4:51.21 | 124215 | 146060
8 | 32:27.36 | 4:38.58 | 146061 | 166968
9 | 37:06.19 | 5:48.26 | 166969 | 193094


Track 1

Filename F:\CD08 - Indiana (1955)\01. Gladys.wav

Pre-gap length 0:00:02.00

Peak level 99.9 %
Extraction speed 2.6 X
Track quality 100.0 %
Test CRC 1364BFDA
Copy CRC 1364BFDA
Cannot be verified as accurate (confidence 2) [118350EF], AccurateRip returned [C60EEC93] (AR v2)
Copy OK

Track 2

Filename F:\CD08 - Indiana (1955)\02. Headache.wav

Pre-gap length 0:00:02.00

Peak level 99.9 %
Extraction speed 2.9 X
Track quality 100.0 %
Test CRC 229C32FD
Copy CRC 229C32FD
Cannot be verified as accurate (confidence 2) [B2243B60], AccurateRip returned [F27B23CA] (AR v2)
Copy OK

Track 3

Filename F:\CD08 - Indiana (1955)\03. Of Thee I Sing.wav

Pre-gap length 0:00:02.00

Peak level 100.0 %
Extraction speed 3.1 X
Track quality 100.0 %
Test CRC F8792C21
Copy CRC F8792C21
Cannot be verified as accurate (confidence 2) [131C55DC], AccurateRip returned [308AF82B] (AR v2)
Copy OK

Track 4

Filename F:\CD08 - Indiana (1955)\04. A Handful of Stars.wav

Pre-gap length 0:00:02.00

Peak level 100.0 %
Extraction speed 3.1 X
Track quality 100.0 %
Test CRC A1DD3F16
Copy CRC A1DD3F16
Cannot be verified as accurate (confidence 2) [E7C46E5B], AccurateRip returned [F054899D] (AR v2)
Copy OK

Track 5

Filename F:\CD08 - Indiana (1955)\05. Love Is Here to Stay.wav

Pre-gap length 0:00:02.00

Peak level 100.0 %
Extraction speed 3.3 X
Track quality 100.0 %
Test CRC 945BEBAD
Copy CRC 945BEBAD
Cannot be verified as accurate (confidence 2) [17CEEF04], AccurateRip returned [FA000DAD] (AR v2)
Copy OK

Track 6

Filename F:\CD08 - Indiana (1955)\06. Serenade In Blue.wav

Pre-gap length 0:00:02.00

Peak level 100.0 %
Extraction speed 3.4 X
Track quality 100.0 %
Test CRC B09ED5BD
Copy CRC B09ED5BD
Cannot be verified as accurate (confidence 2) [E7B26BC9], AccurateRip returned [CB358171] (AR v2)
Copy OK

Track 7

Filename F:\CD08 - Indiana (1955)\07. Indiana.wav

Pre-gap length 0:00:02.00

Peak level 100.0 %
Extraction speed 3.6 X
Track quality 100.0 %
Test CRC 53A16A33
Copy CRC 53A16A33
Cannot be verified as accurate (confidence 2) [C54D6B73], AccurateRip returned [93519C07] (AR v2)
Copy OK

Track 8

Filename F:\CD08 - Indiana (1955)\08. Without A Song.wav

Pre-gap length 0:00:02.00

Peak level 100.0 %
Extraction speed 3.6 X
Track quality 100.0 %
Test CRC 9F628EF8
Copy CRC 9F628EF8
Cannot be verified as accurate (confidence 2) [65BA4C30], AccurateRip returned [08F77C75] (AR v2)
Copy OK

Track 9

Filename F:\CD08 - Indiana (1955)\09. I Don't Stand a Ghost Of a Chance With You.wav

Pre-gap length 0:00:02.00

Peak level 99.9 %
Extraction speed 3.7 X
Track quality 100.0 %
Test CRC E51A3CC4
Copy CRC E51A3CC4
Cannot be verified as accurate (confidence 2) [8CABFAF5], AccurateRip returned [BEFC0B1F] (AR v2)
Copy OK


No tracks could be verified as accurate
You may have a different pressing from the one(s) in the database

No errors occurred

End of status report

==== Log checksum 7F86476991D93CD5243DBB87BB37819D5E2A829B6894F63C680E9D7E2A72752A ====

[CUETools log; Date: 30.01.2018 19:45:10; Version: 2.1.4]
[CTDB TOCID: 9vcmaDvlOa7ywNuiJ6j0HH5ElNY-] found.
Track | CTDB Status
1 | (7/7) Accurately ripped
2 | (7/7) Accurately ripped
3 | (7/7) Accurately ripped
4 | (7/7) Accurately ripped
5 | (7/7) Accurately ripped
6 | (7/7) Accurately ripped
7 | (7/7) Accurately ripped
8 | (7/7) Accurately ripped
9 | (7/7) Accurately ripped
[AccurateRip ID: 000f3bbc-006ca7e6-7b0a0e09] found.
Track [ CRC | V2 ] Status
01 [0f691509|118350ef] (0+2/7) Accurately ripped
02 [33c5af74|b2243b60] (0+2/7) Accurately ripped
03 [2d754bbb|131c55dc] (0+2/7) Accurately ripped
04 [97743681|e7c46e5b] (0+2/7) Accurately ripped
05 [6a01245f|17ceef04] (0+2/7) Accurately ripped
06 [9a07fc71|e7b26bc9] (0+2/7) Accurately ripped
07 [00cf73e3|c54d6b73] (0+2/7) Accurately ripped
08 [d0a5f1d1|65ba4c30] (0+2/7) Accurately ripped
09 [5be49481|8cabfaf5] (0+2/7) Accurately ripped
Offsetted by -6:
01 [c60eec93] (2/7) Accurately ripped
02 [f27b23ca] (2/7) Accurately ripped
03 [308af82b] (2/7) Accurately ripped
04 [f054899d] (2/7) Accurately ripped
05 [fa000dad] (2/7) Accurately ripped
06 [cb358171] (2/7) Accurately ripped
07 [93519c07] (2/7) Accurately ripped
08 [08f77c75] (2/7) Accurately ripped
09 [befc0b1f] (2/7) Accurately ripped

Track Peak [ CRC32 ] [W/O NULL] [ LOG ]
– 100,0 [5EC533E9] [4A794F4F]
01 99,9 [1364BFDA] [B40DE7D7] CRC32
02 99,9 [229C32FD] [C06E1907] CRC32
03 99,9 [F8792C21] [B89FBA30] CRC32
04 99,9 [A1DD3F16] [F633B6A0] CRC32
05 99,9 [945BEBAD] [B2E223F3] CRC32
06 100,0 [B09ED5BD] [B82764B5] CRC32
07 100,0 [53A16A33] [847C96C0] CRC32
08 100,0 [9F628EF8] [8CA0CD29] CRC32
09 99,9 [E51A3CC4] [A0520BA6] CRC32

Stan Getz - Master Of The Sax [10CD Box Set] (2011)

CD 9: Stan Getz - I Want To Be Happy (1955-1957)
EAC Rip | FLAC (tracks+.cue+log) - 212 MB | MP3 CBR 320 kbps (LAME 3.93) - 120 MB
Genre: Jazz | RAR 3% Rec. | Label: The Intense Media ‎(232755/I)

Tracklist:
01. I Can't Believe Thet You're In Love With Me [05:19]
02. Everything Happens To Me [07:09]
03. Over The Rainbow [05:23]
04. Get Happy [05:11]
05. Jeepers Creepers [05:00]
06. I Want To Be Happy [07:36]
07. Pennies From Heaven [05:14]
08. Medley: Bewitched - I Don?t Know Why - How Long [10:09]

Total time: 51:04

Exact Audio Copy V1.0 beta 3 from 29. August 2011

EAC extraction logfile from 4. June 2013, 20:15

Stan Getz / I Want To Be Happy (CD9, 1955 - 1957)

Used drive : Optiarc DVD RW AD-5200A Adapter: 0 ID: 0

Read mode : Secure
Utilize accurate stream : Yes
Defeat audio cache : Yes
Make use of C2 pointers : No

Read offset correction : 48
Overread into Lead-In and Lead-Out : No
Fill up missing offset samples with silence : Yes
Delete leading and trailing silent blocks : No
Null samples used in CRC calculations : Yes
Used interface : Native Win32 interface for Win NT & 2000
Gap handling : Appended to previous track

Used output format : User Defined Encoder
Selected bitrate : 128 kBit/s
Quality : High
Add ID3 tag : No
Command line compressor : C:\Program Files\Exact Audio Copy\Flac\flac.exe
Additional command line options : -V -8 -T "Genre=%genre%" -T "Artist=%artist%" -T "Title=%title%" -T "Album=%albumtitle%" -T "Date=%year%" -T "Tracknumber=%tracknr%" -T "Comment=%comment%" %source%


TOC of the extracted CD

Track | Start | Length | Start sector | End sector
––––––––––––––––––––––––––––-
1 | 0:00.00 | 5:19.08 | 0 | 23932
2 | 5:19.08 | 7:09.05 | 23933 | 56112
3 | 12:28.13 | 5:23.43 | 56113 | 80380
4 | 17:51.56 | 5:11.22 | 80381 | 103727
5 | 23:03.03 | 5:00.71 | 103728 | 126298
6 | 28:03.74 | 7:36.16 | 126299 | 160514
7 | 35:40.15 | 5:14.26 | 160515 | 184090
8 | 40:54.41 | 10:09.35 | 184091 | 229800


Track 1

Filename F:\CD09 - I Want To Be Happy (1955-1957)\01. I Can´t Believe Thet You´re In Love With Me.wav

Pre-gap length 0:00:02.00

Peak level 100.0 %
Extraction speed 2.5 X
Track quality 100.0 %
Test CRC B9EB51F7
Copy CRC B9EB51F7
Cannot be verified as accurate (confidence 2) [C5C0FBAC], AccurateRip returned [34E1237D] (AR v2)
Copy OK

Track 2

Filename F:\CD09 - I Want To Be Happy (1955-1957)\02. Everything Happens To Me.wav

Pre-gap length 0:00:02.00

Peak level 100.0 %
Extraction speed 2.9 X
Track quality 100.0 %
Test CRC 4FC331B3
Copy CRC 4FC331B3
Cannot be verified as accurate (confidence 2) [F3530A84], AccurateRip returned [3234F9A4] (AR v2)
Copy OK

Track 3

Filename F:\CD09 - I Want To Be Happy (1955-1957)\03. Over The Rainbow.wav

Pre-gap length 0:00:02.00

Peak level 100.0 %
Extraction speed 3.1 X
Track quality 100.0 %
Test CRC 09CEE1EC
Copy CRC 09CEE1EC
Cannot be verified as accurate (confidence 2) [73949A0B], AccurateRip returned [37F85C4D] (AR v2)
Copy OK

Track 4

Filename F:\CD09 - I Want To Be Happy (1955-1957)\04. Get Happy.wav

Pre-gap length 0:00:02.00

Peak level 100.0 %
Extraction speed 3.4 X
Track quality 100.0 %
Test CRC 00229C69
Copy CRC 00229C69
Cannot be verified as accurate (confidence 2) [2C0D22B8], AccurateRip returned [72C0DE79] (AR v2)
Copy OK

Track 5

Filename F:\CD09 - I Want To Be Happy (1955-1957)\05. Jeepers Creepers.wav

Pre-gap length 0:00:02.00

Peak level 100.0 %
Extraction speed 3.5 X
Track quality 100.0 %
Test CRC E803D104
Copy CRC E803D104
Cannot be verified as accurate (confidence 2) [2D7604DC], AccurateRip returned [5289B950] (AR v2)
Copy OK

Track 6

Filename F:\CD09 - I Want To Be Happy (1955-1957)\06. I Want To Be Happy.wav

Pre-gap length 0:00:02.00

Peak level 99.9 %
Extraction speed 3.7 X
Track quality 100.0 %
Test CRC 15D58F3C
Copy CRC 15D58F3C
Cannot be verified as accurate (confidence 2) [659861C4], AccurateRip returned [0508DC44] (AR v2)
Copy OK

Track 7

Filename F:\CD09 - I Want To Be Happy (1955-1957)\07. Pennies From Heaven.wav

Pre-gap length 0:00:02.00

Peak level 100.0 %
Extraction speed 3.5 X
Track quality 100.0 %
Test CRC 21073E62
Copy CRC 21073E62
Cannot be verified as accurate (confidence 2) [FC620B5C], AccurateRip returned [2EE67AF7] (AR v2)
Copy OK

Track 8

Filename F:\CD09 - I Want To Be Happy (1955-1957)\08. Medley- Bewitched - I Don´t Know Why - How Long.wav

Pre-gap length 0:00:02.00

Peak level 100.0 %
Extraction speed 3.8 X
Track quality 100.0 %
Test CRC D25E3A15
Copy CRC D25E3A15
Cannot be verified as accurate (confidence 2) [2CA89929], AccurateRip returned [A8B01EF2] (AR v2)
Copy OK


No tracks could be verified as accurate
You may have a different pressing from the one(s) in the database

No errors occurred

End of status report

==== Log checksum 021C600E70ED2DBBDA907BCA1A1315E62BF68FFA09FE88FFB12E93B57BE23E4F ====

[CUETools log; Date: 30.01.2018 19:45:58; Version: 2.1.4]
[CTDB TOCID: dEmvGBQMj9PThyPvxouc7ioXQUw-] found.
Track | CTDB Status
1 | (6/6) Accurately ripped
2 | (6/6) Accurately ripped
3 | (6/6) Accurately ripped
4 | (6/6) Accurately ripped
5 | (6/6) Accurately ripped
6 | (6/6) Accurately ripped
7 | (6/6) Accurately ripped
8 | (6/6) Accurately ripped
[AccurateRip ID: 000eb8fd-0062db72-5e0bf808] found.
Track [ CRC | V2 ] Status
01 [7e916ac0|c5c0fbac] (0+2/7) Accurately ripped
02 [af36d438|f3530a84] (0+2/7) Accurately ripped
03 [8e3b7ab7|73949a0b] (0+2/7) Accurately ripped
04 [82f9661f|2c0d22b8] (0+2/7) Accurately ripped
05 [466af2d8|2d7604dc] (0+2/7) Accurately ripped
06 [007aa27e|659861c4] (0+2/7) Accurately ripped
07 [5bbb95b3|fc620b5c] (0+2/7) Accurately ripped
08 [ea1379f2|2ca89929] (0+2/7) Accurately ripped
Offsetted by -6:
01 [34e1237d] (2/7) Accurately ripped
02 [3234f9a4] (2/7) Accurately ripped
03 [37f85c4d] (2/7) Accurately ripped
04 [72c0de79] (2/7) Accurately ripped
05 [5289b950] (2/7) Accurately ripped
06 [0508dc44] (2/7) Accurately ripped
07 [2ee67af7] (2/7) Accurately ripped
08 [a8b01ef2] (2/7) Accurately ripped

Track Peak [ CRC32 ] [W/O NULL] [ LOG ]
– 100,0 [F40DCD2C] [8878077D]
01 100,0 [B9EB51F7] [DDC6E750] CRC32
02 100,0 [4FC331B3] [A1EF7240] CRC32
03 100,0 [09CEE1EC] [CF59EC9D] CRC32
04 100,0 [00229C69] [E6689AD6] CRC32
05 99,9 [E803D104] [1B3C1719] CRC32
06 99,9 [15D58F3C] [FE3F55E5] CRC32
07 100,0 [21073E62] [54035D17] CRC32
08 100,0 [D25E3A15] [71614177] CRC32

Stan Getz - Master Of The Sax [10CD Box Set] (2011)

CD 10: Stan Getz - Tour's End (1957)
EAC Rip | FLAC (tracks+.cue+log) - 299 MB | MP3 CBR 320 kbps (LAME 3.93) - 125 MB
Genre: Jazz | RAR 3% Rec. | Label: The Intense Media ‎(232755/J)

Tracklist:
01. Tour's End [04:56]
02. I Was Doing All Right [04:09]
03. Bronx Blues [05:32]
04. Billie's Bounce [09:48]
05. my Funny valentine [08:12]
06. Crazy Rhythm [07:55]
07. It Never Entered My Mind [03:32]
08. Blues In The Closet [09:02]

Total time: 53:09

Exact Audio Copy V1.0 beta 3 from 29. August 2011

EAC extraction logfile from 4. June 2013, 21:08

Stan Getz / Tour's End (CD10, 1957)

Used drive : Optiarc DVD RW AD-5200A Adapter: 0 ID: 0

Read mode : Secure
Utilize accurate stream : Yes
Defeat audio cache : Yes
Make use of C2 pointers : No

Read offset correction : 48
Overread into Lead-In and Lead-Out : No
Fill up missing offset samples with silence : Yes
Delete leading and trailing silent blocks : No
Null samples used in CRC calculations : Yes
Used interface : Native Win32 interface for Win NT & 2000
Gap handling : Appended to previous track

Used output format : User Defined Encoder
Selected bitrate : 128 kBit/s
Quality : High
Add ID3 tag : No
Command line compressor : C:\Program Files\Exact Audio Copy\Flac\flac.exe
Additional command line options : -V -8 -T "Genre=%genre%" -T "Artist=%artist%" -T "Title=%title%" -T "Album=%albumtitle%" -T "Date=%year%" -T "Tracknumber=%tracknr%" -T "Comment=%comment%" %source%


TOC of the extracted CD

Track | Start | Length | Start sector | End sector
––––––––––––––––––––––––––––-
1 | 0:00.00 | 4:56.45 | 0 | 22244
2 | 4:56.45 | 4:09.31 | 22245 | 40950
3 | 9:06.01 | 5:32.37 | 40951 | 65887
4 | 14:38.38 | 9:48.26 | 65888 | 110013
5 | 24:26.64 | 8:12.62 | 110014 | 146975
6 | 32:39.51 | 7:55.16 | 146976 | 182616
7 | 40:34.67 | 3:32.57 | 182617 | 198573
8 | 44:07.49 | 9:02.07 | 198574 | 239230


Track 1

Filename F:\CD10 - Tour's End (1957)\01. Tour´s End.wav

Pre-gap length 0:00:02.00

Peak level 100.0 %
Extraction speed 2.4 X
Track quality 100.0 %
Test CRC E92F1E1C
Copy CRC E92F1E1C
Cannot be verified as accurate (confidence 2) [477610B8], AccurateRip returned [8AB30563] (AR v2)
Copy OK

Track 2

Filename F:\CD10 - Tour's End (1957)\02. I Was Doing All Right.wav

Pre-gap length 0:00:02.00

Peak level 100.0 %
Extraction speed 2.7 X
Track quality 100.0 %
Test CRC 2845C295
Copy CRC 2845C295
Cannot be verified as accurate (confidence 2) [9BA1B382], AccurateRip returned [19498B4E] (AR v2)
Copy OK

Track 3

Filename F:\CD10 - Tour's End (1957)\03. Bronx Blues.wav

Pre-gap length 0:00:02.00

Peak level 99.9 %
Extraction speed 3.0 X
Track quality 100.0 %
Test CRC CE0CA4D7
Copy CRC CE0CA4D7
Cannot be verified as accurate (confidence 2) [4F21F678], AccurateRip returned [78D30134] (AR v2)
Copy OK

Track 4

Filename F:\CD10 - Tour's End (1957)\04. Billie´s Bounce.wav

Pre-gap length 0:00:02.00

Peak level 100.0 %
Extraction speed 3.3 X
Track quality 100.0 %
Test CRC 877AC810
Copy CRC 877AC810
Cannot be verified as accurate (confidence 2) [C31981BB], AccurateRip returned [013298D7] (AR v2)
Copy OK

Track 5

Filename F:\CD10 - Tour's End (1957)\05. my Funny valentine.wav

Pre-gap length 0:00:02.00

Peak level 100.0 %
Extraction speed 3.7 X
Track quality 100.0 %
Test CRC 1A31E226
Copy CRC 1A31E226
Cannot be verified as accurate (confidence 2) [34790A21], AccurateRip returned [38F62E57] (AR v2)
Copy OK

Track 6

Filename F:\CD10 - Tour's End (1957)\06. Crazy Rhythm.wav

Pre-gap length 0:00:02.00

Peak level 100.0 %
Extraction speed 3.7 X
Track quality 100.0 %
Test CRC FB7F9C59
Copy CRC FB7F9C59
Cannot be verified as accurate (confidence 2) [28D25F53], AccurateRip returned [0019E64B] (AR v2)
Copy OK

Track 7

Filename F:\CD10 - Tour's End (1957)\07. It Never Entered My Mind.wav

Pre-gap length 0:00:02.00

Peak level 100.0 %
Extraction speed 3.5 X
Track quality 100.0 %
Test CRC 263CA2B4
Copy CRC 263CA2B4
Cannot be verified as accurate (confidence 2) [659CAEDF], AccurateRip returned [E7EFCD53] (AR v2)
Copy OK

Track 8

Filename F:\CD10 - Tour's End (1957)\08. Blues In The Closet.wav

Pre-gap length 0:00:02.00

Peak level 100.0 %
Extraction speed 3.7 X
Track quality 100.0 %
Test CRC A657FC8E
Copy CRC A657FC8E
Cannot be verified as accurate (confidence 2) [876AE8E5], AccurateRip returned [8D731459] (AR v2)
Copy OK


No tracks could be verified as accurate
You may have a different pressing from the one(s) in the database

No errors occurred

End of status report

==== Log checksum F22625ED9C28C8159DF696FE2C9B6627A2CBFC0A033159F285575152FE215AEB ====

[CUETools log; Date: 30.01.2018 19:47:33; Version: 2.1.4]
[CTDB TOCID: R2I3st6_.WaVvLefSt9hSORR.Ag-] found.
Track | CTDB Status
1 | (7/7) Accurately ripped
2 | (7/7) Accurately ripped
3 | (7/7) Accurately ripped
4 | (7/7) Differs in 180 samples @03:14:28-03:14:29
5 | (7/7) Accurately ripped
6 | (7/7) Accurately ripped
7 | (7/7) Accurately ripped
8 | (7/7) Accurately ripped
[AccurateRip ID: 000f5ba0-006905fc-7e0c7508] found.
Track [ CRC | V2 ] Status
01 [6f8fede7|477610b8] (0+2/7) Accurately ripped
02 [5a1d9d34|9ba1b382] (0+2/7) Accurately ripped
03 [532f4264|4f21f678] (0+2/7) Accurately ripped
04 [c276dc05|c31981bb] (0+0/7) No match
05 [ce8cbdc1|34790a21] (0+2/7) Accurately ripped
06 [fec089fb|28d25f53] (0+2/7) Accurately ripped
07 [8778405f|659caedf] (0+2/7) Accurately ripped
08 [96d190e7|876ae8e5] (0+2/7) Accurately ripped
Offsetted by -6:
01 [8ab30563] (2/7) Accurately ripped
02 [19498b4e] (2/7) Accurately ripped
03 [78d30134] (2/7) Accurately ripped
04 [63cd224f] (0/7) No match (V2 was not tested)
05 [38f62e57] (2/7) Accurately ripped
06 [0019e64b] (2/7) Accurately ripped
07 [e7efcd53] (2/7) Accurately ripped
08 [8d731459] (2/7) Accurately ripped

Track Peak [ CRC32 ] [W/O NULL] [ LOG ]
– 100,0 [80143C19] [AB1D38EB]
01 100,0 [E92F1E1C] [3A0FBA6F] CRC32
02 100,0 [2845C295] [691FA81D] CRC32
03 99,9 [CE0CA4D7] [83BE6335] CRC32
04 100,0 [877AC810] [E6348CE9] CRC32
05 99,9 [1A31E226] [C262A94B] CRC32
06 99,9 [FB7F9C59] [0F5A8239] CRC32
07 100,0 [263CA2B4] [AC0EBD16] CRC32
08 100,0 [A657FC8E] [148302A8] CRC32

Thanks to ssagwebster

See also: