Subcategories

Stan Getz and Charlie Byrd - Jazz Samba (1962) [Reissue 2008]

Posted By: gribovar
Stan Getz and Charlie Byrd - Jazz Samba (1962) [Reissue 2008]

Stan Getz and Charlie Byrd - Jazz Samba (1962) [Reissue 2008]
EAC Rip | FLAC (tracks+.cue+log) - 198 MB | MP3 CBR 320 kbps (LAME 3.93) - 78 MB | Covers - 21 MB
Genre: Jazz, Bossa Nova | RAR 3% Rec. | Label: Verve Records (0602517679184)

Partly because of its Brazilian collaborators and partly because of "The Girl From Ipanema," Getz/Gilberto is nearly always acknowledged as the Stan Getz bossa nova LP. But Jazz Samba is just as crucial and groundbreaking; after all, it came first, and in fact was the first full-fledged bossa nova album ever recorded by American jazz musicians. And it was just as commercially successful, topping the LP charts and producing its own pop chart hit single in "Desafinado." It was the true beginning of the bossa nova craze, and introduced several standards of the genre (including Ary Barroso's "Bahia" and Antonio Carlos Jobim's "Desafinado" and "Samba de Uma Nota Só" [aka "One Note Samba"]). But above all, Jazz Samba stands on its own artistic merit as a shimmering, graceful collection that's as subtly advanced - in harmony and rhythm - as it is beautiful. Getz and his co-billed partner, guitarist Charlie Byrd - who was actually responsible for bringing bossa nova records to the U.S. and introducing Getz to the style - have the perfect touch for bossa nova's delicate, airy texture. For his part, Byrd was one of the first American musicians to master bossa nova's difficult, bubbling syncopations, and his solos are light and lilting. Meanwhile, Getz's playing is superb, simultaneously offering a warm, full tone and a cool control of dynamics; plus, Byrd's gently off-kilter harmonies seem to stimulate Getz's melodic inventiveness even more than usual. But beyond technique, Getz intuitively understands the romanticism and the undercurrent of melancholy inherent in the music, and that's what really made Jazz Samba such a revelatory classic. Absolutely essential for any jazz collection.
Tracklist:
01. Desafinado
02. Samba Dees Days
03. O Pato
04. Samba Triste
05. Samba de uma Nota So
06. E Luxo So
07. Baia

Total time: 35:37

Exact Audio Copy V0.99 prebeta 4 from 23. January 2008

EAC extraction logfile from 18. March 2010, 12:35

Stan Getz and Charlie Byrd / Jazz Samba

Used drive : HL-DT-STDVD-RAM GH22NP20 Adapter: 0 ID: 0

Read mode : Secure
Utilize accurate stream : Yes
Defeat audio cache : Yes
Make use of C2 pointers : No

Read offset correction : 102
Overread into Lead-In and Lead-Out : No
Fill up missing offset samples with silence : Yes
Delete leading and trailing silent blocks : No
Null samples used in CRC calculations : Yes
Used interface : Installed external ASPI interface
Gap handling : Appended to previous track

Used output format : User Defined Encoder
Selected bitrate : 320 kBit/s
Quality : High
Add ID3 tag : No
Command line compressor : C:\Program Files\Exact Audio Copy\Flac\flac.exe
Additional command line options : -V -8 -T "artist=%a" -T "title=%t" -T "album=%g" -T "date=%y" -T "tracknumber=%n" -T "genre=%m" %s


TOC of the extracted CD

Track | Start | Length | Start sector | End sector
––––––––––––––––––––––––––––-
1 | 0:00.00 | 5:51.33 | 0 | 26357
2 | 5:51.33 | 3:34.55 | 26358 | 42462
3 | 9:26.13 | 2:31.67 | 42463 | 53854
4 | 11:58.05 | 4:47.31 | 53855 | 75410
5 | 16:45.36 | 6:11.37 | 75411 | 103272
6 | 22:56.73 | 3:40.37 | 103273 | 119809
7 | 26:37.35 | 6:38.20 | 119810 | 149679


Track 1

Filename D:\music\Musicgate's rips\Stan Getz and Charlie Byrd - Jazz Samba (1962)\01 - Desafinado.wav

Pre-gap length 0:00:02.00

Peak level 99.6 %
Track quality 100.0 %
Test CRC CC14BFC1
Copy CRC CC14BFC1
Accurately ripped (confidence 9) [4B52BDD6]
Copy OK

Track 2

Filename D:\music\Musicgate's rips\Stan Getz and Charlie Byrd - Jazz Samba (1962)\02 - Samba Dees Days.wav

Pre-gap length 0:00:02.36

Peak level 100.0 %
Track quality 100.0 %
Test CRC 3BF55307
Copy CRC 3BF55307
Accurately ripped (confidence 9) [881BAC1A]
Copy OK

Track 3

Filename D:\music\Musicgate's rips\Stan Getz and Charlie Byrd - Jazz Samba (1962)\03 - O Pato.wav

Pre-gap length 0:00:02.41

Peak level 99.3 %
Track quality 100.0 %
Test CRC 1C37BC0A
Copy CRC 1C37BC0A
Accurately ripped (confidence 9) [A0389220]
Copy OK

Track 4

Filename D:\music\Musicgate's rips\Stan Getz and Charlie Byrd - Jazz Samba (1962)\04 - Samba Triste.wav

Pre-gap length 0:00:02.81

Peak level 99.5 %
Track quality 100.0 %
Test CRC A5F62952
Copy CRC A5F62952
Accurately ripped (confidence 9) [ECC9D643]
Copy OK

Track 5

Filename D:\music\Musicgate's rips\Stan Getz and Charlie Byrd - Jazz Samba (1962)\05 - Samba de Uma Nota So.wav

Pre-gap length 0:00:03.78

Peak level 87.5 %
Track quality 100.0 %
Test CRC A932D25C
Copy CRC A932D25C
Accurately ripped (confidence 9) [F6498447]
Copy OK

Track 6

Filename D:\music\Musicgate's rips\Stan Getz and Charlie Byrd - Jazz Samba (1962)\06 - E Luxo So.wav

Pre-gap length 0:00:02.21

Peak level 99.4 %
Track quality 99.9 %
Test CRC A2733D4C
Copy CRC A2733D4C
Accurately ripped (confidence 9) [591C654E]
Copy OK

Track 7

Filename D:\music\Musicgate's rips\Stan Getz and Charlie Byrd - Jazz Samba (1962)\07 - Baia.wav

Peak level 99.5 %
Track quality 100.0 %
Test CRC CED6CE7E
Copy CRC CED6CE7E
Accurately ripped (confidence 9) [E628A492]
Copy OK


All tracks accurately ripped

No errors occurred

End of status report

[CUETools log; Date: 14.11.2017 15:18:43; Version: 2.1.4]
[CTDB TOCID: 5i72kuYpOAzIPlCjOtWoX3O0KmI-] found.
Track | CTDB Status
1 | (63/66) Accurately ripped
2 | (62/66) Accurately ripped
3 | (65/66) Accurately ripped
4 | (65/66) Accurately ripped
5 | (64/66) Accurately ripped
6 | (64/66) Accurately ripped
7 | (61/66) Accurately ripped, or (2/66) differs in 2481 samples @06:37:74-06:38:03
[AccurateRip ID: 0008b5e2-00344fe9-5c07cb07] found.
Track [ CRC | V2 ] Status
01 [4b52bdd6|e18aa020] (26+38/64) Accurately ripped
02 [881bac1a|100e4717] (26+39/65) Accurately ripped
03 [a0389220|a9d4f71b] (26+38/64) Accurately ripped
04 [ecc9d643|0d650657] (26+39/65) Accurately ripped
05 [f6498447|b912b6db] (26+39/65) Accurately ripped
06 [591c654e|14a1d940] (26+38/64) Accurately ripped
07 [e628a492|27c908a5] (26+36/62) Accurately ripped

Track Peak [ CRC32 ] [W/O NULL] [ LOG ]
– 100,0 [740F6283] [1E6CE34C]
01 99,6 [CC14BFC1] [76BC33C4] CRC32
02 100,0 [3BF55307] [F6E1DB1D] CRC32
03 99,3 [1C37BC0A] [1C9ECBE0] CRC32
04 99,5 [A5F62952] [C340CDE1] CRC32
05 87,5 [A932D25C] [85217094] CRC32
06 99,4 [A2733D4C] [C9A9DB06] CRC32
07 99,5 [CED6CE7E] [A20B8FA3] CRC32

Thanks to Musicgate

See also:
Stan Getz - Big Band Bossa Nova (1962) [Reissue 2008]