Subcategories

Stan Getz & Luiz Bonfa - Jazz Samba Encore! (1963) [Reissue 2008]

Posted By: gribovar
Stan Getz & Luiz Bonfa - Jazz Samba Encore! (1963) [Reissue 2008]

Stan Getz & Luiz Bonfa - Jazz Samba Encore! (1963) [Reissue 2008]
EAC Rip | WavPack (image+.cue+log) - 256 MB | MP3 CBR 320 kbps (LAME 3.93) - 108 MB | Covers (13 MB) included
Genre: Jazz, Bossa Nova | RAR 3% Rec. | Label: Verve Records (0602517679214)

Here's some more bossa nova from Stan Getz when the bloom was still on the first Brazilian boom. This time, however, on his third such album, Getz relies mostly upon native Brazilians for his backing. Thus, the soft-focused grooves are considerably more attuned to what was actually coming out of Brazil at the time. Two bona fide giants, Antonio Carlos Jobim and Luiz Bonfá (who gets co-billing), provide the guitars and all of the material, and Maria Toledo contributes an occasional throaty vocal. Getz injects more high-wailing passages into his intuitive affinity for the groove, even going for some fast bop on "Un Abraco No Getz," and Bonfá takes adept care of the guitar solos against Jobim's rock-steady rhythm. Clearly Jobim's songwriting contributions - "So Danco Samba," "How Insensitive," and "O Morro Nao Tem Vez" - would have the longest shelf life, and though the album didn't sell as well as its two predecessors, it certainly helped break these tunes into the permanent jazz repertoire. Avid bossa nova fans will certainly treasure this album for the lesser-known Bonfá tunes.
Tracklist:
01. Sambalero
02. So Danço Samba
03. Insensatez
04. O Morro Nao Tem Vez
05. Samba De Duas Notas (Two Note Samba)
06. Menina Flor
07. Mania De Maria
08. Saudade Vem Correndo
09. Um Abraco No Getz (A Tribute To Getz)
10. Ebony Samba

Total time: 40:07

Exact Audio Copy V1.0 beta 3 from 29. August 2011

EAC extraction logfile from 13. January 2013, 21:21

Stan Getz / Jazz Samba Encore!

Used drive : HL-DT-STBDDVDRW GBC-H20N Adapter: 1 ID: 0

Read mode : Secure
Utilize accurate stream : Yes
Defeat audio cache : Yes
Make use of C2 pointers : No

Read offset correction : 667
Overread into Lead-In and Lead-Out : No
Fill up missing offset samples with silence : Yes
Delete leading and trailing silent blocks : No
Null samples used in CRC calculations : Yes
Used interface : Native Win32 interface for Win NT & 2000

Used output format : User Defined Encoder
Selected bitrate : 1024 kBit/s
Quality : High
Add ID3 tag : No
Command line compressor : C:\Program Files\Exact Audio Copy\wavpack.exe
Additional command line options : -hm %source% %dest%


TOC of the extracted CD

Track | Start | Length | Start sector | End sector
––––––––––––––––––––––––––––-
1 | 0:00.00 | 2:08.66 | 0 | 9665
2 | 2:08.66 | 3:38.51 | 9666 | 26066
3 | 5:47.42 | 3:23.42 | 26067 | 41333
4 | 9:11.09 | 6:55.02 | 41334 | 72460
5 | 16:06.11 | 4:21.00 | 72461 | 92035
6 | 20:27.11 | 4:11.68 | 92036 | 110928
7 | 24:39.04 | 2:44.65 | 110929 | 123293
8 | 27:23.69 | 3:40.10 | 123294 | 139803
9 | 31:04.04 | 4:27.53 | 139804 | 159881
10 | 35:31.57 | 4:34.67 | 159882 | 180498


Range status and errors

Selected range

Filename C:\Users\ProgDog\Music\ZALIVKI\Stan Getz\The Bossa Nova Albums\3. Jazz Samba Encore (1963)\Stan Getz - Jazz Samba Encore!.wav

Peak level 100.0 %
Extraction speed 5.6 X
Range quality 99.9 %
Test CRC 47DAA369
Copy CRC 47DAA369
Copy OK

No errors occurred


AccurateRip summary

Track 1 accurately ripped (confidence 4) [AF414B25] (AR v2)
Track 2 accurately ripped (confidence 4) [23DC9D2C] (AR v2)
Track 3 accurately ripped (confidence 4) [7BC14A1A] (AR v2)
Track 4 accurately ripped (confidence 4) [B83174EB] (AR v2)
Track 5 accurately ripped (confidence 4) [852AD6AA] (AR v2)
Track 6 accurately ripped (confidence 4) [04BDD45D] (AR v2)
Track 7 accurately ripped (confidence 4) [D673D459] (AR v2)
Track 8 accurately ripped (confidence 4) [749B97CD] (AR v2)
Track 9 accurately ripped (confidence 4) [934FA595] (AR v2)
Track 10 accurately ripped (confidence 4) [FAF42FBA] (AR v2)

All tracks accurately ripped

End of status report

–– CUETools DB Plugin V2.1.3

[CTDB TOCID: NUR5rfLJjkSgeFgEapClZ9d5hgQ-] found, Submit result: NUR5rfLJjkSgeFgEapClZ9d5hgQ- has been confirmed
[9fb22af3] (26/26) Accurately ripped


==== Log checksum FBAF048B7C43145BEDFFB210F1D56EABA1BD4EE49FFDFA7D452956D19A39EF01 ====

[CUETools log; Date: 11.01.2018 1:33:25; Version: 2.1.4]
[CTDB TOCID: NUR5rfLJjkSgeFgEapClZ9d5hgQ-] found.
Track | CTDB Status
1 | (42/44) Accurately ripped
2 | (43/44) Accurately ripped
3 | (43/44) Accurately ripped
4 | (43/44) Accurately ripped
5 | (43/44) Accurately ripped
6 | (43/44) Accurately ripped
7 | (43/44) Accurately ripped
8 | (43/44) Accurately ripped
9 | (43/44) Accurately ripped
10 | (43/44) Accurately ripped
[AccurateRip ID: 000e9644-0076c187-8409660a] found.
Track [ CRC | V2 ] Status
01 [d97c115e|af414b25] (23+22/45) Accurately ripped
02 [a1767993|23dc9d2c] (23+23/46) Accurately ripped
03 [7761e2f8|7bc14a1a] (23+23/46) Accurately ripped
04 [77818ded|b83174eb] (23+23/46) Accurately ripped
05 [d127fa78|852ad6aa] (23+22/45) Accurately ripped
06 [59e59b24|04bdd45d] (23+22/45) Accurately ripped
07 [0e6fa9db|d673d459] (23+22/45) Accurately ripped
08 [4e9038dc|749b97cd] (23+22/45) Accurately ripped
09 [287e766c|934fa595] (22+20/42) Accurately ripped
10 [decefd6c|faf42fba] (23+22/45) Accurately ripped

Track Peak [ CRC32 ] [W/O NULL] [ LOG ]
– 100,0 [47DAA369] [7D3332DE] CRC32
01 97,5 [3EDED3A1] [93BFDDD8]
02 100,0 [88F37D24] [4644AA44]
03 100,0 [097A0156] [F17EF13F]
04 100,0 [2BB9AD39] [AD468A9E]
05 99,4 [6CD97924] [5871C182]
06 99,5 [3C99F034] [B7C1611E]
07 94,6 [19E5C7FB] [41D06BA0]
08 89,7 [480AFBD3] [1CACD85D]
09 100,0 [8CDC69FC] [E6496B3C]
10 100,0 [8D91DB1D] [EE5E7E7A]

Thanks to arizonadream

See also: