Subcategories

Stanley Turrentine - Rough 'N' Tumble (1966) [Reissue 2000]

Posted By: gribovar
Stanley Turrentine - Rough 'N' Tumble (1966) [Reissue 2000]

Stanley Turrentine - Rough 'N' Tumble (1966) [Reissue 2000]
EAC Rip | FLAC (tracks+.cue+log) - 233 MB | MP3 CBR 320 kbps (LAME 3.93) - 87 MB | Covers - 12 MB
Genre: Jazz, Soul Jazz | RAR 3% Rec. | Label: Blue Note (7243 5 24552 2 5)

In the mid- to late '60s, Blue Note was beginning to take on the affectations of funk and a new kind of "cool." For the most part, Turrentine steers clear of that style, and Rough 'n' Tumble is a pretty straight-ahead set, especially for 1966. "And Satisfy" and "Feelin' Good" typify the comfortable sessions, and both show off Turrentine's trademark tasteful playing. To its credit, Rough 'n' Tumble isn't rife with covers of songs that were doomed to be ephemeral, and Turrentine tackled two of the more lasting songs. His cover of Sam Cooke's "Shake" adheres closely to the original. Bacharach and David no doubt figured into jazz albums of the time, and "Walk On By" gets a suitably downcast reading here. The album's final track, the intricate "Baptismal," seems to get most of Turrentine's attention, and the song is perfect for his emotional yet poised playing technique. Rough 'n' Tumble features a great lineup of players, including Pepper Adams, Blue Mitchell, and McCoy Tyner. Rough 'n' Tumble isn't exactly a scintillating effort, but it is fun for the listener to hear Tyner and guitarist Grant Green nudging the genre toward the future, especially on "What Could I Do Without You." Of course, the star of the show is Turrentine, and his warmth and playing make this a necessity, especially for fans '60s pre-funk Blue Note jazz.
Tracklist:
01. And Satisfy
02. What Could I Do Without You
03. Feeling Good
04. Shake
05. Walk On By
06. Baptismal

Total time: 37:12

Exact Audio Copy V1.3 from 2. September 2016

Отчёт EAC об извлечении, выполненном 16. сентября 2020, 14:17

Stanley Turrentine / Rough 'N' Tumble

Дисковод: ASUS DRW-24D5MT Adapter: 1 ID: 0

Режим чтения : Достоверность
Использование точного потока : Да
Отключение кэша аудио : Да
Использование указателей C2 : Нет

Коррекция смещения при чтении : 6
Способность читать области Lead-in и Lead-out : Нет
Заполнение пропущенных сэмплов тишиной : Да
Удаление блоков с тишиной в начале и конце : Нет
При вычислениях CRC использовались нулевые сэмплы : Да
Интерфейс : Встроенный Win32-интерфейс для Win NT/2000
Обработка зазоров : Добавлено к предыдущему треку

Выходной формат : Пользовательский кодировщик
Выбранный битрейт : 128 kBit/s
Качество : Высокий
Добавление ID3-тега : Нет
Утилита сжатия : C:\Program Files\flac-1.3.2-git-20170314-x64-icl\flac.exe
Дополнительные параметры : -8 -V -T "ARTIST=%artist%" -T "TITLE=%title%" -T "ALBUM=%albumtitle%" -T "DATE=%year%" -T "TRACKNUMBER=%tracknr%" -T "GENRE=%genre%" -T "COMMENT=EAC FLAC -8" %source%


TOC извлечённого CD

Трек | Старт | Длительность | Начальный сектор | Конечный сектор
––––––––––––––––––––––––––––––––––-
1 | 0:00.00 | 6:48.47 | 0 | 30646
2 | 6:48.47 | 4:35.53 | 30647 | 51324
3 | 11:24.25 | 7:15.22 | 51325 | 83971
4 | 18:39.47 | 5:55.60 | 83972 | 110656
5 | 24:35.32 | 5:57.43 | 110657 | 137474
6 | 30:33.00 | 6:39.47 | 137475 | 167446


Трек 1

Имя файла D:\FLAC EAC\01 And Satisfy.wav

Длина предзазора 0:00:02.00

Пиковый уровень 98.8 %
Скорость извлечения 4.9 X
Качество трека 100.0 %
CRC теста 1404E592
CRC копии 1404E592
Точное извлечение (достоверность 14) [9052A9D0] (AR v2)
Копирование… OK

Трек 2

Имя файла D:\FLAC EAC\02 What Could I Do Without You.wav

Длина предзазора 0:00:02.15

Пиковый уровень 97.4 %
Скорость извлечения 5.3 X
Качество трека 100.0 %
CRC теста 84EEEEBE
CRC копии 84EEEEBE
Точное извлечение (достоверность 14) [3977751E] (AR v2)
Копирование… OK

Трек 3

Имя файла D:\FLAC EAC\03 Feeling Good.wav

Пиковый уровень 98.8 %
Скорость извлечения 6.1 X
Качество трека 100.0 %
CRC теста 61B08692
CRC копии 61B08692
Точное извлечение (достоверность 14) [C501C9C7] (AR v2)
Копирование… OK

Трек 4

Имя файла D:\FLAC EAC\04 Shake.wav

Длина предзазора 0:00:01.40

Пиковый уровень 98.8 %
Скорость извлечения 6.6 X
Качество трека 100.0 %
CRC теста 2627E5D5
CRC копии 2627E5D5
Точное извлечение (достоверность 14) [2060152A] (AR v2)
Копирование… OK

Трек 5

Имя файла D:\FLAC EAC\05 Walk On By.wav

Длина предзазора 0:00:01.50

Пиковый уровень 91.0 %
Скорость извлечения 6.5 X
Качество трека 99.9 %
CRC теста D1D84511
CRC копии D1D84511
Точное извлечение (достоверность 14) [E925697C] (AR v2)
Копирование… OK

Трек 6

Имя файла D:\FLAC EAC\06 Baptismal.wav

Длина предзазора 0:00:01.55

Пиковый уровень 98.8 %
Скорость извлечения 7.5 X
Качество трека 100.0 %
CRC теста 6FECC31B
CRC копии 6FECC31B
Точное извлечение (достоверность 14) [BCE0D483] (AR v2)
Копирование… OK


Все треки извлечены точно

Ошибок не произошло

Конец отчёта

–– CUETools DB Plugin V2.1.6

[CTDB TOCID: W2VjeK9FeiGMNG4qmafcinMbsNk-] found
Submit result: already submitted
Track | CTDB Status
1 | (18/19) Accurately ripped
2 | (18/19) Accurately ripped
3 | (18/19) Accurately ripped
4 | (18/19) Accurately ripped
5 | (18/19) Accurately ripped
6 | (18/19) Accurately ripped


==== Контрольная сумма отчёта 27D78C4216EC0717E2529FC507F327A776E45AEFC7F09DF424CDEAD746FFBD7B ====

[CUETools log; Date: 20.09.2020 0:16:47; Version: 2.1.4]
[CTDB TOCID: W2VjeK9FeiGMNG4qmafcinMbsNk-] found.
Track | CTDB Status
1 | (18/19) Accurately ripped
2 | (18/19) Accurately ripped
3 | (18/19) Accurately ripped
4 | (18/19) Accurately ripped
5 | (18/19) Accurately ripped
6 | (18/19) Accurately ripped
[AccurateRip ID: 0008df93-002f52ee-4408b806] found.
Track [ CRC | V2 ] Status
01 [bb4a06a6|9052a9d0] (08+14/22) Accurately ripped
02 [ed95277e|3977751e] (08+14/22) Accurately ripped
03 [d6626764|c501c9c7] (08+14/22) Accurately ripped
04 [5e149bcb|2060152a] (08+14/22) Accurately ripped
05 [6b222df6|e925697c] (08+14/22) Accurately ripped
06 [f39e0cdb|bce0d483] (08+14/22) Accurately ripped

Track Peak [ CRC32 ] [W/O NULL] [ LOG ]
– 98,8 [96CE8581] [B69EA6E0]
01 98,8 [1404E592] [4BF934A4] CRC32
02 97,4 [84EEEEBE] [4DB07203] CRC32
03 98,8 [61B08692] [CFCC1B31] CRC32
04 98,8 [2627E5D5] [0813E795] CRC32
05 91,0 [D1D84511] [9453D0F7] CRC32
06 98,8 [6FECC31B] [59DB8019] CRC32

Thanks to oppaoppa

See also: