Subcategories

Status Quo: Collection. 4 x Deluxe Edition Albums + 2DVDs (1973-2016)

Posted By: v3122
Status Quo: Collection. 4 x Deluxe Edition Albums + 2DVDs (1973-2016)

Status Quo: Collection. 8CDs + 2DVD (1973-2016)
EAC | Flac(Image) + Cue + Log & MP3 CBR 320Kbps
8CD | Universal Music Japan, UICY-77627~34 | ~ 2816 or 1126 Mb | Scans(png) -> 1124 Mb
2xDVD9: PAL 4:3 (720x576) VBR | Dolby AC3, 2 ch / 6 ch -> 8.06 + 7.76 gB
Hard Rock, Blues Rock, Rock & Roll

Status Quo are an English rock band who play a brand of boogie rock. The group originated in The Spectres, founded by schoolboys Francis Rossi and Alan Lancaster in 1962. After a number of lineup changes, which included the introduction of Rick Parfitt in 1967, the band became The Status Quo in 1967 and Status Quo in 1969.

They have had over 60 chart hits in the UK, more than any other rock band, including "Pictures of Matchstick Men" in 1968, "Whatever You Want" in 1979 and "In the Army Now" in 1986 and 2010. Twenty-two of these reached the Top 10 in the UK Singles Chart. In July 1985 the band opened Live Aid at Wembley Stadium with "Rockin' All Over the World". In 1991, Status Quo received a Brit Award for Outstanding Contribution to Music.

Status Quo starred in their first feature film, Bula Quo!, which was released to cinemas in July 2013. The film coincided with the release of the soundtrack album Bula Quo!, which peaked at number 10 in the UK Albums Chart. The first single from the album, "Bula Bula Quo" was released in June 2013, and is Status Quo's one hundredth single release…

~ wiki
Status Quo: Collection. 4 x Deluxe Edition Albums + 2DVDs (1973-2016):

Status Quo: Collection. 4 x Deluxe Edition Albums + 2DVDs (1973-2016)

Tracklist CD01 - 1972 - Piledriver CD1:
2016, Universal Music Japan, UICY-77627

01. Don't Waste My Time 04:21
02. Oh Baby 04:40
03. A Year 05:47
04. Unspoken Words 05:11
05. Big Fat Mama 05:54
06. Paper Plane 03:00
07. All The Reasons 03:40
08. Roadhouse Blues 07:30

Exact Audio Copy V1.1 from 23. June 2015

EAC extraction logfile from 2. February 2016, 18:09

Status Quo / Piledriver 1 SHM-CD

Used drive : PLEXTOR BD-R PX-B950SA Adapter: 1 ID: 1

Read mode : Secure
Utilize accurate stream : Yes
Defeat audio cache : Yes
Make use of C2 pointers : No

Read offset correction : 6
Overread into Lead-In and Lead-Out : No
Fill up missing offset samples with silence : Yes
Delete leading and trailing silent blocks : No
Null samples used in CRC calculations : Yes
Used interface : Native Win32 interface for Win NT & 2000

Used output format : Internal WAV Routines
Sample format : 44.100 Hz; 16 Bit; Stereo


TOC of the extracted CD

Track | Start | Length | Start sector | End sector
––––––––––––––––––––––––––––-
1 | 0:00.00 | 4:21.50 | 0 | 19624
2 | 4:21.50 | 4:40.71 | 19625 | 40695
3 | 9:02.46 | 5:47.36 | 40696 | 66756
4 | 14:50.07 | 5:11.69 | 66757 | 90150
5 | 20:02.01 | 5:54.63 | 90151 | 116763
6 | 25:56.64 | 3:00.02 | 116764 | 130265
7 | 28:56.66 | 3:40.44 | 130266 | 146809
8 | 32:37.35 | 7:30.52 | 146810 | 180611


Range status and errors

Selected range

Filename C:\Users\Meijin\Desktop\ALLexxess\Status Quo\1972 Piledriver (2 Mini LP SHM-CD Set Universal Japan)\CD1\Status Quo - Piledriver 1 SHM-CD.wav

Peak level 96.6 %
Extraction speed 7.8 X
Range quality 100.0 %
Test CRC 44CFD811
Copy CRC 44CFD811
Copy OK

No errors occurred


AccurateRip summary

Track 1 accurately ripped (confidence 8) [9B0AEFC7] (AR v2)
Track 2 accurately ripped (confidence 8) [BF42A926] (AR v2)
Track 3 accurately ripped (confidence 8) [6C120EC6] (AR v2)
Track 4 accurately ripped (confidence 8) [C8B16500] (AR v2)
Track 5 accurately ripped (confidence 8) [423FCA66] (AR v2)
Track 6 accurately ripped (confidence 8) [D3CFACE5] (AR v2)
Track 7 accurately ripped (confidence 8) [02E0C4AF] (AR v2)
Track 8 accurately ripped (confidence 8) [01B34650] (AR v2)

All tracks accurately ripped

End of status report

–– CUETools DB Plugin V2.1.6

[CTDB TOCID: wkq.hLJmB2dR6fJ09J3maY.OwmQ-] found
Submit result: wkq.hLJmB2dR6fJ09J3maY.OwmQ- has been confirmed
Track | CTDB Status
1 | (12/12) Accurately ripped
2 | (12/12) Accurately ripped
3 | (12/12) Accurately ripped
4 | (12/12) Accurately ripped
5 | (12/12) Accurately ripped
6 | (12/12) Accurately ripped
7 | (12/12) Accurately ripped
8 | (12/12) Accurately ripped


==== Log checksum 1B75BCE9FFC3F5D464F296331360CB7552C6422CDF2976AB373FA12548CA86AE ====


[CUETools log; Date: 10.03.2018 15:07:23; Version: 2.1.5]
[CTDB TOCID: wkq.hLJmB2dR6fJ09J3maY.OwmQ-] found.
Track | CTDB Status
1 | (24/25) Accurately ripped
2 | (24/25) Accurately ripped
3 | (24/25) Accurately ripped
4 | (23/25) Accurately ripped
5 | (24/25) Accurately ripped
6 | (24/25) Accurately ripped
7 | (24/25) Accurately ripped
8 | (24/25) Accurately ripped
[AccurateRip ID: 000c1481-0050be24-72096808] found.
Track [ CRC | V2 ] Status
01 [2c0e3fd6|9b0aefc7] (03+16/19) Accurately ripped
02 [18a03d1d|bf42a926] (03+16/19) Accurately ripped
03 [9fa54d24|6c120ec6] (03+17/20) Accurately ripped
04 [66e2770a|c8b16500] (03+17/20) Accurately ripped
05 [da24c026|423fca66] (03+17/20) Accurately ripped
06 [e4bdabda|d3cface5] (03+17/20) Accurately ripped
07 [495d75e7|02e0c4af] (03+17/20) Accurately ripped
08 [5f49a5b3|01b34650] (03+17/20) Accurately ripped

Track Peak [ CRC32 ] [W/O NULL] [ LOG ]
– 96,5 [44CFD811] [6D7F4A78] CRC32
01 96,5 [DAA991C1] [B7CB278E]
02 96,5 [BEFE4831] [A36D7533]
03 96,5 [3BC80273] [971126F8]
04 96,5 [CCBDEF70] [4E370E0E]
05 96,5 [947BADC9] [213AD58D]
06 96,5 [B1D9BB9E] [1D114549]
07 94,1 [8663C50E] [02E2B1E9]
08 96,5 [D1F016C3] [18EA6C32]


Tracklist CD02 - 1972 - Piledriver CD2:
2016, Universal Music Japan, UICY-77628

BBC Sounds Of The Seventies 1972:
01. Don't Waste My Time 04:24
02. Oh Baby 04:25
03. Unspoken Words 05:06
04. Paper Plane 02:59
05. Softer Ride 04:03
John Peel Session 1973:
06. Paper Plane 02:57
07. Don't Waste My Time 04:19
BBC In Concert, Paris Theatre, London 1973:
08. Junior'S Wailing 03:35
09. Someone's Learning 08:07
10. In My Chair 03:44
11. Railroad 06:14
12. Don't Waste My Time 04:30
13. Paper Plane 03:37
14. Roadhouse Blues 15:47
15. Bye Bye Johnny 05:14

Exact Audio Copy V1.1 from 23. June 2015

EAC extraction logfile from 2. February 2016, 17:43

Status Quo / Piledriver 2 SHM-CD

Used drive : PLEXTOR BD-R PX-B950SA Adapter: 1 ID: 1

Read mode : Secure
Utilize accurate stream : Yes
Defeat audio cache : Yes
Make use of C2 pointers : No

Read offset correction : 6
Overread into Lead-In and Lead-Out : No
Fill up missing offset samples with silence : Yes
Delete leading and trailing silent blocks : No
Null samples used in CRC calculations : Yes
Used interface : Native Win32 interface for Win NT & 2000

Used output format : Internal WAV Routines
Sample format : 44.100 Hz; 16 Bit; Stereo


TOC of the extracted CD

Track | Start | Length | Start sector | End sector
––––––––––––––––––––––––––––-
1 | 0:00.00 | 4:24.08 | 0 | 19807
2 | 4:24.08 | 4:25.56 | 19808 | 39738
3 | 8:49.64 | 5:06.02 | 39739 | 62690
4 | 13:55.66 | 2:59.52 | 62691 | 76167
5 | 16:55.43 | 4:03.26 | 76168 | 94418
6 | 20:58.69 | 2:57.17 | 94419 | 107710
7 | 23:56.11 | 4:19.63 | 107711 | 127198
8 | 28:15.74 | 3:35.61 | 127199 | 143384
9 | 31:51.60 | 8:07.45 | 143385 | 179954
10 | 39:59.30 | 3:44.40 | 179955 | 196794
11 | 43:43.70 | 6:14.26 | 196795 | 224870
12 | 49:58.21 | 4:30.72 | 224871 | 245192
13 | 54:29.18 | 3:37.63 | 245193 | 261530
14 | 58:07.06 | 15:47.51 | 261531 | 332606
15 | 73:54.57 | 5:14.46 | 332607 | 356202


Range status and errors

Selected range

Filename C:\Users\Meijin\Desktop\ALLexxess\Status Quo\1972 Piledriver (2 Mini LP SHM-CD Set Universal Japan)\CD2\Status Quo - Piledriver 2 SHM-CD.wav

Peak level 96.6 %
Extraction speed 8.6 X
Range quality 100.0 %
Test CRC B621F04D
Copy CRC B621F04D
Copy OK

No errors occurred


AccurateRip summary

Track 1 accurately ripped (confidence 8) [68CD16FF] (AR v2)
Track 2 accurately ripped (confidence 8) [29E13C56] (AR v2)
Track 3 accurately ripped (confidence 8) [15DF1B97] (AR v2)
Track 4 accurately ripped (confidence 8) [C63A83EF] (AR v2)
Track 5 accurately ripped (confidence 7) [FC1A06FA] (AR v2)
Track 6 accurately ripped (confidence 8) [29AF75F1] (AR v2)
Track 7 accurately ripped (confidence 8) [888EA9E6] (AR v2)
Track 8 accurately ripped (confidence 8) [27E7CF34] (AR v2)
Track 9 accurately ripped (confidence 7) [E9704B7F] (AR v2)
Track 10 accurately ripped (confidence 8) [BEFA0E61] (AR v2)
Track 11 accurately ripped (confidence 7) [1E6742FA] (AR v2)
Track 12 accurately ripped (confidence 8) [A1E7F93F] (AR v2)
Track 13 accurately ripped (confidence 8) [754A3309] (AR v2)
Track 14 accurately ripped (confidence 8) [AA5AA9C8] (AR v2)
Track 15 accurately ripped (confidence 8) [53720896] (AR v2)

All tracks accurately ripped

End of status report

–– CUETools DB Plugin V2.1.6

[CTDB TOCID: U5GZgdpAhkcVwh16c1REx8.bRqs-] found
Submit result: U5GZgdpAhkcVwh16c1REx8.bRqs- has been confirmed
Track | CTDB Status
1 | (12/12) Accurately ripped
2 | (12/12) Accurately ripped
3 | (12/12) Accurately ripped
4 | (12/12) Accurately ripped
5 | (12/12) Accurately ripped
6 | (12/12) Accurately ripped
7 | (12/12) Accurately ripped
8 | (12/12) Accurately ripped
9 | (12/12) Accurately ripped
10 | (12/12) Accurately ripped
11 | (12/12) Accurately ripped
12 | (12/12) Accurately ripped
13 | (12/12) Accurately ripped
14 | (12/12) Accurately ripped
15 | (11/12) Accurately ripped


==== Log checksum 259EE9FE5488A60DCFD1300F6A096DCCF3CC8284F756A2EB5B2DA0F29052A75C ====


[CUETools log; Date: 10.03.2018 15:08:04; Version: 2.1.5]
[CTDB TOCID: U5GZgdpAhkcVwh16c1REx8.bRqs-] found.
Track | CTDB Status
1 | (24/24) Accurately ripped
2 | (24/24) Accurately ripped
3 | (24/24) Accurately ripped
4 | (24/24) Accurately ripped
5 | (24/24) Accurately ripped
6 | (24/24) Accurately ripped
7 | (24/24) Accurately ripped
8 | (24/24) Accurately ripped
9 | (24/24) Accurately ripped
10 | (24/24) Accurately ripped
11 | (23/24) Accurately ripped
12 | (24/24) Accurately ripped
13 | (24/24) Accurately ripped
14 | (24/24) Accurately ripped
15 | (22/24) Accurately ripped
[AccurateRip ID: 0025a9b3-01b4b115-c1128d0f] found.
Track [ CRC | V2 ] Status
01 [56b7fe5a|68cd16ff] (03+16/19) Accurately ripped
02 [3549ab54|29e13c56] (03+16/19) Accurately ripped
03 [2c6d290d|15df1b97] (03+16/19) Accurately ripped
04 [28b266d1|c63a83ef] (03+16/19) Accurately ripped
05 [b30eeac6|fc1a06fa] (03+15/18) Accurately ripped
06 [ba1642f0|29af75f1] (03+16/19) Accurately ripped
07 [ca2d818e|888ea9e6] (03+16/19) Accurately ripped
08 [9daff814|27e7cf34] (03+16/19) Accurately ripped
09 [86645b4d|e9704b7f] (03+15/18) Accurately ripped
10 [0f6f339f|befa0e61] (03+16/19) Accurately ripped
11 [cf7cc471|1e6742fa] (03+15/18) Accurately ripped
12 [4fa1c655|a1e7f93f] (03+16/19) Accurately ripped
13 [b43aa8e9|754a3309] (03+15/18) Accurately ripped
14 [c65f460a|aa5aa9c8] (03+15/18) Accurately ripped
15 [25a519a8|53720896] (03+16/19) Accurately ripped

Track Peak [ CRC32 ] [W/O NULL] [ LOG ]
– 96,5 [B621F04D] [8C5A62CA] CRC32
01 96,5 [D6E7095D] [FDC18804]
02 96,5 [347F6A55] [5E38449F]
03 96,5 [5203D4BE] [5C67F971]
04 91,6 [A6CEA943] [96FC707D]
05 96,5 [0A2FB345] [FA5843E7]
06 92,6 [6CB7EF56] [F165FB9E]
07 96,4 [B8F4BF06] [B78CB512]
08 91,6 [E9B092EA] [D58800C5]
09 91,6 [732D6EE6] [B44E756C]
10 91,6 [50EEDA99] [B628DE58]
11 91,6 [C515E7CB] [3C4DE4C2]
12 91,6 [B07A9A8A] [55AF66E3]
13 91,6 [09EB79E8] [DBD90C54]
14 91,6 [4B23E90A] [B9B397ED]
15 91,6 [491D570C] [5052544D]


Status Quo: Collection. 4 x Deluxe Edition Albums + 2DVDs (1973-2016)

Tracklist CD03 - 1973 - Hello! CD1:
2016, Universal Music Japan, UICY-77629

01. Roll Over Lay Down 05:43
02. Claudie 04:04
03. A Reason For Living 03:44
04. Blue Eyed Lady 03:53
05. Caroline 04:18
06. Softer Ride 04:01
07. And It’s Better Now 03:20
08. Forty - Five Hundred Times 09:53

Exact Audio Copy V1.1 from 23. June 2015

EAC extraction logfile from 2. February 2016, 17:08

Status Quo / Hello! 1 SHM-CD

Used drive : PLEXTOR BD-R PX-B950SA Adapter: 1 ID: 1

Read mode : Secure
Utilize accurate stream : Yes
Defeat audio cache : Yes
Make use of C2 pointers : No

Read offset correction : 6
Overread into Lead-In and Lead-Out : No
Fill up missing offset samples with silence : Yes
Delete leading and trailing silent blocks : No
Null samples used in CRC calculations : Yes
Used interface : Native Win32 interface for Win NT & 2000

Used output format : Internal WAV Routines
Sample format : 44.100 Hz; 16 Bit; Stereo


TOC of the extracted CD

Track | Start | Length | Start sector | End sector
––––––––––––––––––––––––––––-
1 | 0:00.00 | 5:43.69 | 0 | 25793
2 | 5:43.69 | 4:04.21 | 25794 | 44114
3 | 9:48.15 | 3:44.20 | 44115 | 60934
4 | 13:32.35 | 3:53.50 | 60935 | 78459
5 | 17:26.10 | 4:18.53 | 78460 | 97862
6 | 21:44.63 | 4:01.08 | 97863 | 115945
7 | 25:45.71 | 3:20.37 | 115946 | 130982
8 | 29:06.33 | 9:53.62 | 130983 | 175519


Range status and errors

Selected range

Filename C:\Users\Meijin\Desktop\ALLexxess\Status Quo\1973 Hello! (2 Mini LP SHM-CD Set Universal Japan)\CD1\Status Quo - Hello! 1 SHM-CD.wav

Peak level 97.0 %
Extraction speed 6.4 X
Range quality 99.9 %
Test CRC 74FF59D5
Copy CRC 74FF59D5
Copy OK

No errors occurred


AccurateRip summary

Track 1 not present in database
Track 2 not present in database
Track 3 not present in database
Track 4 not present in database
Track 5 not present in database
Track 6 not present in database
Track 7 not present in database
Track 8 not present in database

None of the tracks are present in the AccurateRip database

End of status report

–– CUETools DB Plugin V2.1.6

[CTDB TOCID: ZgIJKaw.arBDbhimRRZ1yeTTarQ-] found
Submit result: ZgIJKaw.arBDbhimRRZ1yeTTarQ- has been confirmed
Track | CTDB Status
1 | (4/4) Accurately ripped
2 | (4/4) Accurately ripped
3 | (4/4) Accurately ripped
4 | (4/4) Accurately ripped
5 | (4/4) Accurately ripped
6 | (4/4) Accurately ripped
7 | (4/4) Accurately ripped
8 | (4/4) Accurately ripped


==== Log checksum FF36CA7E5BD345AB82BF89C5B5CF7125B8F73F1AC798C169A4D39B4E35E4789C ====


[CUETools log; Date: 10.03.2018 15:08:37; Version: 2.1.5]
[CTDB TOCID: ZgIJKaw.arBDbhimRRZ1yeTTarQ-] found.
Track | CTDB Status
1 | (20/20) Accurately ripped
2 | (20/20) Accurately ripped
3 | (19/20) Accurately ripped
4 | (19/20) Accurately ripped
5 | (19/20) Accurately ripped
6 | (20/20) Accurately ripped
7 | (20/20) Accurately ripped
8 | (20/20) Accurately ripped
[AccurateRip ID: 000b2210-0049f2ee-65092408] found.
Track [ CRC | V2 ] Status
01 [2d25b9af|d99b5676] (00+12/12) Accurately ripped
02 [f2a9e91f|7f7e1f42] (00+12/12) Accurately ripped
03 [a4f16aba|208c5080] (00+12/12) Accurately ripped
04 [199a8c98|9821805f] (00+12/12) Accurately ripped
05 [288e7722|8166a7b4] (00+12/12) Accurately ripped
06 [0242b71a|7406e6a0] (00+12/12) Accurately ripped
07 [72bef609|ec5d8942] (00+12/12) Accurately ripped
08 [fc0f0421|726c3517] (00+12/12) Accurately ripped

Track Peak [ CRC32 ] [W/O NULL] [ LOG ]
– 97,0 [74FF59D5] [84E9ADD5] CRC32
01 97,0 [E4A75A7E] [AA36724A]
02 97,0 [418D4DBE] [1C7B370C]
03 97,0 [FC3B981A] [3CEC42F7]
04 97,0 [1FE29B15] [3A28BB91]
05 97,0 [67D423E9] [59DA0766]
06 96,0 [143C6097] [75AF4ED9]
07 96,8 [4896F64E] [B3546BAB]
08 97,0 [886BCC5D] [7078CFFB]


Tracklist CD04 - 1973 - Hello! CD2:
2016, Universal Music Japan, UICY-77630

01. Joanne (Single B-Side) 04:08
02. Caroline (Original Demo (fast) 1971) 02:11
03. Caroline (Original Demo (slow) 1971) 03:11
04. Don’t Waste My Time (Reading Festival 1973) 04:22
05. Caroline (Mono) 02:43
06. Caroline (Stereo Edit) 02:45
07. Is It Really Me / Gotta Go Home (Dublin National Stadium 10.04.73) 25:17

Exact Audio Copy V1.1 from 23. June 2015

EAC extraction logfile from 2. February 2016, 16:42

Status Quo / Hello! 2 SHM-CD

Used drive : PLEXTOR BD-R PX-B950SA Adapter: 1 ID: 1

Read mode : Secure
Utilize accurate stream : Yes
Defeat audio cache : Yes
Make use of C2 pointers : No

Read offset correction : 6
Overread into Lead-In and Lead-Out : No
Fill up missing offset samples with silence : Yes
Delete leading and trailing silent blocks : No
Null samples used in CRC calculations : Yes
Used interface : Native Win32 interface for Win NT & 2000

Used output format : Internal WAV Routines
Sample format : 44.100 Hz; 16 Bit; Stereo


TOC of the extracted CD

Track | Start | Length | Start sector | End sector
––––––––––––––––––––––––––––-
1 | 0:00.00 | 4:08.36 | 0 | 18635
2 | 4:08.36 | 2:11.31 | 18636 | 28491
3 | 6:19.67 | 3:11.37 | 28492 | 42853
4 | 9:31.29 | 4:22.62 | 42854 | 62565
5 | 13:54.16 | 2:43.61 | 62566 | 74851
6 | 16:38.02 | 2:45.33 | 74852 | 87259
7 | 19:23.35 | 25:17.34 | 87260 | 201068


Range status and errors

Selected range

Filename C:\Users\Meijin\Desktop\ALLexxess\Status Quo\1973 Hello! (2 Mini LP SHM-CD Set Universal Japan)\CD2\Status Quo - Hello! 2 SHM-CD.wav

Peak level 97.0 %
Extraction speed 6.7 X
Range quality 99.9 %
Test CRC 68A644F5
Copy CRC 68A644F5
Copy OK

No errors occurred


AccurateRip summary

Track 1 not present in database
Track 2 not present in database
Track 3 not present in database
Track 4 not present in database
Track 5 not present in database
Track 6 not present in database
Track 7 not present in database

None of the tracks are present in the AccurateRip database

End of status report

–– CUETools DB Plugin V2.1.6

[CTDB TOCID: 6Do.GbYFdDGpR7VcmysvrO_UIqc-] found
Submit result: 6Do.GbYFdDGpR7VcmysvrO_UIqc- has been confirmed
Track | CTDB Status
1 | (2/2) Accurately ripped
2 | (2/2) Accurately ripped
3 | (2/2) Accurately ripped
4 | (2/2) Accurately ripped
5 | (2/2) Accurately ripped
6 | (2/2) Accurately ripped
7 | (2/2) Accurately ripped


==== Log checksum 27AFBCD96AFEAAADF3755D21609D7537634BFE287E4A4A008BDC97C1AFB6F68B ====


[CUETools log; Date: 10.03.2018 15:09:10; Version: 2.1.5]
[CTDB TOCID: 6Do.GbYFdDGpR7VcmysvrO_UIqc-] found.
Track | CTDB Status
1 | (14/14) Accurately ripped
2 | (14/14) Accurately ripped
3 | (14/14) Accurately ripped
4 | (14/14) Accurately ripped
5 | (14/14) Accurately ripped
6 | (14/14) Accurately ripped
7 | (14/14) Accurately ripped
[AccurateRip ID: 0007de91-0031fad7-430a7807] found.
Track [ CRC | V2 ] Status
01 [c95f58a8|9d13cf4c] (00+11/11) Accurately ripped
02 [70e9f9f9|9478f0af] (00+11/11) Accurately ripped
03 [b654d33e|e3829068] (00+11/11) Accurately ripped
04 [b72eb300|9cd238a7] (00+11/11) Accurately ripped
05 [1fa523b2|fea75188] (00+11/11) Accurately ripped
06 [1861a421|743a1774] (00+11/11) Accurately ripped
07 [38569193|a7b6d94a] (00+11/11) Accurately ripped

Track Peak [ CRC32 ] [W/O NULL] [ LOG ]
– 97,0 [68A644F5] [EAD7D9AC] CRC32
01 97,0 [C5D9E6A2] [22CEE9F0]
02 90,8 [4D5B1929] [B6796DF5]
03 91,8 [60954843] [42DE8CCB]
04 97,0 [53F8D9F5] [FC0AA62C]
05 97,0 [3AAE9F22] [DBDCE82B]
06 97,0 [86C18EE3] [D497C48B]
07 86,9 [184A701D] [498DFB7F]


Status Quo: Collection. 4 x Deluxe Edition Albums + 2DVDs (1973-2016)

Tracklist CD05 - 1974 - Quo CD1:
2016, Universal Music Japan, UICY-77631

01. Backwater 04:19
02. Just Take Me 03:36
03. Break The Rules 03:39
04. Drifting Away 05:04
05. Don’t Think It Matters 04:53
06. Fine Fine Fine 02:31
07. Lonely Man 05:07
08. Slow Train 07:53

Exact Audio Copy V1.1 from 23. June 2015

EAC extraction logfile from 1. February 2016, 18:11

Status Quo / Quo 1 SHM-CD

Used drive : PLEXTOR BD-R PX-B950SA Adapter: 1 ID: 1

Read mode : Secure
Utilize accurate stream : Yes
Defeat audio cache : Yes
Make use of C2 pointers : No

Read offset correction : 6
Overread into Lead-In and Lead-Out : No
Fill up missing offset samples with silence : Yes
Delete leading and trailing silent blocks : No
Null samples used in CRC calculations : Yes
Used interface : Native Win32 interface for Win NT & 2000

Used output format : Internal WAV Routines
Sample format : 44.100 Hz; 16 Bit; Stereo


TOC of the extracted CD

Track | Start | Length | Start sector | End sector
––––––––––––––––––––––––––––-
1 | 0:00.00 | 4:19.23 | 0 | 19447
2 | 4:19.23 | 3:36.47 | 19448 | 35694
3 | 7:55.70 | 3:39.41 | 35695 | 52160
4 | 11:35.36 | 5:04.65 | 52161 | 75025
5 | 16:40.26 | 4:53.53 | 75026 | 97053
6 | 21:34.04 | 2:31.73 | 97054 | 108451
7 | 24:06.02 | 5:07.68 | 108452 | 131544
8 | 29:13.70 | 7:53.31 | 131545 | 167050


Range status and errors

Selected range

Filename C:\Users\Meijin\Desktop\ALLexxess\Status Quo\1974 Quo (2 Mini LP SHM-CD Set Universal Japan)\CD1\Status Quo - Quo 1 SHM-CD.wav

Peak level 97.0 %
Extraction speed 6.4 X
Range quality 100.0 %
Test CRC 9E1DD7A8
Copy CRC 9E1DD7A8
Copy OK

No errors occurred


AccurateRip summary

Track 1 not present in database
Track 2 not present in database
Track 3 not present in database
Track 4 not present in database
Track 5 not present in database
Track 6 not present in database
Track 7 not present in database
Track 8 not present in database

None of the tracks are present in the AccurateRip database

End of status report

–– CUETools DB Plugin V2.1.6

[CTDB TOCID: .zEexjYZJbn2XMQHNFg2X9Oo3uk-] found
Submit result: .zEexjYZJbn2XMQHNFg2X9Oo3uk- has been confirmed
Track | CTDB Status
1 | (3/3) Accurately ripped
2 | (3/3) Accurately ripped
3 | (3/3) Accurately ripped
4 | (3/3) Accurately ripped
5 | (3/3) Accurately ripped
6 | (3/3) Accurately ripped
7 | (3/3) Accurately ripped
8 | (3/3) Accurately ripped


==== Log checksum 367092AD95B49D2EBCFD6CD98610543DA1C84E135429047AC802F57C48DF8D87 ====


[CUETools log; Date: 10.03.2018 15:09:44; Version: 2.1.5]
[CTDB TOCID: .zEexjYZJbn2XMQHNFg2X9Oo3uk-] found.
Track | CTDB Status
1 | (22/23) Accurately ripped
2 | (22/23) Accurately ripped
3 | (22/23) Accurately ripped
4 | (22/23) Accurately ripped
5 | (22/23) Accurately ripped
6 | (22/23) Accurately ripped
7 | (22/23) Accurately ripped
8 | (22/23) Accurately ripped
[AccurateRip ID: 000a7960-00469a77-6b08b308] found.
Track [ CRC | V2 ] Status
01 [87677d83|b332e6bb] (00+10/10) Accurately ripped
02 [bf4774b9|e9f85f74] (00+10/10) Accurately ripped
03 [869fa52c|0daf3d10] (00+10/10) Accurately ripped
04 [1e837f7c|8dcea757] (00+10/10) Accurately ripped
05 [f4832d00|d05fbd8f] (00+10/10) Accurately ripped
06 [4a094ba3|bd7f3d68] (00+10/10) Accurately ripped
07 [db7b48d9|7f4a649d] (00+10/10) Accurately ripped
08 [b576d47d|fbc27781] (00+10/10) Accurately ripped

Track Peak [ CRC32 ] [W/O NULL] [ LOG ]
– 97,0 [9E1DD7A8] [4212B373] CRC32
01 97,0 [1798B0A1] [A14B6AA1]
02 97,0 [06ACAE53] [54A7739A]
03 97,0 [95440113] [A72F51EE]
04 97,0 [38EA0DB1] [F8139249]
05 97,0 [65885C0A] [D63D5D91]
06 97,0 [BEBA59F8] [DA027195]
07 97,0 [2DED5276] [385638D4]
08 97,0 [1523AEE1] [F54DA80D]


Tracklist CD06 - 1974 - Quo CD2:
2016, Universal Music Japan, UICY-77632

01. Lonely Night (Single B-Side) 03:32
Paris L’Olympia 11th January 1975:
02. Junior’s Wailing 05:41
03. Backwater 04:25
04. Just Take Me 04:33
05. Claudie 04:53
06. Railroad 05:44
07. Roll Over Lay Down 05:36
08. Big Fat Mama 05:45
09. Don’t Waste My Time 04:04
10. Roadhouse Blues 16:53
11. Caroline 08:00
12. Bye Bye Johnny 07:02

Exact Audio Copy V1.1 from 23. June 2015

EAC extraction logfile from 1. February 2016, 17:46

Status Quo / Quo 2 SHM-CD

Used drive : PLEXTOR BD-R PX-B950SA Adapter: 1 ID: 1

Read mode : Secure
Utilize accurate stream : Yes
Defeat audio cache : Yes
Make use of C2 pointers : No

Read offset correction : 6
Overread into Lead-In and Lead-Out : No
Fill up missing offset samples with silence : Yes
Delete leading and trailing silent blocks : No
Null samples used in CRC calculations : Yes
Used interface : Native Win32 interface for Win NT & 2000

Used output format : Internal WAV Routines
Sample format : 44.100 Hz; 16 Bit; Stereo


TOC of the extracted CD

Track | Start | Length | Start sector | End sector
––––––––––––––––––––––––––––-
1 | 0:00.00 | 3:32.42 | 0 | 15941
2 | 3:32.42 | 5:41.55 | 15942 | 41571
3 | 9:14.22 | 4:25.72 | 41572 | 61518
4 | 13:40.19 | 4:33.32 | 61519 | 82025
5 | 18:13.51 | 4:53.52 | 82026 | 104052
6 | 23:07.28 | 5:44.28 | 104053 | 129880
7 | 28:51.56 | 5:36.17 | 129881 | 155097
8 | 34:27.73 | 5:45.17 | 155098 | 180989
9 | 40:13.15 | 4:04.74 | 180990 | 199363
10 | 44:18.14 | 16:53.08 | 199364 | 275346
11 | 61:11.22 | 8:00.43 | 275347 | 311389
12 | 69:11.65 | 7:02.17 | 311390 | 343056


Range status and errors

Selected range

Filename C:\Users\Meijin\Desktop\ALLexxess\Status Quo\1974 Quo (2 Mini LP SHM-CD Set Universal Japan)\CD2\Status Quo - Quo 2 SHM-CD.wav

Peak level 95.0 %
Extraction speed 3.9 X
Range quality 100.0 %
Test CRC F672AC5C
Copy CRC F672AC5C
Copy OK

No errors occurred


AccurateRip summary

Track 1 not present in database
Track 2 not present in database
Track 3 not present in database
Track 4 not present in database
Track 5 not present in database
Track 6 not present in database
Track 7 not present in database
Track 8 not present in database
Track 9 not present in database
Track 10 not present in database
Track 11 not present in database
Track 12 not present in database

None of the tracks are present in the AccurateRip database

End of status report

–– CUETools DB Plugin V2.1.6

[CTDB TOCID: eP9MENf3Jj5VuoypBRqJbKQIhLo-] found
Submit result: eP9MENf3Jj5VuoypBRqJbKQIhLo- has been confirmed
Track | CTDB Status
1 | (2/2) Accurately ripped
2 | (2/2) Accurately ripped
3 | (2/2) Accurately ripped
4 | (2/2) Accurately ripped
5 | (2/2) Accurately ripped
6 | (2/2) Accurately ripped
7 | (2/2) Accurately ripped
8 | (2/2) Accurately ripped
9 | (2/2) Accurately ripped
10 | (2/2) Accurately ripped
11 | (2/2) Accurately ripped
12 | (2/2) Accurately ripped


==== Log checksum 5CF9AA71EAC77325930E7AC91CB1B1D97BFF90685C8DD5737D377FB0E7742F4C ====


[CUETools log; Date: 10.03.2018 15:10:20; Version: 2.1.5]
[CTDB TOCID: eP9MENf3Jj5VuoypBRqJbKQIhLo-] found.
Track | CTDB Status
1 | (17/17) Accurately ripped
2 | (17/17) Accurately ripped
3 | (17/17) Accurately ripped
4 | (17/17) Accurately ripped
5 | (17/17) Accurately ripped
6 | (17/17) Accurately ripped
7 | (17/17) Accurately ripped
8 | (17/17) Accurately ripped
9 | (17/17) Accurately ripped
10 | (17/17) Accurately ripped
11 | (17/17) Accurately ripped
12 | (17/17) Accurately ripped
[AccurateRip ID: 001cfecf-01194b30-a211de0c] found.
Track [ CRC | V2 ] Status
01 [c0e3d5f4|50526465] (0+9/9) Accurately ripped
02 [208a6372|db32c287] (0+9/9) Accurately ripped
03 [55f4ae8e|8d4164b3] (0+9/9) Accurately ripped
04 [ac3f8bcd|cdfb1ab6] (0+9/9) Accurately ripped
05 [25ddea3d|03ab4c8d] (0+9/9) Accurately ripped
06 [b94dca88|f8f79f6a] (0+9/9) Accurately ripped
07 [0f1f9951|b248d47b] (0+9/9) Accurately ripped
08 [da62df3d|bd703e15] (0+9/9) Accurately ripped
09 [3f2af5e9|3559f521] (0+9/9) Accurately ripped
10 [2aa9029f|9273a207] (0+9/9) Accurately ripped
11 [3fc7db37|2486f31e] (0+9/9) Accurately ripped
12 [a309d98b|2c1c1cd7] (0+9/9) Accurately ripped

Track Peak [ CRC32 ] [W/O NULL] [ LOG ]
– 95,0 [F672AC5C] [F98CF78C] CRC32
01 92,4 [404FB442] [13EB5936]
02 95,0 [61F343B7] [8529B670]
03 86,2 [31FC6CF6] [5E29E978]
04 92,5 [A3B3BED4] [22C73E7A]
05 85,6 [3DABBC4B] [40D0BCDF]
06 94,5 [5916C52B] [739F92DE]
07 79,4 [31BB0973] [E2802018]
08 89,5 [C416C34B] [D168DB68]
09 83,1 [7405A7D6] [CEC31942]
10 92,1 [9215A6B7] [EDA571C9]
11 90,4 [CEE638FF] [ABDA0D63]
12 92,8 [38190B00] [06B39D32]


Status Quo: Collection. 4 x Deluxe Edition Albums + 2DVDs (1973-2016)

Tracklist CD07 - 1977 - Rockin' All Over The World CD1:
2016, Universal Music Japan, UICY-77633

01. Hard Time 04:45
02. Can't Give You More 04:16
03. Let's Ride 03:03
04. Baby Boy 03:12
05. You Don't Own Me 03:03
06. Rockers Rollin' 04:18
07. Rockin' All Over The World 03:37
08. Who Am I? 04:30
09. Too Far Gone 03:08
10. For You 03:01
11. Dirty Water 03:51
12. Hold You Back 04:31

Exact Audio Copy V1.1 from 23. June 2015

EAC extraction logfile from 1. February 2016, 16:05

Status Quo / Rockin' All Over The World 1 SHM-CD

Used drive : PLEXTOR BD-R PX-B950SA Adapter: 1 ID: 1

Read mode : Secure
Utilize accurate stream : Yes
Defeat audio cache : Yes
Make use of C2 pointers : No

Read offset correction : 6
Overread into Lead-In and Lead-Out : No
Fill up missing offset samples with silence : Yes
Delete leading and trailing silent blocks : No
Null samples used in CRC calculations : Yes
Used interface : Native Win32 interface for Win NT & 2000

Used output format : Internal WAV Routines
Sample format : 44.100 Hz; 16 Bit; Stereo


TOC of the extracted CD

Track | Start | Length | Start sector | End sector
––––––––––––––––––––––––––––-
1 | 0:00.00 | 4:45.67 | 0 | 21441
2 | 4:45.67 | 4:16.12 | 21442 | 40653
3 | 9:02.04 | 3:03.10 | 40654 | 54388
4 | 12:05.14 | 3:12.64 | 54389 | 68852
5 | 15:18.03 | 3:03.66 | 68853 | 82643
6 | 18:21.69 | 4:18.66 | 82644 | 102059
7 | 22:40.60 | 3:37.05 | 102060 | 118339
8 | 26:17.65 | 4:30.51 | 118340 | 138640
9 | 30:48.41 | 3:08.45 | 138641 | 152785
10 | 33:57.11 | 3:01.21 | 152786 | 166381
11 | 36:58.32 | 3:51.18 | 166382 | 183724
12 | 40:49.50 | 4:31.25 | 183725 | 204074


Range status and errors

Selected range

Filename C:\Users\Meijin\Desktop\ALLexxess\Status Quo\1977 Rockin' All Over The World (2 Mini LP SHM-CD Set Universal Japan)\CD1\Status Quo - Rockin' All Over The World 1 SHM-CD.wav

Peak level 97.0 %
Extraction speed 6.8 X
Range quality 100.0 %
Test CRC 141738CE
Copy CRC 141738CE
Copy OK

No errors occurred


AccurateRip summary

Track 1 not present in database
Track 2 not present in database
Track 3 not present in database
Track 4 not present in database
Track 5 not present in database
Track 6 not present in database
Track 7 not present in database
Track 8 not present in database
Track 9 not present in database
Track 10 not present in database
Track 11 not present in database
Track 12 not present in database

None of the tracks are present in the AccurateRip database

End of status report

–– CUETools DB Plugin V2.1.6

[CTDB TOCID: vb23eUhKKC8VvUlGsjxmDZ4WPYc-] found
Submit result: vb23eUhKKC8VvUlGsjxmDZ4WPYc- has been confirmed
Track | CTDB Status
1 | (3/3) Accurately ripped
2 | (3/3) Accurately ripped
3 | (3/3) Accurately ripped
4 | (3/3) Accurately ripped
5 | (3/3) Accurately ripped
6 | (3/3) Accurately ripped
7 | (3/3) Accurately ripped
8 | (3/3) Accurately ripped
9 | (3/3) Accurately ripped
10 | (3/3) Accurately ripped
11 | (3/3) Accurately ripped
12 | (3/3) Accurately ripped


==== Log checksum 00B53BADEB518FCE886D7DCC47D751AEC404EF29A064898727C84A5BD4528650 ====


[CUETools log; Date: 10.03.2018 15:10:53; Version: 2.1.5]
[CTDB TOCID: vb23eUhKKC8VvUlGsjxmDZ4WPYc-] found.
Track | CTDB Status
1 | (23/23) Accurately ripped
2 | (23/23) Accurately ripped
3 | (23/23) Accurately ripped
4 | (23/23) Accurately ripped
5 | (23/23) Accurately ripped
6 | (23/23) Accurately ripped
7 | (23/23) Accurately ripped
8 | (23/23) Accurately ripped
9 | (23/23) Accurately ripped
10 | (23/23) Accurately ripped
11 | (23/23) Accurately ripped
12 | (23/23) Accurately ripped
[AccurateRip ID: 00145ae7-00bc672a-900aa10c] found.
Track [ CRC | V2 ] Status
01 [1d4b980b|8b51c1c2] (02+14/16) Accurately ripped
02 [1570457e|2a74eb99] (02+14/16) Accurately ripped
03 [fb301113|e53a11d9] (02+14/16) Accurately ripped
04 [d760e10f|ee892156] (02+14/16) Accurately ripped
05 [b2ccfd9f|7750ccb1] (02+14/16) Accurately ripped
06 [f8050a7c|56673239] (02+14/16) Accurately ripped
07 [e45c1f52|e9614b95] (02+14/16) Accurately ripped
08 [b1c51a6b|647f7ccb] (02+14/16) Accurately ripped
09 [47c43cec|e340f9b6] (02+14/16) Accurately ripped
10 [ea4b95af|78daec6b] (02+14/16) Accurately ripped
11 [f032848f|dc5a85d0] (02+14/16) Accurately ripped
12 [6ac3a489|431f8db8] (02+14/16) Accurately ripped

Track Peak [ CRC32 ] [W/O NULL] [ LOG ]
– 97,0 [141738CE] [0AA64964] CRC32
01 97,0 [F8AEDA65] [45CBD582]
02 97,0 [5D222E4E] [A345A237]
03 97,0 [3E72DD62] [57ABDF67]
04 97,0 [5AD34DFE] [D884EA59]
05 97,0 [985B7FD2] [F360C6F5]
06 97,0 [E9CB6EDC] [1D52849B]
07 97,0 [B355277C] [A81440EF]
08 97,0 [D7C497F0] [CBD7CF67]
09 93,1 [EFF36656] [9FFED269]
10 97,0 [C6812232] [37B75D1E]
11 97,0 [63714206] [B35A842B]
12 97,0 [90096C2D] [D4B50624]


Tracklist CD08 - 1977 - Rockin' All Over The World`CD2:
2016, Universal Music Japan, UICY-77634

John Eden Remix:
01. Hold You Back 05:10
02. Baby Boy 03:18
03. Rockers Rollin' 04:41
04. Who Am I? 05:10
05. Rockin' All Over The World 03:50
06. Dirty Water 04:16
07. Can't Give You More 05:26
08. Let's Ride 03:04
09. For You 03:08
10. Too Far Gone 03:09
11. You Don't Own Me 03:29
12. Hard Time 04:39
Rockin' All Over The World Demos:
13. Dirty Water (1st Demo 1976) 04:16
14. Baby Boy (1st Demo 1976) 02:49
15. Hard Time (1st Demo 1976) 04:47
16. Hold You Back (Studio Demo 1977) 03:40

Exact Audio Copy V1.1 from 23. June 2015

EAC extraction logfile from 1. February 2016, 10:24

Status Quo / Rockin' All Over The World 2 SHM-CD

Used drive : Optiarc DVD RW AD-7280S Adapter: 1 ID: 0

Read mode : Secure
Utilize accurate stream : Yes
Defeat audio cache : Yes
Make use of C2 pointers : No

Read offset correction : 48
Overread into Lead-In and Lead-Out : No
Fill up missing offset samples with silence : Yes
Delete leading and trailing silent blocks : No
Null samples used in CRC calculations : Yes
Used interface : Native Win32 interface for Win NT & 2000

Used output format : Internal WAV Routines
Sample format : 44.100 Hz; 16 Bit; Stereo


TOC of the extracted CD

Track | Start | Length | Start sector | End sector
––––––––––––––––––––––––––––-
1 | 0:00.00 | 5:10.03 | 0 | 23252
2 | 5:10.03 | 3:18.04 | 23253 | 38106
3 | 8:28.07 | 4:41.70 | 38107 | 59251
4 | 13:10.02 | 5:10.57 | 59252 | 82558
5 | 18:20.59 | 3:50.43 | 82559 | 99851
6 | 22:11.27 | 4:16.09 | 99852 | 119060
7 | 26:27.36 | 5:26.18 | 119061 | 143528
8 | 31:53.54 | 3:04.62 | 143529 | 157390
9 | 34:58.41 | 3:08.19 | 157391 | 171509
10 | 38:06.60 | 3:09.13 | 171510 | 185697
11 | 41:15.73 | 3:29.09 | 185698 | 201381
12 | 44:45.07 | 4:39.34 | 201382 | 222340
13 | 49:24.41 | 4:16.10 | 222341 | 241550
14 | 53:40.51 | 2:49.25 | 241551 | 254250
15 | 56:30.01 | 4:47.22 | 254251 | 275797
16 | 61:17.23 | 3:40.46 | 275798 | 292343


Range status and errors

Selected range

Filename C:\Users\Meijin\Desktop\ALLexxess\Status Quo\1977 Rockin' All Over The World (2 Mini LP SHM-CD Set Universal Japan)\CD2\Status Quo - Rockin' All Over The World 2 SHM-CD.wav

Peak level 91.0 %
Extraction speed 8.4 X
Range quality 100.0 %
Test CRC 3B9946C9
Copy CRC 3B9946C9
Copy OK

No errors occurred


AccurateRip summary

Track 1 not present in database
Track 2 not present in database
Track 3 not present in database
Track 4 not present in database
Track 5 not present in database
Track 6 not present in database
Track 7 not present in database
Track 8 not present in database
Track 9 not present in database
Track 10 not present in database
Track 11 not present in database
Track 12 not present in database
Track 13 not present in database
Track 14 not present in database
Track 15 not present in database
Track 16 not present in database

None of the tracks are present in the AccurateRip database

End of status report

–– CUETools DB Plugin V2.1.6

[CTDB TOCID: Y.Pp4wzok0mdhUAlAyW1IS0RfW4-] found
Submit result: Y.Pp4wzok0mdhUAlAyW1IS0RfW4- has been confirmed
Track | CTDB Status
1 | (4/4) Accurately ripped
2 | (4/4) Accurately ripped
3 | (4/4) Accurately ripped
4 | (4/4) Accurately ripped
5 | (4/4) Accurately ripped
6 | (4/4) Accurately ripped
7 | (4/4) Accurately ripped
8 | (4/4) Accurately ripped
9 | (4/4) Accurately ripped
10 | (4/4) Accurately ripped
11 | (4/4) Accurately ripped
12 | (4/4) Accurately ripped
13 | (4/4) Accurately ripped
14 | (4/4) Accurately ripped
15 | (4/4) Accurately ripped
16 | (4/4) Accurately ripped


==== Log checksum 065DA71D97CFB5041DA6E337504308E1A886B78AF2EE7881EB626044E78004C4 ====


[CUETools log; Date: 10.03.2018 15:11:35; Version: 2.1.5]
[CTDB TOCID: Y.Pp4wzok0mdhUAlAyW1IS0RfW4-] found.
Track | CTDB Status
1 | (27/27) Accurately ripped
2 | (27/27) Accurately ripped
3 | (27/27) Accurately ripped
4 | (26/27) Accurately ripped
5 | (27/27) Accurately ripped
6 | (26/27) Accurately ripped
7 | (27/27) Accurately ripped
8 | (27/27) Accurately ripped
9 | (27/27) Accurately ripped
10 | (27/27) Accurately ripped
11 | (27/27) Accurately ripped
12 | (27/27) Accurately ripped
13 | (27/27) Accurately ripped
14 | (27/27) Accurately ripped
15 | (27/27) Accurately ripped
16 | (26/27) Accurately ripped
[AccurateRip ID: 00272ec7-01d0a47b-e10f3910] found.
Track [ CRC | V2 ] Status
01 [17656952|53c48f96] (02+15/17) Accurately ripped
02 [17a46ae0|8880197e] (02+15/17) Accurately ripped
03 [4838661b|533c842b] (02+15/17) Accurately ripped
04 [e5111322|ea1fa889] (02+15/17) Accurately ripped
05 [547f5e53|fdc32cdd] (02+14/16) Accurately ripped
06 [25b73aad|7850e64e] (02+15/17) Accurately ripped
07 [8a5daf9f|994300f8] (02+15/17) Accurately ripped
08 [dc305ea7|67e97fa5] (02+15/17) Accurately ripped
09 [a8e90939|cdb1b525] (02+14/16) Accurately ripped
10 [7b491f0e|bcd4594d] (02+15/17) Accurately ripped
11 [673f0e2d|43fe8097] (02+15/17) Accurately ripped
12 [9c57ae24|6d9f70ff] (02+15/17) Accurately ripped
13 [03607ac9|83ec4b08] (02+14/16) Accurately ripped
14 [258cd93a|c5c14fdb] (02+14/16) Accurately ripped
15 [52fd0f4c|15ea9e6d] (02+14/16) Accurately ripped
16 [ce929d69|8c93a50d] (02+14/16) Accurately ripped

Track Peak [ CRC32 ] [W/O NULL] [ LOG ]
– 91,0 [3B9946C9] [4E132031] CRC32
01 81,2 [772C5518] [40DF4083]
02 75,0 [17DC7F1C] [C3068033]
03 76,0 [0B8AA88B] [9760349E]
04 75,1 [B65229ED] [0606C331]
05 80,5 [21E204C0] [D21D3476]
06 86,4 [C7DE6FAD] [D216AAF5]
07 86,8 [8A36CA0E] [B16752B0]
08 83,1 [FD368093] [88E2E30F]
09 84,8 [C0362E2F] [4E1BC579]
10 91,0 [A4473772] [7B025E99]
11 83,9 [9DFFC949] [5DBF04ED]
12 81,2 [909277F3] [2FC119D0]
13 85,8 [51FF66B0] [A7EB5F41]
14 85,6 [C99CC4A3] [95D38096]
15 76,5 [A63BD80F] [16C22E8E]
16 76,9 [8B8C5EE2] [0F90274D]


Status Quo: Collection. 4 x Deluxe Edition Albums + 2DVDs (1973-2016)

Tracklist DVD01 - 2007 - XS ALL Areas The Greatest Hits:

1. Caroline
2. Down Down
3. Paper Plane
4. Big Fat Mama
5. Roll Over Lay Down
6. Don't Waste My Time
7. Little Lady
8. Mystery Song
9. Rain
10. Break The Rules
11. Somethin 'Bout You Baby I Like
12. Hold You Back
13. Rockin' All Over The World
14. Whatever You Want
15. Don't Drive My Car
16. Again And Again
17. Forty Five Hundred Times
18. All Stand Up
19. Jam Side Down
20. Creepin' Up On You 21. Pictures Of Matchstick Men
22. In My Chair
23. Gerdundula
24. Wild Side Of Life
25. Rock n' Roll
26. What You're Proposin'
27. Ol' Rag Blues
28. The Wanderer
29. Livin On An Island
30. Runaway
31. A Mess Of Blues
32. Marguerita Time
33. Rollin' Home
34. In The Army Now
35. When You Walk In The Room
36. Burning Bridges
37. Fun Fun Fun
38. Old Time Rock and Roll
39. Anniversary Waltz Part 1 (Medley)
40. Anniversary Waltz Part 2 (Medley)

Title: DVD1 - Status Quo XS ALL Areas The Greatest Hits
Size: 7.50 Gb ( 7 860 552,00 KBytes ) - DVD-9
Enabled regions: 1, 2, 3, 4, 5, 6, 7, 8

VTS_01 :
Play Length: 00:00:12
Video: PAL 4:3 (720x576) VBR
Audio:
English (Dolby AC3, 2 ch)

VTS_02 :
Play Length: 00:04:21
Video: PAL 4:3 (720x576) VBR
Audio:
English (Dolby AC3, 2 ch)
English (Dolby AC3, 6 ch)

VTS_03 :
Play Length: 00:04:35
Video: PAL 4:3 (720x576) VBR
Audio:
English (Dolby AC3, 2 ch)
English (Dolby AC3, 6 ch)

VTS_04 :
Play Length: 00:02:53
Video: PAL 4:3 (720x576) VBR
Audio:
English (Dolby AC3, 2 ch)
English (Dolby AC3, 6 ch)

VTS_05 :
Play Length: 00:05:11
Video: PAL 4:3 (720x576) VBR
Audio:
English (Dolby AC3, 2 ch)
English (Dolby AC3, 6 ch)

VTS_06 :
Play Length: 00:05:23
Video: PAL 4:3 (720x576) VBR
Audio:
English (Dolby AC3, 2 ch)
English (Dolby AC3, 6 ch)

VTS_07 :
Play Length: 00:04:02
Video: PAL 4:3 (720x576) VBR
Audio:
English (Dolby AC3, 2 ch)
English (Dolby AC3, 6 ch)

VTS_08 :
Play Length: 00:03:13
Video: PAL 4:3 (720x576) VBR
Audio:
English (Dolby AC3, 2 ch)
English (Dolby AC3, 6 ch)

VTS_09 :
Play Length: 00:04:00+{00:04:00}
Video: PAL 4:3 (720x576) VBR
Audio:
English (Dolby AC3, 2 ch)
English (Dolby AC3, 6 ch)
English (Dolby AC3, 2 ch)

VTS_10 :
Play Length: 00:04:34
Video: PAL 4:3 (720x576) VBR
Audio:
English (Dolby AC3, 2 ch)
English (Dolby AC3, 6 ch)

VTS_11 :
Play Length: 00:01:38
Video: PAL 4:3 (720x576) VBR
Audio:
English (Dolby AC3, 2 ch)
English (Dolby AC3, 6 ch)

VTS_12 :
Play Length: 00:02:53
Video: PAL 4:3 (720x576) VBR
Audio:
English (Dolby AC3, 2 ch)
English (Dolby AC3, 6 ch)

VTS_13 :
Play Length: 00:04:26
Video: PAL 4:3 (720x576) VBR
Audio:
English (Dolby AC3, 2 ch)
English (Dolby AC3, 6 ch)

VTS_14 :
Play Length: 00:03:37+{00:03:37}
Video: PAL 4:3 (720x576) VBR
Audio:
English (Dolby AC3, 2 ch)
English (Dolby AC3, 6 ch)
English (Dolby AC3, 2 ch)

VTS_15 :
Play Length: 00:03:58+{00:03:58}
Video: PAL 4:3 (720x576) VBR
Audio:
English (Dolby AC3, 2 ch)
English (Dolby AC3, 6 ch)
English (Dolby AC3, 2 ch)

VTS_16 :
Play Length: 00:04:20
Video: PAL 4:3 (720x576) VBR
Audio:
English (Dolby AC3, 2 ch)
English (Dolby AC3, 6 ch)

VTS_17 :
Play Length: 00:03:54
Video: PAL 4:3 (720x576) VBR
Audio:
English (Dolby AC3, 2 ch)
English (Dolby AC3, 6 ch)

VTS_18 :
Play Length: 00:04:54
Video: PAL 4:3 (720x576) VBR
Audio:
English (Dolby AC3, 2 ch)
English (Dolby AC3, 6 ch)

VTS_19 :
Play Length: 00:04:05+{00:04:05}
Video: PAL 4:3 (720x576) VBR
Audio:
English (Dolby AC3, 2 ch)
English (Dolby AC3, 6 ch)
English (Dolby AC3, 2 ch)

VTS_20 :
Play Length: 00:03:33+{00:03:33}
Video: PAL 4:3 (720x576) VBR
Audio:
English (Dolby AC3, 2 ch)
English (Dolby AC3, 6 ch)
English (Dolby AC3, 2 ch)

VTS_21 :
Play Length: 00:04:07
Video: PAL 4:3 (720x576) VBR
Audio:
English (Dolby AC3, 2 ch)
English (Dolby AC3, 6 ch)

VTS_22 :
Play Length: 00:03:10
Video: PAL 4:3 (720x576) VBR
Audio:
English (Dolby AC3, 2 ch)
English (Dolby AC3, 6 ch)

VTS_23 :
Play Length: 00:02:54
Video: PAL 4:3 (720x576) VBR
Audio:
English (Dolby AC3, 2 ch)
English (Dolby AC3, 6 ch)

VTS_24 :
Play Length: 00:05:49
Video: PAL 4:3 (720x576) VBR
Audio:
English (Dolby AC3, 2 ch)
English (Dolby AC3, 6 ch)

VTS_25 :
Play Length: 00:03:16+{00:03:16}
Video: PAL 4:3 (720x576) VBR
Audio:
English (Dolby AC3, 2 ch)
English (Dolby AC3, 6 ch)
English (Dolby AC3, 2 ch)

VTS_26 :
Play Length: 00:05:23
Video: PAL 4:3 (720x576) VBR
Audio:
English (Dolby AC3, 2 ch)
English (Dolby AC3, 6 ch)

VTS_27 :
Play Length: 00:04:18
Video: PAL 4:3 (720x576) VBR
Audio:
English (Dolby AC3, 2 ch)
English (Dolby AC3, 6 ch)

VTS_28 :
Play Length: 00:02:47
Video: PAL 4:3 (720x576) VBR
Audio:
English (Dolby AC3, 2 ch)
English (Dolby AC3, 6 ch)

VTS_29 :
Play Length: 00:03:32
Video: PAL 4:3 (720x576) VBR
Audio:
English (Dolby AC3, 2 ch)
English (Dolby AC3, 6 ch)
English (Dolby AC3, 2 ch)

VTS_30 :
Play Length: 00:04:36+{00:04:36}
Video: PAL 4:3 (720x576) VBR
Audio:
English (Dolby AC3, 2 ch)
English (Dolby AC3, 6 ch)
English (Dolby AC3, 2 ch)

VTS_31 :
Play Length: 00:04:46
Video: PAL 4:3 (720x576) VBR
Audio:
English (Dolby AC3, 2 ch)
English (Dolby AC3, 6 ch)

VTS_32 :
Play Length: 00:03:26+{00:03:26}
Video: PAL 4:3 (720x576) VBR
Audio:
English (Dolby AC3, 2 ch)
English (Dolby AC3, 6 ch)
English (Dolby AC3, 2 ch)

VTS_33 :
Play Length: 00:01:52
Video: PAL 4:3 (720x576) VBR
Audio:
English (Dolby AC3, 2 ch)
English (Dolby AC3, 6 ch)

VTS_34 :
Play Length: 00:03:59
Video: PAL 4:3 (720x576) VBR
Audio:
English (Dolby AC3, 2 ch)
English (Dolby AC3, 6 ch)

VTS_35 :
Play Length: 00:04:00+{00:04:00}
Video: PAL 4:3 (720x576) VBR
Audio:
English (Dolby AC3, 2 ch)
English (Dolby AC3, 6 ch)
English (Dolby AC3, 2 ch)

VTS_36 :
Play Length: 00:03:02
Video: PAL 4:3 (720x576) VBR
Audio:
English (Dolby AC3, 2 ch)
English (Dolby AC3, 6 ch)

VTS_37 :
Play Length: 00:03:51
Video: PAL 4:3 (720x576) VBR
Audio:
English (Dolby AC3, 2 ch)
English (Dolby AC3, 6 ch)

VTS_38 :
Play Length: 00:03:48
Video: PAL 4:3 (720x576) VBR
Audio:
English (Dolby AC3, 2 ch)
English (Dolby AC3, 6 ch)

VTS_39 :
Play Length: 00:02:59
Video: PAL 4:3 (720x576) VBR
Audio:
English (Dolby AC3, 2 ch)
English (Dolby AC3, 6 ch)

VTS_40 :
Play Length: 00:05:42
Video: PAL 4:3 (720x576) VBR
Audio:
English (Dolby AC3, 2 ch)
English (Dolby AC3, 6 ch)

VTS_41 :
Play Length: 00:05:32
Video: PAL 4:3 (720x576) VBR
Audio:
English (Dolby AC3, 2 ch)
English (Dolby AC3, 6 ch)


Status Quo: Collection. 4 x Deluxe Edition Albums + 2DVDs (1973-2016)

Status Quo: Collection. 4 x Deluxe Edition Albums + 2DVDs (1973-2016)

Status Quo: Collection. 4 x Deluxe Edition Albums + 2DVDs (1973-2016)

* * *

Status Quo: Collection. 4 x Deluxe Edition Albums + 2DVDs (1973-2016)

Tracklist DVD02 - 2000 - Famous in the last Century:

01. Famous In The Last Century
02. Old Time Rock N Roll
03. Way Down
04. Rave On
05. Roll Over Beethoven
06. When I'm Dead And Gone
07. Memphis Tennessee
08. Sweet Home Chicago
09. Crawling From The Wreckage
10. Good Golly Miss Molly
11. Claudette
12. Rock N Me
13. Hound Dog
14. Runaround Sue
15. Once Bitten Twice Shy
16. Mony Mony
17. Famous In The Last Century (Reprise)

Title: DVD2 - Status Quo - Famous in the last Century
Size: 7.22 Gb ( 7 575 852,00 KBytes ) - DVD-9
Enabled regions: 1, 2, 3, 4, 5, 6, 7, 8

VTS_01 :
Play Length: 00:45:37+00:00:00+01:12:12+00:00:00+00:00:00+00:00:11
Video: PAL 4:3 (720x576) VBR
Audio:
Not specified (Dolby AC3, 2 ch)


Status Quo: Collection. 4 x Deluxe Edition Albums + 2DVDs (1973-2016)

Status Quo: Collection. 4 x Deluxe Edition Albums + 2DVDs (1973-2016)

Status Quo: Collection. 4 x Deluxe Edition Albums + 2DVDs (1973-2016)

All thanks go to the original releasers

Status Quo or Status Quo in my Blog

Download Status Quo: Collection. 4 x Deluxe Edition Albums + 2DVDs (1973-2016):