Subcategories

Steely Dan - Albums Collection 1972-1980 (7CD) Japanese SHM-CD, Remastered 2008 [Re-Up]

Posted By: Designol
Steely Dan - Albums Collection 1972-1980 (7CD) Japanese SHM-CD, Remastered 2008 [Re-Up]

Steely Dan - Albums Collection 1972-1980 (7CD) [Japanese SHM-CD, Remastered 2008]
EAC | FLAC | Image (Cue&Log) ~ 1.77 Gb | Mp3 (CBR320) ~ 711 Mb | Scans included | 04:31:05
Classic Rock, Soft Rock, Jazz Rock, Blue-Eyed Soul | Label: Geffen/Universal | UICY 93515-93521

Collection includes: Can't Buy A Thrill (1972); Countdown To Ecstasy (1973); Pretzel Logic (1974); Katy Lied (1975); The Royal Scam (1976); Aja (1977); Gaucho (1980).

Most rock & roll bands are a tightly wound unit that developed their music through years of playing in garages and clubs around their hometown. Steely Dan never subscribed to that aesthetic. As the vehicle for the songwriting of Walter Becker and Donald Fagen, Steely Dan defied all rock & roll conventions. Becker and Fagen never truly enjoyed rock – with their ironic humor and cryptic lyrics, their eclectic body of work shows some debt to Bob Dylan – preferring jazz, traditional pop, blues, and R&B. Steely Dan created a sophisticated, distinctive sound with accessible melodic hooks, complex harmonies and time signatures, and a devotion to the recording studio. With producer Gary Katz, Becker and Fagen gradually changed Steely Dan from a performing band to a studio project, hiring professional musicians to record their compositions. Though the band didn't perform live after 1974, Steely Dan's popularity continued to grow throughout the decade, as their albums became critical favorites and their singles became staples of AOR and pop radio stations. Even after the group disbanded in the early '80s, their records retained a cult following, as proven by the massive success of their unlikely return to the stage in the early '90s.

Walter Becker (bass) and Donald Fagen (vocals, keyboards) were the core members of Steely Dan throughout its variety of incarnations. The two met at Bard College in New York in 1967 and began playing in bands together shortly afterward. The duo played in a number of groups – including the Bad Rock Group, which featured future comedic actor Chevy Chase on drums – which ranged from jazz to progressive rock. Eventually, Becker and Fagen began composing songs together, hoping to become professional songwriters in the tradition of the Brill Building. In 1970, the pair joined Jay & the Americans' backing band, performing under pseudonyms; Becker chose Gustav Mahler, while Fagen used Tristan Fabriani. They stayed with Jay & the Americans until halfway through 1971, when they recorded the soundtrack for the low-budget film You Gotta Walk It Like You Talk It, which was produced by the Americans' Kenny Vance. Following the recording of the soundtrack, Becker and Fagen attempted to start a band with Denny Dias, but the venture was unsuccessful. Barbra Streisand recorded the Fagen/Becker composition ‘I Mean to Shine’ on her album Barbra Joan Streisand, released in August 1971, and the duo met producer Gary Katz, who hired them as staff songwriters for ABC/Dunhill in Los Angeles, where he had just become a staff producer. Katz suggested that Becker and Fagen form a band as a way to record their songs, and Steely Dan – who took their name from a dildo in William Burroughs' Naked Lunch – was formed shortly afterward.

Recruiting guitarists Denny Dias and Skunk Baxter, drummer Jim Hodder, and keyboardist/vocalist David Palmer, Becker and Fagen officially formed Steely Dan in 1972, releasing their debut, Can't Buy a Thrill, shortly afterward. Palmer and Fagen shared lead vocals on the album, but the record's two hit singles – the Top Ten "Do It Again" and "Reeling in the Years" – were sung by Fagen. Can't Buy a Thrill was a critical and commercial success, but its supporting tour was a disaster, hampered by an under-rehearsed band and unappreciative audiences. Palmer left the band following the tour. Countdown to Ecstasy, released in 1973, was a critical hit, but it failed to generate a hit single, even though the band supported it with a tour.

Steely Dan replaced Hodder with Jeff Porcaro and added keyboardist/backup vocalist Michael McDonald prior to recording their third album, Pretzel Logic. Released in the spring of 1974, Pretzel Logic returned Steely Dan to the Top Ten on the strength of the single "Rikki Don't Lose That Number." After completing the supporting tour for Pretzel Logic, Becker and Fagen decided to retire from live performances and make Steely Dan a studio-based band. For their next album, 1975's Katy Lied, the duo hired a variety of studio musicians – including Dias, Porcaro, guitarist Elliot Randall, saxophonists Phil Woods, bassist Wilton Felder, percussionist Victor Feldman, keyboardist Michael Omartian, and guitarist Larry Carlton – as supporting musicians. Katy Lied was another hit, as was 1976's The Royal Scam, which continued in the vein of its predecessor. On 1977's Aja, Steely Dan's sound became more polished and jazzy, as they hired jazz fusion artists like Wayne Shorter, Lee Ritenour, and the Crusaders as support. Aja became their biggest hit, reaching the Top Five within three weeks of release and becoming one of the first albums to be certified platinum. Aja also gained the respect of many jazz musicians, as evidenced by Woody Herman recording an album of Becker/Fagen songs in 1978.

Following the release of Aja, ABC was bought out by MCA Records, resulting in a contractual dispute with the label that delayed until 1980 the release of their follow-up album. During the interim, the group had a hit with the theme song for the film FM in 1978. Steely Dan finally released Gaucho, the follow-up to Aja, in late 1980, and it became another Top Ten hit for the group. During the summer of 1981, Becker and Fagen announced that they were parting ways. The following year, Fagen released his solo debut, The Nightfly, which became a critical and commercial hit.

Fagen didn't record another album until 1993, when he reunited with Becker, who produced Kamakiriad. The album was promoted by the first Steely Dan tour in nearly 20 years, and while the record failed to sell, the concerts were very popular. In 1994, Becker released his solo debut, 11 Tracks of Whack, which was produced by Fagen. The following year, Steely Dan mounted another reunion tour, and in early 2000 the duo issued Two Against Nature, their first new studio album in two decades. It won the Grammy Award for Album of the Year. Steely Dan followed it in 2003 with Everything Must Go. Fagan’s solo album Morph the Cat was released in 2006, and Becker released Circus Money in 2008 as Steely Dan embarked on another tour.

Biography by Stephen Thomas Erlewine, Allmusic.com


Steely Dan - Albums Collection 1972-1980 (7CD) Japanese SHM-CD, Remastered 2008 [Re-Up]






Steely Dan - Albums Collection 1972-1980 (7CD) Japanese SHM-CD, Remastered 2008 [Re-Up]

Steely Dan - Can't Buy A Thrill (1972) [Japanese SHM-CD, Remastered 2008]
EAC | FLAC | Image (Cue&Log) ~ 268 Mb | Mp3 (CBR320) ~ 104 Mb | Scans included
Label: Geffen/Universal | # UICY-93515 | Time: 00:41:02

Walter Becker and Donald Fagen were remarkable craftsmen from the start, as Steely Dan's debut, Can't Buy a Thrill, illustrates. Each song is tightly constructed, with interlocking chords and gracefully interwoven melodies, buoyed by clever, cryptic lyrics. All of these are hallmarks of Steely Dan's signature sound, but what is most remarkable about the record is the way it differs from their later albums. Of course, one of the most notable differences is the presence of vocalist David Palmer, a professional blue-eyed soul vocalist who oversings the handful of tracks where he takes the lead. Palmer's very presence signals the one major flaw with the album – in an attempt to appeal to a wide audience, Becker and Fagen tempered their wildest impulses with mainstream pop techniques. Consequently, there are very few of the jazz flourishes that came to distinguish their albums – the breakthrough single, "Do It Again," does work an impressively tight Latin jazz beat, and "Reelin' in the Years" has jazzy guitar solos and harmonies – and the production is overly polished, conforming to all the conventions of early-'70s radio. Of course, that gives these decidedly twisted songs a subversive edge, but compositionally, these aren't as innovative as their later work. Even so, the best moments ("Dirty Work," "Kings," "Midnight Cruiser," "Turn That Heartbeat Over Again") are wonderful pop songs that subvert traditional conventions and more than foreshadow the paths Steely Dan would later take.

Review by Stephen Thomas Erlewine, Allmusic.com

Tracklist:

01. Do It Again (5:57)
02. Dirty Work (3:09)
03. Kings (3:46)
04. Midnite Cruiser (4:08)
05. Only A Fool Would Say That (2:58)
06. Reelin' In The Years (4:37)
07. Fire In The Hole (3:28)
08. Brooklyn (Owes The Charmer Under Me) (4:21)
09. Change Of The Guard (3:40)
10. Turn That Hearbeat Over Again (4:59)


Exact Audio Copy V0.99 prebeta 4 from 23. January 2008

EAC extraction logfile from 25. December 2008, 14:59

Steely Dan / Can't Buy A Thrill [SHM-CD]

Used drive : TSSTcorpCD/DVDW SH-W162C Adapter: 0 ID: 0

Read mode : Secure
Utilize accurate stream : Yes
Defeat audio cache : Yes
Make use of C2 pointers : No

Read offset correction : 6
Overread into Lead-In and Lead-Out : No
Fill up missing offset samples with silence : Yes
Delete leading and trailing silent blocks : No
Null samples used in CRC calculations : Yes
Used interface : Installed external ASPI interface

Used output format : Internal WAV Routines
Sample format : 44.100 Hz; 16 Bit; Stereo


TOC of the extracted CD

Track | Start | Length | Start sector | End sector
––––––––––––––––––––––––––––-
1 | 0:00.00 | 5:57.15 | 0 | 26789
2 | 5:57.15 | 3:08.50 | 26790 | 40939
3 | 9:05.65 | 3:45.60 | 40940 | 57874
4 | 12:51.50 | 4:08.20 | 57875 | 76494
5 | 16:59.70 | 2:57.40 | 76495 | 89809
6 | 19:57.35 | 4:37.20 | 89810 | 110604
7 | 24:34.55 | 3:28.07 | 110605 | 126211
8 | 28:02.62 | 4:21.15 | 126212 | 145801
9 | 32:24.02 | 3:39.50 | 145802 | 162276
10 | 36:03.52 | 4:58.55 | 162277 | 184681


Range status and errors

Selected range

Filename C:\Steely Dan (1972) Can't Buy A Thrill\Steely Dan - Can't Buy A Thrill [SHM-CD].wav

Peak level 88.4 %
Range quality 100.0 %
Copy CRC 71A49B3D
Copy OK

No errors occurred

End of status report

[CUETools log; Date: 04.09.2017 21:03:07; Version: 2.1.4]
[AccurateRip ID: 000f9630-007b4929-93099e0a] found.
Track [ CRC | V2 ] Status
01 [0f3c6357|a31b96db] (15+25/76) Accurately ripped
02 [5d4987be|156801e6] (15+24/75) Accurately ripped
03 [df89f7d6|6c8d1268] (13+23/72) Accurately ripped
04 [acf598e1|aaf95cf8] (14+23/73) Accurately ripped
05 [2a5ecf37|dea3b36b] (14+23/73) Accurately ripped
06 [83e0d75a|9898c693] (15+25/76) Accurately ripped
07 [33462218|71db6c02] (13+23/72) Accurately ripped
08 [b890484f|88e47fd0] (14+23/73) Accurately ripped
09 [4d6ac4a6|e824dfac] (14+23/73) Accurately ripped
10 [083b82ff|06cef9d5] (13+23/72) Accurately ripped
Offsetted by 70:
01 [73311d3b] (04/76) Accurately ripped
02 [cb24d8a2] (04/75) Accurately ripped
03 [ea11119c] (04/72) Accurately ripped
04 [ec839c41] (04/73) Accurately ripped
05 [302ef2e7] (04/73) Accurately ripped
06 [410d7ec8] (04/76) Accurately ripped
07 [b54177ee] (04/72) Accurately ripped
08 [63b53c3d] (04/73) Accurately ripped
09 [84d09b36] (04/73) Accurately ripped
10 [31320537] (04/72) Accurately ripped
Offsetted by 283:
01 [f3ccfb19] (06/76) Accurately ripped
02 [d797f700] (06/75) Accurately ripped
03 [b25463b1] (06/72) Accurately ripped
04 [144d5611] (06/73) Accurately ripped
05 [95fc66cf] (06/73) Accurately ripped
06 [92f81d29] (06/76) Accurately ripped
07 [94e2d13b] (06/72) Accurately ripped
08 [94b44e5e] (06/73) Accurately ripped
09 [6f36072e] (06/73) Accurately ripped
10 [4ec1067b] (06/72) Accurately ripped
Offsetted by 6:
01 [b8b7c3bb] (00/76) No match (V2 was not tested)
02 [e30bdf22] (00/75) No match (V2 was not tested)
03 [30e6015c] (00/72) No match (V2 was not tested)
04 [7f34f841] (00/73) No match (V2 was not tested)
05 [d318e0e7] (00/73) No match (V2 was not tested)
06 [b8aa2788] (00/76) No match (V2 was not tested)
07 [e6a4d1ae] (00/72) No match (V2 was not tested)
08 [17b0b4fd] (00/73) No match (V2 was not tested)
09 [d5d29536] (00/73) No match (V2 was not tested)
10 [4d927837] (00/72) No match (V2 was not tested)
Offsetted by 12:
01 [6233241f] (00/76) No match (V2 was not tested)
02 [68ce3686] (00/75) No match (V2 was not tested)
03 [82420ae2] (00/72) No match (V2 was not tested)
04 [517457a1] (00/73) No match (V2 was not tested)
05 [7bd2f297] (00/73) No match (V2 was not tested)
06 [ed7377b6] (00/76) No match (V2 was not tested)
07 [9a038144] (00/72) No match (V2 was not tested)
08 [76d121ab] (00/73) No match (V2 was not tested)
09 [5e3a65c6] (00/73) No match (V2 was not tested)
10 [92e96d6f] (00/72) No match (V2 was not tested)
Offsetted by 288:
01 [d65e7617] (00/76) No match
02 [71b9ea7e] (00/75) No match (V2 was not tested)
03 [20cbc0f6] (00/72) No match (V2 was not tested)
04 [18d77ae1] (00/73) No match (V2 was not tested)
05 [cd422037] (00/73) No match (V2 was not tested)
06 [699fdffa] (00/76) No match (V2 was not tested)
07 [d5070e38] (00/72) No match (V2 was not tested)
08 [8ea4a8ef] (00/73) No match (V2 was not tested)
09 [e0e1dfa6] (00/73) No match (V2 was not tested)
10 [08897d7f] (00/72) No match (V2 was not tested)
Offsetted by 876:
01 [b7995c5f] (00/76) No match (V2 was not tested)
02 [a61f5ec6] (00/75) No match
03 [46076642] (00/72) No match
04 [9519fda1] (00/73) No match
05 [647ce597] (00/73) No match
06 [9eb09196] (00/76) No match
07 [7f4645a4] (00/72) No match
08 [f90e438b] (00/73) No match
09 [189fb6c6] (00/73) No match
10 [93d35cef] (00/72) No match

Track Peak [ CRC32 ] [W/O NULL] [ LOG ]
– 88,4 [71A49B3D] [04CCDB29] CRC32
01 88,4 [CC2A34B1] [458A5833]
02 88,4 [2BD3D06A] [2B1AE8AF]
03 88,4 [479111FD] [688465E9]
04 88,4 [57493554] [99B1C27A]
05 88,4 [8B061DAD] [81FF3939]
06 88,4 [3EFC0D30] [F5CA4A57]
07 88,3 [CE500D4B] [90ACAA87]
08 88,3 [33075F9D] [8B047885]
09 88,3 [F769692C] [25302F03]
10 88,4 [D53A571F] [E4EB8E0C]

foobar2000 1.2 / Dynamic Range Meter 1.1.1
log date: 2017-09-05 23:29:38

––––––––––––––––––––––––––––––––––––––––
Analyzed: Steely Dan / Can't Buy A Thrill [SHM-CD]
––––––––––––––––––––––––––––––––––––––––

DR Peak RMS Duration Track
––––––––––––––––––––––––––––––––––––––––
DR11 -1.07 dB -13.36 dB 5:57 01-Do It Again
DR10 -1.07 dB -13.49 dB 3:09 02-Dirty Work
DR11 -1.07 dB -14.16 dB 3:46 03-Kings
DR10 -1.07 dB -13.56 dB 4:08 04-Midnite Cruiser
DR11 -1.07 dB -13.31 dB 2:58 05-Only A Fool Would Say That
DR10 -1.07 dB -12.92 dB 4:37 06-Reelin' In The Years
DR11 -1.07 dB -14.34 dB 3:28 07-Fire In The Hole
DR11 -1.07 dB -13.94 dB 4:21 08-Brooklyn (Owes The Charmer Under Me)
DR11 -1.07 dB -13.68 dB 3:40 09-Change Of The Guard
DR12 -1.07 dB -14.95 dB 4:59 10-Turn That Hearbeat Over Again
––––––––––––––––––––––––––––––––––––––––

Number of tracks: 10
Official DR value: DR11

Samplerate: 44100 Hz
Channels: 2
Bits per sample: 16
Bitrate: 876 kbps
Codec: FLAC
================================================================================




Steely Dan - Albums Collection 1972-1980 (7CD) Japanese SHM-CD, Remastered 2008 [Re-Up]

Steely Dan - Countdown To Ecstasy (1973) [Japanese SHM-CD, Remastered 2008]
EAC | FLAC | Image (Cue&Log) ~ 278 Mb | Mp3 (CBR320) ~ 110 Mb | Scans included
Label: Geffen/Universal | # UICY-93516 | Time: 00:41:13

Can't Buy a Thrill became an unexpected hit, and as a response, Donald Fagen became the group's full-time lead vocalist, and he and Walter Becker acted like Steely Dan was a rock & roll band for the group's second album, Countdown to Ecstasy. The loud guitars and pronounced backbeat of "Bodhisattva," "Show Biz Kids," and "My Old School" camouflage the fact that Countdown is a riskier album, musically speaking, than its predecessor. Each of its eight songs have sophisticated, jazz-inflected interludes, and apart from the bluesy vamps "Bodhisattva" and "Show Biz Kids," which sound like they were written for the stage, the songs are subtly textured. "Razor Boy," with its murmuring vibes, and the hard bop tribute "Your Gold Teeth" reveal Becker and Fagen's jazz roots, while the country-flavored "Pearl of the Quarter" and the ominous, skittering "King of the World" are both overlooked gems. Countdown to Ecstasy is the only time Steely Dan played it relatively straight, and its eight songs are rich with either musical or lyrical detail that their album rock or art rock contemporaries couldn't hope to match.

Review by Stephen Thomas Erlewine, Allmusic.com

Tracklist:

01. Bodhisattva (5:19)
02. Razor Boy (3:11)
03. The Boston Rag (5:40)
04. Your Gold Teeth (6:59)
05. Show Biz Kids (5:26)
06. My Old School (5:46)
07. Pearl Of The Quarter (3:51)
08. King Of The World (5:01)


Exact Audio Copy V0.99 prebeta 5 from 4. May 2009

EAC extraction logfile from 18. March 2010, 13:51

Steely Dan / Countdown To Ecstasy [SHM-CD]

Used drive : HL-DT-STDVD-RAM GH22NP20 Adapter: 0 ID: 0

Read mode : Secure
Utilize accurate stream : Yes
Defeat audio cache : Yes
Make use of C2 pointers : No

Read offset correction : 102
Overread into Lead-In and Lead-Out : No
Fill up missing offset samples with silence : Yes
Delete leading and trailing silent blocks : No
Null samples used in CRC calculations : Yes
Used interface : Native Win32 interface for Win NT & 2000

Used output format : Internal WAV Routines
Sample format : 44.100 Hz; 16 Bit; Stereo


TOC of the extracted CD

Track | Start | Length | Start sector | End sector
––––––––––––––––––––––––––––-
1 | 0:00.00 | 5:18.67 | 0 | 23916
2 | 5:18.67 | 3:11.28 | 23917 | 38269
3 | 8:30.20 | 5:39.67 | 38270 | 63761
4 | 14:10.12 | 6:59.33 | 63762 | 95219
5 | 21:09.45 | 5:26.10 | 95220 | 119679
6 | 26:35.55 | 5:46.30 | 119680 | 145659
7 | 32:22.10 | 3:51.05 | 145660 | 162989
8 | 36:13.15 | 5:00.52 | 162990 | 185541


Range status and errors

Selected range

Filename C:\Steely Dan (1973) Countdown To Ecstasy\Steely Dan - Countdown To Ecstasy [SHM-CD].wav

Peak level 88.4 %
Range quality 99.9 %
Copy CRC B848BB17
Copy OK

No errors occurred


AccurateRip summary

Track 1 accurately ripped (confidence 3) [97D0000A]
Track 2 accurately ripped (confidence 3) [FA435F39]
Track 3 accurately ripped (confidence 3) [2489E879]
Track 4 accurately ripped (confidence 3) [B00C7E07]
Track 5 accurately ripped (confidence 3) [B70CB60F]
Track 6 accurately ripped (confidence 3) [621514C1]
Track 7 accurately ripped (confidence 3) [2E512495]
Track 8 accurately ripped (confidence 3) [5A99E173]

All tracks accurately ripped

End of status report

[CUETools log; Date: 04.09.2017 21:04:15; Version: 2.1.4]
[AccurateRip ID: 000cbde1-005587ab-6009a908] found.
Track [ CRC | V2 ] Status
01 [97d0000a|abe6bad7] (09+14/59) Accurately ripped
02 [fa435f39|19274970] (09+14/59) Accurately ripped
03 [2489e879|bafcfac8] (09+14/59) Accurately ripped
04 [b00c7e07|8f721bad] (10+14/60) Accurately ripped
05 [b70cb60f|00fc7a90] (10+14/60) Accurately ripped
06 [621514c1|f9538290] (10+14/60) Accurately ripped
07 [2e512495|ccf2bb10] (09+14/59) Accurately ripped
08 [5a99e173|d46d5736] (09+14/59) Accurately ripped
Offsetted by -18:
01 [6b9ae4ae] (02/59) Accurately ripped
02 [ccc5f965] (02/59) Accurately ripped
03 [042bf183] (02/59) Accurately ripped
04 [faebd8db] (02/60) Accurately ripped
05 [b9dc02a7] (02/60) Accurately ripped
06 [7eb7eb3b] (02/60) Accurately ripped
07 [659fd6ad] (02/59) Accurately ripped
08 [d7259c9f] (02/59) Accurately ripped
Offsetted by 123:
01 [c5e59054] (02/59) Accurately ripped
02 [b11c41b7] (02/59) Accurately ripped
03 [d70c000a] (02/59) Accurately ripped
04 [db163c09] (02/60) Accurately ripped
05 [4e842aab] (02/60) Accurately ripped
06 [f3bc5b2a] (02/60) Accurately ripped
07 [df0cb8f1] (02/59) Accurately ripped
08 [32346271] (02/59) Accurately ripped
Offsetted by 212:
01 [4b250962] (04/59) Accurately ripped
02 [675d9cc1] (04/59) Accurately ripped
03 [68dc9a75] (04/59) Accurately ripped
04 [21c5de7f] (04/60) Accurately ripped
05 [242dda9f] (04/60) Accurately ripped
06 [2d41e15d] (04/60) Accurately ripped
07 [dbceba25] (04/59) Accurately ripped
08 [2df344fb] (04/59) Accurately ripped
Offsetted by 1048:
01 [fb0071da] (03/59) Accurately ripped
02 [fd72f9a9] (03/59) Accurately ripped
03 [b9e8bdc1] (03/59) Accurately ripped
04 [c5404797] (03/60) Accurately ripped
05 [853c9fef] (03/60) Accurately ripped
06 [c261a2c9] (03/60) Accurately ripped
07 [614edc75] (03/59) Accurately ripped
08 [790b4fe3] (03/59) Accurately ripped
Offsetted by 1170:
01 [d14bf266] (03/59) Accurately ripped
02 [871a3a0d] (03/59) Accurately ripped
03 [5c659cef] (03/59) Accurately ripped
04 [ad566e33] (03/60) Accurately ripped
05 [006a4377] (03/60) Accurately ripped
06 [1cbc9fc7] (03/60) Accurately ripped
07 [2355ec7d] (03/59) Accurately ripped
08 [bb1f5b47] (03/59) Accurately ripped
Offsetted by 1588:
01 [2939a6a2] (02/59) Accurately ripped
02 [5224e881] (02/59) Accurately ripped
03 [84ebae95] (02/59) Accurately ripped
04 [ff13a2bf] (02/60) Accurately ripped
05 [30f1a61f] (02/60) Accurately ripped
06 [674c807d] (02/60) Accurately ripped
07 [e615fda5] (02/59) Accurately ripped
08 [e0ab60bb] (02/59) Accurately ripped
Offsetted by -30:
01 [4e2227c6] (00/59) No match (V2 was not tested)
02 [ae72602d] (00/59) No match (V2 was not tested)
03 [43ed4cdf] (00/59) No match (V2 was not tested)
04 [d780c013] (00/60) No match
05 [666635b7] (00/60) No match (V2 was not tested)
06 [e7247a37] (00/60) No match (V2 was not tested)
07 [3529a2bd] (00/59) No match (V2 was not tested)
08 [d4d81967] (00/59) No match (V2 was not tested)
Offsetted by 6:
01 [a68c5e7e] (00/59) No match (V2 was not tested)
02 [096d2bd5] (00/59) No match (V2 was not tested)
03 [84a93acb] (00/59) No match (V2 was not tested)
04 [41c20a6b] (00/60) No match (V2 was not tested)
05 [60c79c87] (00/60) No match (V2 was not tested)
06 [addecd43] (00/60) No match (V2 was not tested)
07 [c68c3e8d] (00/59) No match (V2 was not tested)
08 [dbc0a30f] (00/59) No match (V2 was not tested)

Track Peak [ CRC32 ] [W/O NULL] [ LOG ]
– 88,4 [B848BB17] [6801A8CE] CRC32
01 88,4 [574199C7] [3B196DB8]
02 88,4 [97DC8654] [168E928E]
03 88,4 [34E43377] [210EDFEE]
04 88,4 [4FA8081B] [A65EBA12]
05 88,4 [B80B5868] [A0B40476]
06 88,3 [39B26364] [12D51B20]
07 88,3 [9CDE8C3A] [AE3BE7F3]
08 88,3 [399D6132] [D12FC094]

foobar2000 1.2 / Dynamic Range Meter 1.1.1
log date: 2017-09-05 23:29:54

––––––––––––––––––––––––––––––––––––––––
Analyzed: Steely Dan / Countdown To Ecstasy [SHM-CD]
––––––––––––––––––––––––––––––––––––––––

DR Peak RMS Duration Track
––––––––––––––––––––––––––––––––––––––––
DR11 -1.07 dB -13.89 dB 5:19 01-Bodhisattva
DR10 -1.07 dB -13.15 dB 3:11 02-Razor Boy
DR11 -1.07 dB -14.55 dB 5:40 03-The Boston Rag
DR11 -1.07 dB -13.52 dB 6:59 04-Your Gold Teeth
DR11 -1.07 dB -13.07 dB 5:26 05-Show Biz Kids
DR12 -1.07 dB -15.13 dB 5:46 06-My Old School
DR12 -1.08 dB -15.04 dB 3:51 07-Pearl Of The Quarter
DR10 -1.07 dB -13.55 dB 5:01 08-King Of The World
––––––––––––––––––––––––––––––––––––––––

Number of tracks: 8
Official DR value: DR11

Samplerate: 44100 Hz
Channels: 2
Bits per sample: 16
Bitrate: 884 kbps
Codec: FLAC
================================================================================




Steely Dan - Albums Collection 1972-1980 (7CD) Japanese SHM-CD, Remastered 2008 [Re-Up]

Steely Dan - Pretzel Logic (1974) [Japanese SHM-CD, Remastered 2008]
EAC | FLAC | Image (Cue&Log) ~ 229 Mb | Mp3 (CBR320) ~ 92 Mb | Scans included
Label: Geffen/Universal | # UICY-93517 | Time: 00:34:03

Countdown to Ecstasy wasn't half the hit that Can't Buy a Thrill was, and Steely Dan responded by trimming the lengthy instrumental jams that were scattered across Countdown and concentrating on concise songs for Pretzel Logic. While the shorter songs usually indicate a tendency toward pop conventions, that's not the case with Pretzel Logic. Instead of relying on easy hooks, Walter Becker and Donald Fagen assembled their most complex and cynical set of songs to date. Dense with harmonics, countermelodies, and bop phrasing, Pretzel Logic is vibrant with unpredictable musical juxtapositions and snide, but very funny, wordplay. Listen to how the album's hit single, "Rikki Don't Lose That Number," opens with a syncopated piano line that evolves into a graceful pop melody, or how the title track winds from a blues to a jazzy chorus – Becker and Fagen's craft has become seamless while remaining idiosyncratic and thrillingly accessible. Since the songs are now paramount, it makes sense that Pretzel Logic is less of a band-oriented album than Countdown to Ecstasy, yet it is the richest album in their catalog, one where the backhanded Dylan tribute "Barrytown" can sit comfortably next to the gorgeous "Any Major Dude Will Tell You." Steely Dan made more accomplished albums than Pretzel Logic, but they never made a better one.

Review by Stephen Thomas Erlewine, Allmusic.com

Tracklist:

01. Rikki Don't Lose That Number (04:33)
02. Night By Night (03:40)
03. Any Major Dude Will Tell You (03:08)
04. Barrytown (03:22)
05. East St. Louis Toodle-Oo (02:49)
06. Parker's Band (02:45)
07. Through With Buzz (01:34)
08. Pretzel Logic (04:32)
09. With A Gun (02:18)
10. Charlie Freak (02:44)
11. Monkey In Your Soul (02:34)


Exact Audio Copy V0.99 prebeta 5 from 4. May 2009

EAC extraction logfile from 15. March 2010, 14:23

Steely Dan / Pretzel Logic [SHM-CD]

Used drive : HL-DT-STDVD-RAM GH22NP20 Adapter: 0 ID: 0

Read mode : Secure
Utilize accurate stream : Yes
Defeat audio cache : Yes
Make use of C2 pointers : No

Read offset correction : 102
Overread into Lead-In and Lead-Out : No
Fill up missing offset samples with silence : Yes
Delete leading and trailing silent blocks : No
Null samples used in CRC calculations : Yes
Used interface : Native Win32 interface for Win NT & 2000

Used output format : Internal WAV Routines
Sample format : 44.100 Hz; 16 Bit; Stereo


TOC of the extracted CD

Track | Start | Length | Start sector | End sector
––––––––––––––––––––––––––––-
1 | 0:00.00 | 4:33.05 | 0 | 20479
2 | 4:33.05 | 3:40.02 | 20480 | 36981
3 | 8:13.07 | 3:08.08 | 36982 | 51089
4 | 11:21.15 | 3:22.17 | 51090 | 66256
5 | 14:43.32 | 2:49.45 | 66257 | 78976
6 | 17:33.02 | 2:45.13 | 78977 | 91364
7 | 20:18.15 | 1:34.05 | 91365 | 98419
8 | 21:52.20 | 4:32.45 | 98420 | 118864
9 | 26:24.65 | 2:18.60 | 118865 | 129274
10 | 28:43.50 | 2:44.65 | 129275 | 141639
11 | 31:28.40 | 2:34.37 | 141640 | 153226


Range status and errors

Selected range

Filename C:\Steely Dan (1974) Pretzel Logic\Steely Dan - Pretzel Logic [SHM-CD].wav

Peak level 98.8 %
Range quality 100.0 %
Copy CRC 6703A3D2
Copy OK

No errors occurred


AccurateRip summary

Track 1 accurately ripped (confidence 7) [6DE2C04C]
Track 2 accurately ripped (confidence 7) [239736B0]
Track 3 accurately ripped (confidence 7) [1EC795D0]
Track 4 accurately ripped (confidence 7) [59335D33]
Track 5 accurately ripped (confidence 6) [E74C942F]
Track 6 accurately ripped (confidence 7) [CCB10A0B]
Track 7 accurately ripped (confidence 6) [AC5CF7F5]
Track 8 accurately ripped (confidence 7) [28890D42]
Track 9 accurately ripped (confidence 7) [43378942]
Track 10 accurately ripped (confidence 7) [7DB36A6E]
Track 11 accurately ripped (confidence 6) [F84528E2]

All tracks accurately ripped

End of status report

[CUETools log; Date: 04.09.2017 21:05:10; Version: 2.1.4]
[AccurateRip ID: 000f0dd2-007f5fec-9607fb0b] found.
Track [ CRC | V2 ] Status
01 [6de2c04c|eaf7d01e] (14+28/76) Accurately ripped
02 [239736b0|4eff9ba9] (14+29/76) Accurately ripped
03 [1ec795d0|e4901bec] (14+28/75) Accurately ripped
04 [59335d33|3b9a1cf2] (14+28/75) Accurately ripped
05 [e74c942f|7286d043] (13+28/74) Accurately ripped
06 [ccb10a0b|712a727a] (14+28/75) Accurately ripped
07 [ac5cf7f5|5ccfb44b] (13+28/74) Accurately ripped
08 [28890d42|017c93a1] (14+28/76) Accurately ripped
09 [43378942|c2aa8f39] (14+28/75) Accurately ripped
10 [7db36a6e|41211550] (14+28/75) Accurately ripped
11 [f84528e2|8237ad42] (13+28/74) Accurately ripped
Offsetted by -18:
01 [ced6ac48] (02/76) Accurately ripped
02 [8db29390] (02/76) Accurately ripped
03 [03283052] (02/75) Accurately ripped
04 [344ea49b] (02/75) Accurately ripped
05 [27c7e2d3] (02/74) Accurately ripped
06 [aecee5d1] (02/75) Accurately ripped
07 [d2380b85] (02/74) Accurately ripped
08 [4ad8559a] (02/76) Accurately ripped
09 [c52d9ae4] (02/75) Accurately ripped
10 [7b52c08a] (02/75) Accurately ripped
11 [7b1194c6] (02/74) Accurately ripped
Offsetted by 6:
01 [a2e6c6f8] (02/76) Accurately ripped
02 [aae36d10] (02/76) Accurately ripped
03 [7d520cfa] (02/75) Accurately ripped
04 [657f9abb] (02/75) Accurately ripped
05 [d1ce24a3] (02/74) Accurately ripped
06 [8151c0c9] (02/75) Accurately ripped
07 [4a6946c5] (02/74) Accurately ripped
08 [1d194a7a] (02/76) Accurately ripped
09 [c2902e0c] (02/75) Accurately ripped
10 [7e7e4dba] (02/75) Accurately ripped
11 [ccabaf96] (02/74) Accurately ripped
Offsetted by 1437:
01 [0726fe36] (10/76) Accurately ripped
02 [37641580] (10/76) Accurately ripped
03 [9152119b] (10/75) Accurately ripped
04 [da86edef] (10/75) Accurately ripped
05 [4b8338b5] (10/74) Accurately ripped
06 [c90c00cc] (10/75) Accurately ripped
07 [88e0b38d] (10/74) Accurately ripped
08 [757a5326] (10/76) Accurately ripped
09 [e6a5b43d] (10/75) Accurately ripped
10 [bb831008] (10/75) Accurately ripped
11 [2e302e48] (10/74) Accurately ripped
Offsetted by -30:
01 [64ce9ef0] (00/76) No match (V2 was not tested)
02 [7f1a26d0] (00/76) No match (V2 was not tested)
03 [461341fe] (00/75) No match (V2 was not tested)
04 [1bb6298b] (00/75) No match (V2 was not tested)
05 [52c4c1eb] (00/74) No match
06 [458d7855] (00/75) No match (V2 was not tested)
07 [961f6de5] (00/74) No match (V2 was not tested)
08 [61b7db2a] (00/76) No match (V2 was not tested)
09 [c67c5150] (00/75) No match (V2 was not tested)
10 [79bcf9f2] (00/75) No match (V2 was not tested)
11 [d244875e] (00/74) No match (V2 was not tested)

Track Peak [ CRC32 ] [W/O NULL] [ LOG ]
– 98,8 [6703A3D2] [040CD252] CRC32
01 94,2 [0EC37CE3] [A6244863]
02 98,7 [5EB95438] [E38BF5E2]
03 98,7 [28723FB9] [2587E76C]
04 98,8 [42844876] [5E988260]
05 88,8 [EA65E574] [D18B2EEE]
06 90,1 [6D1A728B] [21321C98]
07 98,8 [59C8961D] [2D6C7148]
08 98,8 [F60343BF] [62C2184E]
09 96,3 [9A0E41AB] [01970EEC]
10 98,7 [4B8E7494] [DA0EA8D5]
11 98,8 [FBEA7E71] [2E19D4F8]

foobar2000 1.2 / Dynamic Range Meter 1.1.1
log date: 2017-09-05 23:30:07

––––––––––––––––––––––––––––––––––––––––
Analyzed: Steely Dan / Pretzel Logic [SHM-CD]
––––––––––––––––––––––––––––––––––––––––

DR Peak RMS Duration Track
––––––––––––––––––––––––––––––––––––––––
DR12 -0.51 dB -15.32 dB 4:33 01-Rikki Don't Lose That Number
DR11 -0.11 dB -14.31 dB 3:40 02-Night By Night
DR12 -0.11 dB -15.17 dB 3:08 03-Any Major Dude Will Tell You
DR11 -0.10 dB -13.98 dB 3:22 04-Barrytown
DR13 -1.03 dB -16.94 dB 2:50 05-East St. Louis Toodle-Oo
DR10 -0.90 dB -13.14 dB 2:45 06-Parker's Band
DR10 -0.10 dB -12.94 dB 1:34 07-Through With Buzz
DR10 -0.10 dB -12.50 dB 4:33 08-Pretzel Logic
DR11 -0.32 dB -13.24 dB 2:19 09-With A Gun
DR11 -0.11 dB -13.40 dB 2:45 10-Charlie Freak
DR11 -0.10 dB -12.75 dB 2:34 11-Monkey In Your Soul
––––––––––––––––––––––––––––––––––––––––

Number of tracks: 11
Official DR value: DR11

Samplerate: 44100 Hz
Channels: 2
Bits per sample: 16
Bitrate: 881 kbps
Codec: FLAC
================================================================================




Steely Dan - Albums Collection 1972-1980 (7CD) Japanese SHM-CD, Remastered 2008 [Re-Up]

Steely Dan - Katy Lied (1975) [Japanese SHM-CD, Remastered 2008]
EAC | FLAC | Image (Cue&Log) ~ 236 Mb | Mp3 (CBR320) ~ 91 Mb | Scans included
Label: Geffen/Universal | # UICY-93518 | Time: 00:35:26

Building from the jazz fusion foundation of Pretzel Logic, Steely Dan created an alluringly sophisticated album of jazzy pop with Katy Lied. With this record, Walter Becker and Donald Fagen began relying solely on studio musicians, which is evident from the immaculate sound of the album. Usually, such a studied recording method would drain the life out of each song, but that's not the case with Katy Lied, which actually benefits from the duo's perfectionist tendencies. Each song is given a glossy sheen, one that accentuates not only the stronger pop hooks, but also the precise technical skill of the professional musicians drafted to play the solos. Essentially, Katy Lied is a smoother version of Pretzel Logic, featuring the same cross-section of jazz-pop and blues-rock. The lack of innovations doesn't hurt the record, since the songs are uniformly brilliant. Less overtly cynical than previous Dan albums, the album still has its share of lyrical stingers, but what's really notable are the melodies, from the seductive jazzy soul of "Doctor Wu" and the lazy blues of "Chain Lightning" to the terse "Black Friday" and mock calypso of "Everyone's Gone to the Movies." It's another excellent record in one of the most distinguished rock & roll catalogs of the '70s.

Review by Stephen Thomas Erlewine, Allmusic.com

Tracklist:

01. Black Friday (03:41)
02. Bad Sneakers (03:19)
03. Rose Darling (03:05)
04. Daddy Don't Live In That New York City No More (03:15)
05. Doctor Wu (03:56)
06. Everyone's Gone to the Movies (03:44)
07. Your Gold Teeth II (04:12)
08. Chain Lightning (03:00)
09. Any World (03:55)
10. Throw Back the Little Ones (03:13)


Exact Audio Copy V0.99 prebeta 5 from 4. May 2009

EAC extraction logfile from 22. March 2010, 11:45

Steely Dan / Katy Lied [SHM-CD]

Used drive : HL-DT-STDVD-RAM GH22NP20 Adapter: 0 ID: 0

Read mode : Secure
Utilize accurate stream : Yes
Defeat audio cache : Yes
Make use of C2 pointers : No

Read offset correction : 102
Overread into Lead-In and Lead-Out : No
Fill up missing offset samples with silence : Yes
Delete leading and trailing silent blocks : No
Null samples used in CRC calculations : Yes
Used interface : Native Win32 interface for Win NT & 2000

Used output format : Internal WAV Routines
Sample format : 44.100 Hz; 16 Bit; Stereo


TOC of the extracted CD

Track | Start | Length | Start sector | End sector
––––––––––––––––––––––––––––-
1 | 0:00.00 | 3:41.55 | 0 | 16629
2 | 3:41.55 | 3:19.60 | 16630 | 31614
3 | 7:01.40 | 3:05.37 | 31615 | 45526
4 | 10:07.02 | 3:15.28 | 45527 | 60179
5 | 13:22.30 | 3:56.70 | 60180 | 77949
6 | 17:19.25 | 3:44.65 | 77950 | 94814
7 | 21:04.15 | 4:12.52 | 94815 | 113766
8 | 25:16.67 | 3:00.00 | 113767 | 127266
9 | 28:16.67 | 3:55.38 | 127267 | 144929
10 | 32:12.30 | 3:13.70 | 144930 | 159474


Range status and errors

Selected range

Filename C:\Steely Dan (1975) Katy Lied\Steely Dan - Katy Lied [SHM-CD].wav

Peak level 98.8 %
Range quality 100.0 %
Copy CRC 2FD434F2
Copy OK

No errors occurred


AccurateRip summary

Track 1 accurately ripped (confidence 4) [C7D08767]
Track 2 accurately ripped (confidence 4) [BB813860]
Track 3 accurately ripped (confidence 4) [394904B0]
Track 4 accurately ripped (confidence 4) [6AF0B3E5]
Track 5 accurately ripped (confidence 4) [167E7A64]
Track 6 accurately ripped (confidence 4) [F8BAEE9A]
Track 7 accurately ripped (confidence 4) [AA4BB552]
Track 8 accurately ripped (confidence 4) [5B160E53]
Track 9 accurately ripped (confidence 4) [707B1B2A]
Track 10 accurately ripped (confidence 4) [BBAE6E65]

All tracks accurately ripped

End of status report

[CUETools log; Date: 04.09.2017 21:06:07; Version: 2.1.4]
[AccurateRip ID: 000d4edc-006ad5ef-7a084e0a] found.
Track [ CRC | V2 ] Status
01 [c7d08767|87118bd9] (09+27/64) Accurately ripped
02 [bb813860|c8e59c31] (09+27/64) Accurately ripped
03 [394904b0|a338b119] (09+27/64) Accurately ripped
04 [6af0b3e5|567690e4] (09+27/64) Accurately ripped
05 [167e7a64|d9b875a3] (09+27/64) Accurately ripped
06 [f8baee9a|727a085c] (09+27/64) Accurately ripped
07 [aa4bb552|2378c4e1] (09+27/64) Accurately ripped
08 [5b160e53|a68c468f] (09+27/64) Accurately ripped
09 [707b1b2a|39b9975e] (09+26/63) Accurately ripped
10 [bbae6e65|012d5903] (09+26/63) Accurately ripped
Offsetted by -193:
01 [d898ee64] (07/64) Accurately ripped
02 [fa96dd37] (07/64) Accurately ripped
03 [2fdd71f6] (07/64) Accurately ripped
04 [5fb3771e] (07/64) Accurately ripped
05 [c819a694] (07/64) Accurately ripped
06 [91bcb590] (07/64) Accurately ripped
07 [f74aa787] (07/64) Accurately ripped
08 [58059f50] (07/64) Accurately ripped
09 [49dad1ff] (07/63) Accurately ripped
10 [907e15c1] (07/63) Accurately ripped
Offsetted by -18:
01 [d0030db1] (02/64) Accurately ripped
02 [e92e58fe] (02/64) Accurately ripped
03 [6eca429c] (02/64) Accurately ripped
04 [fd200c67] (02/64) Accurately ripped
05 [d7790dc4] (02/64) Accurately ripped
06 [5147b2e6] (02/64) Accurately ripped
07 [0e53918c] (02/64) Accurately ripped
08 [8692889d] (02/64) Accurately ripped
09 [80c65aa4] (02/63) Accurately ripped
10 [52d858dd] (02/63) Accurately ripped
Offsetted by 6:
01 [6fbfaff9] (02/64) Accurately ripped
02 [ac4782d6] (02/64) Accurately ripped
03 [d21df00c] (02/64) Accurately ripped
04 [3a36410f] (02/64) Accurately ripped
05 [2b804944] (02/64) Accurately ripped
06 [85e157d6] (02/64) Accurately ripped
07 [de491694] (02/64) Accurately ripped
08 [4c973ae5] (02/64) Accurately ripped
09 [6b0cb0ac] (02/63) Accurately ripped
10 [894b203d] (02/63) Accurately ripped
Offsetted by -30:
01 [8024bc8d] (00/64) No match (V2 was not tested)
02 [07a1c412] (00/64) No match (V2 was not tested)
03 [3d206be4] (00/64) No match (V2 was not tested)
04 [5e94f213] (00/64) No match (V2 was not tested)
05 [ad757004] (00/64) No match (V2 was not tested)
06 [36fae06e] (00/64) No match (V2 was not tested)
07 [a658cf08] (00/64) No match (V2 was not tested)
08 [a3902f79] (00/64) No match (V2 was not tested)
09 [8ba32fa0] (00/63) No match (V2 was not tested)
10 [b79ef52d] (00/63) No match (V2 was not tested)

Track Peak [ CRC32 ] [W/O NULL] [ LOG ]
– 98,8 [2FD434F2] [8F99A41F] CRC32
01 98,4 [DB7B9B83] [773548B1]
02 98,8 [4F14EDE5] [F8311D57]
03 98,8 [6D75D1D3] [3EA7DDAE]
04 98,8 [F4CE4A55] [7A0E71BC]
05 98,8 [5575D9D5] [95C9BD2D]
06 98,8 [CC2D7537] [AC5CBF6F]
07 98,8 [EDBF34A2] [F65F2E2D]
08 98,8 [F47B590C] [518A71DE]
09 98,8 [9524D99A] [3C813D4B]
10 98,8 [CFF59832] [19BFA353]

foobar2000 1.2 / Dynamic Range Meter 1.1.1
log date: 2017-09-05 23:30:21

––––––––––––––––––––––––––––––––––––––––
Analyzed: Steely Dan / Katy Lied [SHM-CD]
––––––––––––––––––––––––––––––––––––––––

DR Peak RMS Duration Track
––––––––––––––––––––––––––––––––––––––––
DR12 -0.14 dB -14.28 dB 3:42 01-Black Friday
DR14 -0.10 dB -16.23 dB 3:20 02-Bad Sneakers
DR12 -0.10 dB -14.22 dB 3:05 03-Rose Darling
DR13 -0.10 dB -14.78 dB 3:15 04-Daddy Don't Live In That New York City No More
DR11 -0.10 dB -13.38 dB 3:57 05-Doctor Wu
DR12 -0.10 dB -14.32 dB 3:45 06-Everyone's Gone to the Movies
DR12 -0.10 dB -15.08 dB 4:13 07-Your Gold Teeth II
DR12 -0.10 dB -14.46 dB 3:00 08-Chain Lightning
DR12 -0.11 dB -15.53 dB 3:56 09-Any World
DR12 -0.10 dB -14.69 dB 3:14 10-Throw Back the Little Ones
––––––––––––––––––––––––––––––––––––––––

Number of tracks: 10
Official DR value: DR12

Samplerate: 44100 Hz
Channels: 2
Bits per sample: 16
Bitrate: 888 kbps
Codec: FLAC
================================================================================




Steely Dan - Albums Collection 1972-1980 (7CD) Japanese SHM-CD, Remastered 2008 [Re-Up]

Steely Dan - The Royal Scam (1976) [Japanese SHM-CD, Remastered 2008]
EAC | FLAC | Image (Cue&Log) ~ 290 Mb | Mp3 (CBR320) ~ 113 Mb | Scans included
Label: Geffen/Universal | # UICY-93519 | Time: 00:41:18

The Royal Scam is the first Steely Dan record that doesn't exhibit significant musical progress from its predecessor, but that doesn't mean the album is any less interesting. The cynicism that was suppressed on Katy Lied comes roaring to the surface on The Royal Scam – not only are the lyrics bitter and snide, but the music is terse, broken, and weary. Not so coincidentally, the album is comprised of Walter Becker and Donald Fagen's weakest set of songs since Can't Buy a Thrill. Alternating between mean-spirited bluesy vamps like "Green Earrings" and "The Fez" and jazzy soft rock numbers like "The Caves of Altamira," there's nothing particularly bad on the album, yet there are fewer standouts than before. Nevertheless, the best songs on The Royal Scam, like the sneering "Kid Charlemagne" and "Sign in Stranger," rank as genuine Steely Dan classics.

Review by Stephen Thomas Erlewine, Allmusic.com

Tracklist:

01. Kid Charlemagne (04:39)
02. The Caves Of Altamira (03:33)
03. Don't Take Me Alive (04:16)
04. Sign In Stranger (04:23)
05. The Fez (04:01)
06. Green Earrings (04:05)
07. Haitian Divorce (05:51)
08. Everything You Did (03:55)
09. The Royal Scam (06:31)


Exact Audio Copy V0.99 prebeta 5 from 4. May 2009

EAC extraction logfile from 14. March 2010, 17:50

Steely Dan / The Royal Scam [SHM-CD]

Used drive : HL-DT-STDVD-RAM GH22NP20 Adapter: 0 ID: 0

Read mode : Secure
Utilize accurate stream : Yes
Defeat audio cache : Yes
Make use of C2 pointers : No

Read offset correction : 102
Overread into Lead-In and Lead-Out : No
Fill up missing offset samples with silence : Yes
Delete leading and trailing silent blocks : No
Null samples used in CRC calculations : Yes
Used interface : Native Win32 interface for Win NT & 2000

Used output format : Internal WAV Routines
Sample format : 44.100 Hz; 16 Bit; Stereo


TOC of the extracted CD

Track | Start | Length | Start sector | End sector
––––––––––––––––––––––––––––-
1 | 0:00.00 | 4:39.15 | 0 | 20939
2 | 4:39.15 | 3:33.60 | 20940 | 36974
3 | 8:13.00 | 4:16.27 | 36975 | 56201
4 | 12:29.27 | 4:23.73 | 56202 | 75999
5 | 16:53.25 | 4:01.17 | 76000 | 94091
6 | 20:54.42 | 4:05.25 | 94092 | 112491
7 | 24:59.67 | 5:51.13 | 112492 | 138829
8 | 30:51.05 | 3:55.60 | 138830 | 156514
9 | 34:46.65 | 6:31.45 | 156515 | 185884


Range status and errors

Selected range

Filename C:\Steely Dan (1976) The Royal Scam\Steely Dan - The Royal Scam [SHM-CD].wav

Peak level 94.3 %
Range quality 100.0 %
Copy CRC DE609DB0
Copy OK

No errors occurred


AccurateRip summary

Track 1 accurately ripped (confidence 6) [828EAA80]
Track 2 accurately ripped (confidence 6) [2A34E83F]
Track 3 accurately ripped (confidence 6) [A9B325E0]
Track 4 accurately ripped (confidence 6) [0346B0EC]
Track 5 accurately ripped (confidence 6) [1F76CC8E]
Track 6 accurately ripped (confidence 6) [32AB0C37]
Track 7 accurately ripped (confidence 6) [4D4A2092]
Track 8 accurately ripped (confidence 6) [6E91479D]
Track 9 accurately ripped (confidence 6) [A97CA1D1]

All tracks accurately ripped

End of status report

[CUETools log; Date: 04.09.2017 21:07:15; Version: 2.1.4]
[AccurateRip ID: 000d656b-0062feb7-6b09ae09] found.
Track [ CRC | V2 ] Status
01 [828eaa80|fbc5689d] (26+37/90) Accurately ripped
02 [2a34e83f|bbdc022e] (25+37/89) Accurately ripped
03 [a9b325e0|e65a5a5b] (26+37/90) Accurately ripped
04 [0346b0ec|5379b88f] (25+35/87) Accurately ripped
05 [1f76cc8e|306cd657] (25+35/87) Accurately ripped
06 [32ab0c37|6b73f2a6] (22+35/84) Accurately ripped
07 [4d4a2092|fd4cc0e1] (23+35/85) Accurately ripped
08 [6e91479d|9256b8cb] (24+35/86) Accurately ripped
09 [a97ca1d1|a33734f0] (24+37/88) Accurately ripped
Offsetted by -18:
01 [9b8d469c] (02/90) Accurately ripped
02 [cba27435] (02/89) Accurately ripped
03 [4f35ea8c] (02/90) Accurately ripped
04 [7e1316be] (02/87) Accurately ripped
05 [c657d44c] (02/87) Accurately ripped
06 [6dec5de1] (02/84) Accurately ripped
07 [3252bd4e] (02/85) Accurately ripped
08 [a5f1a567] (02/86) Accurately ripped
09 [b09ce637] (02/88) Accurately ripped
Offsetted by 324:
01 [c0a7b088] (06/90) Accurately ripped
02 [d08110f3] (06/89) Accurately ripped
03 [068151c8] (06/90) Accurately ripped
04 [60e78828] (06/87) Accurately ripped
05 [63a44132] (06/87) Accurately ripped
06 [08134e43] (06/84) Accurately ripped
07 [32af1b5a] (06/85) Accurately ripped
08 [89caaf69] (06/86) Accurately ripped
09 [2937d2a5] (06/88) Accurately ripped
Offsetted by -30:
01 [ac370404] (00/90) No match (V2 was not tested)
02 [8c9626d9] (00/89) No match (V2 was not tested)
03 [bd8d1854] (00/90) No match (V2 was not tested)
04 [2546054a] (00/87) No match (V2 was not tested)
05 [35988420] (00/87) No match (V2 was not tested)
06 [956d3efd] (00/84) No match (V2 was not tested)
07 [75add076] (00/85) No match (V2 was not tested)
08 [75873943] (00/86) No match (V2 was not tested)
09 [6007be7b] (00/88) No match (V2 was not tested)
Offsetted by -12:
01 [933867e8] (00/90) No match (V2 was not tested)
02 [eb289ae3] (00/89) No match (V2 was not tested)
03 [180a53a8] (00/90) No match (V2 was not tested)
04 [aa799f78] (00/87) No match (V2 was not tested)
05 [8eb77c62] (00/87) No match (V2 was not tested)
06 [5a2bed53] (00/84) No match (V2 was not tested)
07 [90a533ba] (00/85) No match (V2 was not tested)
08 [3e26db79] (00/86) No match (V2 was not tested)
09 [58e77a15] (00/88) No match (V2 was not tested)
Offsetted by 6:
01 [7a39cbcc] (00/90) No match (V2 was not tested)
02 [49bb0eed] (00/89) No match (V2 was not tested)
03 [72878efc] (00/90) No match (V2 was not tested)
04 [2fad39a6] (00/87) No match (V2 was not tested)
05 [e7d674a4] (00/87) No match (V2 was not tested)
06 [1eea9ba9] (00/84) No match (V2 was not tested)
07 [ab9c96fe] (00/85) No match (V2 was not tested)
08 [06c67daf] (00/86) No match (V2 was not tested)
09 [51c735af] (00/88) No match (V2 was not tested)
Offsetted by 207:
01 [e31ea73e] (00/90) No match (V2 was not tested)
02 [69c91eb2] (00/89) No match (V2 was not tested)
03 [3a535026] (00/90) No match (V2 was not tested)
04 [7f181dfd] (00/87) No match (V2 was not tested)
05 [205af385] (00/87) No match (V2 was not tested)
06 [093be114] (00/84) No match (V2 was not tested)
07 [03671620] (00/85) No match (V2 was not tested)
08 [f1bd110a] (00/86) No match (V2 was not tested)
09 [d7898f3c] (00/88) No match (V2 was not tested)
Offsetted by 288:
01 [f2a4e8c0] (00/90) No match
02 [135c28df] (00/89) No match (V2 was not tested)
03 [5186db20] (00/90) No match (V2 was not tested)
04 [568053cc] (00/87) No match (V2 was not tested)
05 [b16650ae] (00/87) No match (V2 was not tested)
06 [7e95f197] (00/84) No match (V2 was not tested)
07 [fcc054d2] (00/85) No match (V2 was not tested)
08 [f88b6afd] (00/86) No match (V2 was not tested)
09 [37785b71] (00/88) No match (V2 was not tested)
Offsetted by 876:
01 [c227a7d8] (00/90) No match (V2 was not tested)
02 [24b6f77b] (00/89) No match
03 [32d717d8] (00/90) No match
04 [55c0ab00] (00/87) No match
05 [6604a91a] (00/87) No match
06 [eeeadb3b] (00/84) No match
07 [1851aa2a] (00/85) No match
08 [3cea1de1] (00/86) No match
09 [a404f66d] (00/88) No match

Track Peak [ CRC32 ] [W/O NULL] [ LOG ]
– 94,3 [DE609DB0] [7858904E] CRC32
01 94,3 [3B5E96FB] [45453185]
02 94,3 [4B51C32E] [9961011A]
03 94,3 [1D643C38] [DF76BFD1]
04 94,3 [37C68AE6] [174F51ED]
05 94,3 [F6A09BBB] [6331B3B4]
06 94,3 [47FA6FA9] [8962F4A2]
07 94,3 [924DB1E7] [C39E0761]
08 94,3 [8C3C7DB7] [8803523F]
09 94,3 [C7847DE1] [1981A9B3]

foobar2000 1.2 / Dynamic Range Meter 1.1.1
log date: 2017-09-05 23:30:36

––––––––––––––––––––––––––––––––––––––––
Analyzed: Steely Dan / The Royal Scam [SHM-CD]
––––––––––––––––––––––––––––––––––––––––

DR Peak RMS Duration Track
––––––––––––––––––––––––––––––––––––––––
DR10 -0.51 dB -12.07 dB 4:39 01-Kid Charlemagne
DR12 -0.51 dB -14.83 dB 3:34 02-The Caves Of Altamira
DR10 -0.51 dB -13.08 dB 4:16 03-Don't Take Me Alive
DR9 -0.51 dB -11.90 dB 4:24 04-Sign In Stranger
DR9 -0.51 dB -11.74 dB 4:01 05-The Fez
DR10 -0.51 dB -12.70 dB 4:05 06-Green Earrings
DR10 -0.51 dB -13.00 dB 5:51 07-Haitian Divorce
DR11 -0.51 dB -13.71 dB 3:56 08-Everything You Did
DR12 -0.51 dB -15.76 dB 6:32 09-The Royal Scam
––––––––––––––––––––––––––––––––––––––––

Number of tracks: 9
Official DR value: DR10

Samplerate: 44100 Hz
Channels: 2
Bits per sample: 16
Bitrate: 916 kbps
Codec: FLAC
================================================================================




Steely Dan - Albums Collection 1972-1980 (7CD) Japanese SHM-CD, Remastered 2008 [Re-Up]

Steely Dan - Aja (1977) [Japanese SHM-CD, Remastered 2008]
EAC | FLAC | Image (Cue&Log) ~ 258 Mb | Mp3 (CBR320) ~ 101 Mb | Scans included
Label: Geffen/Universal | # UICY-93520 | Time: 00:40:02

Steely Dan hadn't been a real working band since Pretzel Logic, but with Aja, Walter Becker and Donald Fagen's obsession with sonic detail and fascination with composition reached new heights. A coolly textured and immaculately produced collection of sophisticated jazz-rock, Aja has none of the overt cynicism or self-consciously challenging music that distinguished previous Steely Dan records. Instead, it's a measured and textured album, filled with subtle melodies and accomplished, jazzy solos that blend easily into the lush instrumental backdrops. But Aja isn't just about texture, since Becker and Fagen's songs are their most complex and musically rich set of songs – even the simplest song, the sunny pop of "Peg," has layers of jazzy vocal harmonies. In fact, Steely Dan ignores rock on Aja, preferring to fuse cool jazz, blues, and pop together in a seamless, seductive fashion. It's complex music delivered with ease, and although the duo's preoccupation with clean sound and self-consciously sophisticated arrangements would eventually lead to a dead end, Aja is a shining example of jazz-rock at its finest.

Review by Stephen Thomas Erlewine, Allmusic.com

Tracklist:

01. Black Cow (05:10)
02. Aja (08:00)
03. Deacon Blues (07:36)
04. Peg (04:00)
05. Home At Last (05:35)
06. I Got The News (05:07)
07. Josie (04:31)


Exact Audio Copy V0.99 prebeta 5 from 4. May 2009

EAC extraction logfile from 23. March 2010, 13:48

Steely Dan / Aja [SHM-CD]

Used drive : HL-DT-STDVD-RAM GH22NP20 Adapter: 0 ID: 0

Read mode : Secure
Utilize accurate stream : Yes
Defeat audio cache : Yes
Make use of C2 pointers : No

Read offset correction : 102
Overread into Lead-In and Lead-Out : No
Fill up missing offset samples with silence : Yes
Delete leading and trailing silent blocks : No
Null samples used in CRC calculations : Yes
Used interface : Native Win32 interface for Win NT & 2000

Used output format : Internal WAV Routines
Sample format : 44.100 Hz; 16 Bit; Stereo


TOC of the extracted CD

Track | Start | Length | Start sector | End sector
––––––––––––––––––––––––––––-
1 | 0:00.00 | 5:10.47 | 0 | 23296
2 | 5:10.47 | 8:00.33 | 23297 | 59329
3 | 13:11.05 | 7:36.50 | 59330 | 93579
4 | 20:47.55 | 4:00.22 | 93580 | 111601
5 | 24:48.02 | 5:35.50 | 111602 | 136776
6 | 30:23.52 | 5:07.08 | 136777 | 159809
7 | 35:30.60 | 4:31.32 | 159810 | 180166


Range status and errors

Selected range

Filename C:\Steely Dan (1977) Aja\Steely Dan - Aja [SHM-CD].wav

Peak level 94.3 %
Range quality 100.0 %
Copy CRC 12EAC6C2
Copy OK

No errors occurred


AccurateRip summary

Track 1 accurately ripped (confidence 7) [07CD51F8]
Track 2 accurately ripped (confidence 7) [553C6099]
Track 3 accurately ripped (confidence 7) [97D7ABA5]
Track 4 accurately ripped (confidence 7) [D11DF488]
Track 5 accurately ripped (confidence 7) [B17840F9]
Track 6 accurately ripped (confidence 7) [33D5ECEF]
Track 7 accurately ripped (confidence 7) [CAEF7BA5]

All tracks accurately ripped

End of status report

[CUETools log; Date: 04.09.2017 21:08:18; Version: 2.1.4]
[AccurateRip ID: 000baa93-00453cef-51096207] found.
Track [ CRC | V2 ] Status
01 [07cd51f8|5cfd152a] (015+031/132) Accurately ripped
02 [553c6099|33bbdfa8] (015+031/133) Accurately ripped
03 [97d7aba5|b14019e8] (016+030/133) Accurately ripped
04 [d11df488|c29dbac0] (016+031/134) Accurately ripped
05 [b17840f9|50be15e4] (016+031/133) Accurately ripped
06 [33d5ecef|51cf02e2] (015+031/131) Accurately ripped
07 [caef7ba5|49450e99] (016+031/132) Accurately ripped
Offsetted by -18:
01 [7c1c0a98] (002/132) Accurately ripped
02 [8bb3fd27] (002/133) Accurately ripped
03 [e70c9ff9] (002/133) Accurately ripped
04 [d4a67a48] (002/134) Accurately ripped
05 [0e30769b] (002/133) Accurately ripped
06 [a017f2fb] (002/131) Accurately ripped
07 [143301e7] (002/132) Accurately ripped
Offsetted by 270:
01 [37308098] (003/132) Accurately ripped
02 [243a3447] (003/133) Accurately ripped
03 [f3bd5ab9] (003/133) Accurately ripped
04 [9c1e1e48] (003/134) Accurately ripped
05 [42ad1c7b] (003/133) Accurately ripped
06 [dbf7923b] (003/131) Accurately ripped
07 [7ffa9dc7] (003/132) Accurately ripped
Offsetted by 1172:
01 [3a0095b8] (013/132) Accurately ripped
02 [257b00ed] (014/133) Accurately ripped
03 [7298a39d] (013/133) Accurately ripped
04 [ce9db708] (014/134) Accurately ripped
05 [5548d5c5] (013/133) Accurately ripped
06 [00606337] (013/131) Accurately ripped
07 [efc2e431] (013/132) Accurately ripped
Offsetted by 1337:
01 [ba844ea8] (007/132) Accurately ripped
02 [32329082] (007/133) Accurately ripped
03 [9c888e9b] (007/133) Accurately ripped
04 [838f97a8] (007/134) Accurately ripped
05 [d8b03f78] (007/133) Accurately ripped
06 [20032bc9] (006/131) Accurately ripped
07 [7ad7ead4] (007/132) Accurately ripped
Offsetted by 1350:
01 [f4bd3b18] (004/132) Accurately ripped
02 [603182ff] (004/133) Accurately ripped
03 [63541709] (005/133) Accurately ripped
04 [c81ec548] (004/134) Accurately ripped
05 [87808a83] (004/133) Accurately ripped
06 [7c7e276b] (004/131) Accurately ripped
07 [5427264f] (004/132) Accurately ripped
Offsetted by 6:
01 [365dbf18] (000/132) No match (V2 was not tested)
02 [431481bf] (000/133) No match (V2 was not tested)
03 [7d70af89] (000/133) No match (V2 was not tested)
04 [7a9b1d48] (000/134) No match (V2 was not tested)
05 [3d3ad9c3] (000/133) No match (V2 was not tested)
06 [0fbfeaeb] (000/131) No match (V2 was not tested)
07 [07d8f98f] (000/132) No match (V2 was not tested)

Track Peak [ CRC32 ] [W/O NULL] [ LOG ]
– 94,3 [12EAC6C2] [CAF4356B] CRC32
01 93,8 [3EEFA637] [B5A686FE]
02 94,3 [FA356E0F] [62856996]
03 94,3 [2E027CF8] [EEA85A66]
04 94,3 [48CB6C49] [275B4ADF]
05 94,3 [41338848] [DDB3DD7B]
06 94,3 [7FCD77F5] [9F5D0900]
07 94,2 [2E63F001] [2F918849]

foobar2000 1.2 / Dynamic Range Meter 1.1.1
log date: 2017-09-05 23:30:53

––––––––––––––––––––––––––––––––––––––––
Analyzed: Steely Dan / Aja [SHM-CD]
––––––––––––––––––––––––––––––––––––––––

DR Peak RMS Duration Track
––––––––––––––––––––––––––––––––––––––––
DR15 -0.55 dB -18.05 dB 5:11 01-Black Cow
DR13 -0.51 dB -17.10 dB 8:00 02-Aja
DR13 -0.51 dB -15.59 dB 7:37 03-Deacon Blues
DR11 -0.51 dB -14.36 dB 4:00 04-Peg
DR12 -0.51 dB -14.58 dB 5:36 05-Home At Last
DR15 -0.51 dB -17.52 dB 5:07 06-I Got The News
DR14 -0.51 dB -16.79 dB 4:31 07-Josie
––––––––––––––––––––––––––––––––––––––––

Number of tracks: 7
Official DR value: DR13

Samplerate: 44100 Hz
Channels: 2
Bits per sample: 16
Bitrate: 864 kbps
Codec: FLAC
================================================================================




Steely Dan - Albums Collection 1972-1980 (7CD) Japanese SHM-CD, Remastered 2008 [Re-Up]

Steely Dan - Gaucho (1980) [Japanese SHM-CD, Remastered 2008]
EAC | FLAC | Image (Cue&Log) ~ 252 Mb | Mp3 (CBR320) ~ 98 Mb | Scans included
Label: Geffen/Universal | # UICY-93521 | Time: 00:37:58

Aja was cool, relaxed, and controlled; it sounded deceptively easy. Its follow-up, Gaucho, while sonically similar, is its polar opposite: a precise and studied record, where all of the seams show. Gaucho essentially replicates the smooth jazz-pop of Aja, but with none of that record's dark, seductive romance or elegant aura. Instead, it's meticulous and exacting; each performance has been rehearsed so many times that it no longer has any emotional resonance. Furthermore, Walter Becker and Donald Fagen's songs are generally labored, only occasionally reaching their past heights, like on the suave "Babylon Sisters," "Time Out of Mind," and "Hey Nineteen." Still, those three songs are barely enough to make the remainder of the album's glossy, meandering fusion worthwhile.

Review by Stephen Thomas Erlewine, Allmusic.com

Tracklist:

01. Babylon Sisters (05:50)
02. Hey Nineteen (05:07)
03. Glamour Profession (07:29)
04. Gaucho (05:32)
05. Time Out Of Mind (04:13)
06. My Rival (04:31)
07. Third World Man (05:13)


Exact Audio Copy V0.99 prebeta 5 from 4. May 2009

EAC extraction logfile from 23. March 2010, 19:42

Steely Dan / Gaucho [SHM-CD]

Used drive : HL-DT-STDVD-RAM GH22NP20 Adapter: 0 ID: 0

Read mode : Secure
Utilize accurate stream : Yes
Defeat audio cache : Yes
Make use of C2 pointers : No

Read offset correction : 102
Overread into Lead-In and Lead-Out : No
Fill up missing offset samples with silence : Yes
Delete leading and trailing silent blocks : No
Null samples used in CRC calculations : Yes
Used interface : Native Win32 interface for Win NT & 2000

Used output format : Internal WAV Routines
Sample format : 44.100 Hz; 16 Bit; Stereo


TOC of the extracted CD

Track | Start | Length | Start sector | End sector
––––––––––––––––––––––––––––-
1 | 0:00.00 | 5:50.30 | 0 | 26279
2 | 5:50.30 | 5:07.27 | 26280 | 49331
3 | 10:57.57 | 7:29.20 | 49332 | 83026
4 | 18:27.02 | 5:32.18 | 83027 | 107944
5 | 23:59.20 | 4:13.22 | 107945 | 126941
6 | 28:12.42 | 4:31.65 | 126942 | 147331
7 | 32:44.32 | 5:13.73 | 147332 | 170879


Range status and errors

Selected range

Filename C:\Steely Dan (1980) Gaucho\Steely Dan - Gaucho [SHM-CD].wav

Peak level 88.4 %
Range quality 100.0 %
Copy CRC CAA5E7FC
Copy OK

No errors occurred


AccurateRip summary

Track 1 accurately ripped (confidence 9) [E4C16438]
Track 2 accurately ripped (confidence 9) [8BDC943F]
Track 3 accurately ripped (confidence 9) [F5034544]
Track 4 accurately ripped (confidence 9) [70FFAD36]
Track 5 accurately ripped (confidence 9) [1BB41855]
Track 6 accurately ripped (confidence 9) [0B578C0C]
Track 7 accurately ripped (confidence 9) [0EAE518C]

All tracks accurately ripped

End of status report

[CUETools log; Date: 04.09.2017 21:09:18; Version: 2.1.4]
[AccurateRip ID: 000adc3a-004094d6-5f08e607] found.
Track [ CRC | V2 ] Status
01 [e4c16438|4e0c6684] (021+021/126) Accurately ripped
02 [8bdc943f|a589b046] (020+021/126) Accurately ripped
03 [f5034544|7be02d2e] (020+021/125) Accurately ripped
04 [70ffad36|35b0b4e6] (021+021/126) Accurately ripped
05 [1bb41855|af3975d6] (020+021/126) Accurately ripped
06 [0b578c0c|43e991c0] (019+021/125) Accurately ripped
07 [0eae518c|e55497e1] (020+021/124) Accurately ripped
Offsetted by -454:
01 [5849671c] (002/126) Accurately ripped
02 [28c0ea53] (002/126) Accurately ripped
03 [b648c11c] (002/125) Accurately ripped
04 [2fbdc0dc] (002/126) Accurately ripped
05 [cec56c63] (002/126) Accurately ripped
06 [1a6294fa] (002/125) Accurately ripped
07 [eec2b02c] (002/124) Accurately ripped
Offsetted by -180:
01 [63c24ff0] (002/126) Accurately ripped
02 [2569db97] (002/126) Accurately ripped
03 [5a736694] (002/125) Accurately ripped
04 [0dd25e2a] (002/126) Accurately ripped
05 [703b8779] (002/126) Accurately ripped
06 [01848570] (002/125) Accurately ripped
07 [9ec8704c] (002/124) Accurately ripped
Offsetted by -157:
01 [6d217bc6] (010/126) Accurately ripped
02 [9e97ce35] (010/126) Accurately ripped
03 [754fbd58] (010/125) Accurately ripped
04 [13621ce3] (010/126) Accurately ripped
05 [29b2c1ce] (010/126) Accurately ripped
06 [ddcb9315] (010/125) Accurately ripped
07 [8dcaca3c] (010/124) Accurately ripped
Offsetted by -18:
01 [57db1564] (002/126) Accurately ripped
02 [4e6ab4fb] (002/126) Accurately ripped
03 [658e7bcc] (002/125) Accurately ripped
04 [e714bee8] (002/126) Accurately ripped
05 [8a8e703f] (002/126) Accurately ripped
06 [3d8f3e96] (003/125) Accurately ripped
07 [69e4216c] (002/124) Accurately ripped
Offsetted by 6:
01 [13b8d3d4] (002/126) Accurately ripped
02 [a057deab] (002/126) Accurately ripped
03 [cf7f886c] (002/125) Accurately ripped
04 [9ef8a750] (002/126) Accurately ripped
05 [4c15fb07] (002/126) Accurately ripped
06 [4fefa5de] (002/125) Accurately ripped
07 [9af1b6ec] (002/124) Accurately ripped
Offsetted by -835:
01 [b1e937ea] (000/126) No match (V2 was not tested)
02 [942bf489] (000/126) No match (V2 was not tested)
03 [047618b0] (000/125) No match (V2 was not tested)
04 [c87bb769] (000/126) No match (V2 was not tested)
05 [ce7db13c] (000/126) No match (V2 was not tested)
06 [96a82d63] (000/125) No match (V2 was not tested)
07 [a40b0adc] (000/124) No match (V2 was not tested)
Offsetted by -222:
01 [1afe42ac] (000/126) No match
02 [960ad2a3] (000/126) No match
03 [610d907c] (000/125) No match
04 [cc038774] (000/126) No match
05 [1d8e549b] (000/126) No match
06 [215bd0b2] (000/125) No match
07 [c8f0aaac] (000/124) No match (V2 was not tested)
Offsetted by -220:
01 [7ffb67e0] (000/126) No match (V2 was not tested)
02 [478940c7] (000/126) No match (V2 was not tested)
03 [ff36fc34] (000/125) No match (V2 was not tested)
04 [30abdad2] (000/126) No match (V2 was not tested)
05 [2daef581] (000/126) No match (V2 was not tested)
06 [8d8e83f8] (000/125) No match (V2 was not tested)
07 [4d0721cc] (000/124) No match (V2 was not tested)
Offsetted by -219:
01 [3279fa7a] (000/126) No match
02 [204877d9] (000/126) No match
03 [4e4bb210] (000/125) No match
04 [e3000481] (000/126) No match
05 [35bf45f4] (000/126) No match
06 [c3a7dd9b] (000/125) No match (V2 was not tested)
07 [8f125d5c] (000/124) No match
Offsetted by -216:
01 [49f5b248] (000/126) No match
02 [aa861d0f] (000/126) No match
03 [3b89d3a4] (000/125) No match
04 [f9fc818e] (000/126) No match
05 [4df0374d] (000/126) No match (V2 was not tested)
06 [65f3ea84] (000/125) No match
07 [5534100c] (000/124) No match
Offsetted by -213:
01 [61716a16] (000/126) No match
02 [34c3c245] (000/126) No match
03 [28c7f538] (000/125) No match
04 [10f8fe9b] (000/126) No match (V2 was not tested)
05 [662128a6] (000/126) No match
06 [083ff76d] (000/125) No match
07 [1b55c2bc] (000/124) No match
Offsetted by -209:
01 [2b6bb47e] (000/126) No match
02 [97c09e8d] (000/126) No match
03 [651acca8] (000/125) No match (V2 was not tested)
04 [da49a557] (000/126) No match
05 [86626a72] (000/126) No match
06 [e0a55df9] (000/125) No match
07 [2382b0fc] (000/124) No match
Offsetted by -207:
01 [9068d9b2] (000/126) No match
02 [493f0cb1] (000/126) No match (V2 was not tested)
03 [03443860] (000/125) No match
04 [3ef1f8b5] (000/126) No match
05 [96830b58] (000/126) No match
06 [4cd8113f] (000/125) No match
07 [a799281c] (000/124) No match
Offsetted by -204:
01 [a7e49180] (000/126) No match (V2 was not tested)
02 [d37cb1e7] (000/126) No match
03 [f08259f4] (000/125) No match
04 [55ee75c2] (000/126) No match
05 [aeb3fcb1] (000/126) No match
06 [ef241e28] (000/125) No match
07 [6dbadacc] (000/124) No match
Offsetted by -30:
01 [f9ec362c] (000/126) No match (V2 was not tested)
02 [25742023] (000/126) No match (V2 was not tested)
03 [b095f57c] (000/125) No match (V2 was not tested)
04 [8b22cab4] (000/126) No match (V2 was not tested)
05 [29caaadb] (000/126) No match (V2 was not tested)
06 [b45f0af2] (000/125) No match (V2 was not tested)
07 [515d56ac] (000/124) No match (V2 was not tested)
Offsetted by 288:
01 [b3265178] (000/126) No match
02 [62fa887f] (000/126) No match
03 [ec4fdcc4] (000/125) No match (V2 was not tested)
04 [0fae9216] (000/126) No match
05 [2e0e99b5] (000/126) No match
06 [e7dc636c] (000/125) No match
07 [5b51538c] (000/124) No match
Offsetted by 631:
01 [dabcbdce] (000/126) No match
02 [cb2d519d] (000/126) No match
03 [e10f8688] (000/125) No match
04 [fe726b8f] (000/126) No match
05 [fbea63ca] (000/126) No match
06 [63d37cd1] (000/125) No match
07 [d85e217c] (000/124) No match (V2 was not tested)
Offsetted by 634:
01 [f238759c] (000/126) No match
02 [556af6d3] (000/126) No match
03 [ce4da81c] (000/125) No match
04 [156ee89c] (000/126) No match
05 [141b5523] (000/126) No match
06 [061f89ba] (000/125) No match (V2 was not tested)
07 [9e7fd42c] (000/124) No match
Offsetted by 637:
01 [09b42d6a] (000/126) No match
02 [dfa89c09] (000/126) No match
03 [bb8bc9b0] (000/125) No match
04 [2c6b65a9] (000/126) No match
05 [2c4c467c] (000/126) No match (V2 was not tested)
06 [a86b96a3] (000/125) No match
07 [64a186dc] (000/124) No match
Offsetted by 640:
01 [212fe538] (000/126) No match
02 [69e6413f] (000/126) No match
03 [a8c9eb44] (000/125) No match
04 [4367e2b6] (000/126) No match (V2 was not tested)
05 [447d37d5] (000/126) No match
06 [4ab7a38c] (000/125) No match
07 [2ac3398c] (000/124) No match
Offsetted by 644:
01 [eb2a2fa0] (000/126) No match
02 [cce31d87] (000/126) No match
03 [e51cc2b4] (000/125) No match (V2 was not tested)
04 [0cb88972] (000/126) No match
05 [64be79a1] (000/126) No match
06 [231d0a18] (000/125) No match
07 [32f027cc] (000/124) No match
Offsetted by 646:
01 [502754d4] (000/126) No match
02 [7e618bab] (000/126) No match (V2 was not tested)
03 [83462e6c] (000/125) No match
04 [7160dcd0] (000/126) No match
05 [74df1a87] (000/126) No match
06 [8f4fbd5e] (000/125) No match
07 [b7069eec] (000/124) No match
More than 16 offsets match!

Track Peak [ CRC32 ] [W/O NULL] [ LOG ]
– 88,4 [CAA5E7FC] [B1395652] CRC32
01 88,4 [E5ABDF1A] [16CDCB1B]
02 88,4 [A4989DDE] [3A7B9188]
03 88,4 [535D78E9] [E7B5A51E]
04 88,4 [DAF6C26D] [671918E5]
05 88,4 [25D8F9F5] [D33BB475]
06 88,4 [2D408E9E] [5142A6F6]
07 88,4 [957CCC83] [FF9301ED]

foobar2000 1.2 / Dynamic Range Meter 1.1.1
log date: 2017-09-05 23:31:07

––––––––––––––––––––––––––––––––––––––––
Analyzed: Steely Dan / Gaucho [SHM-CD]
––––––––––––––––––––––––––––––––––––––––

DR Peak RMS Duration Track
––––––––––––––––––––––––––––––––––––––––
DR11 -1.07 dB -14.39 dB 5:50 01-Babylon Sisters
DR14 -1.07 dB -16.85 dB 5:07 02-Hey Nineteen
DR11 -1.07 dB -13.44 dB 7:29 03-Glamour Profession
DR11 -1.07 dB -14.13 dB 5:32 04-Gaucho
DR11 -1.07 dB -15.10 dB 4:13 05-Time Out Of Mind
DR12 -1.07 dB -14.92 dB 4:32 06-My Rival
DR11 -1.07 dB -15.19 dB 5:14 07-Third World Man
––––––––––––––––––––––––––––––––––––––––

Number of tracks: 7
Official DR value: DR12

Samplerate: 44100 Hz
Channels: 2
Bits per sample: 16
Bitrate: 881 kbps
Codec: FLAC
================================================================================