Subcategories

Steely Dan - Katy Lied (1975) {1999, Remastered}

Posted By: popsakov
Steely Dan - Katy Lied (1975) {1999, Remastered}

Steely Dan - Katy Lied (1975) {1999, Remastered}
EAC Rip | FLAC (Img) + Cue + Log ~ 236 Mb | MP3 CBR320 ~ 85 Mb
Full Scans (JPG, 600 dpi) ~ 95 Mb | RAR 5% Recovery
Jazz Rock, Fusion, Pop Rock, Classic Rock | MCA Records #MCD 11916 / 111 916-2

Building from the jazz fusion foundation of Pretzel Logic, Steely Dan created an alluringly sophisticated album of jazzy pop with Katy Lied. With this record, Walter Becker and Donald Fagen began relying solely on studio musicians, which is evident from the immaculate sound of the album. Usually, such a studied recording method would drain the life out of each song, but that's not the case with Katy Lied, which actually benefits from the duo's perfectionist tendencies. Each song is given a glossy sheen, one that accentuates not only the stronger pop hooks, but also the precise technical skill of the professional musicians drafted to play the solos. Essentially, Katy Lied is a smoother version of Pretzel Logic, featuring the same cross-section of jazz-pop and blues-rock. The lack of innovations doesn't hurt the record, since the songs are uniformly brilliant. Less overtly cynical than previous Dan albums, the album still has its share of lyrical stingers, but what's really notable are the melodies, from the seductive jazzy soul of "Doctor Wu" and the lazy blues of "Chain Lightning" to the terse "Black Friday" and mock calypso of "Everyone's Gone to the Movies." It's another excellent record in one of the most distinguished rock & roll catalogs of the '70s.
~ Stephen Thomas Erlewine, All Music

***************

Steely Dan - Katy Lied (1975) {1999, Remastered}

Steely Dan - Katy Lied (1975) {1999, Remastered}

Track List:

01. Black Friday [0:03:41.15]
02. Bad Sneakers [0:03:19.72]
03. Rose Darling [0:03:05.25]
04. Daddy Don’t Live in That New York City No More [0:03:15.65]
05. Doctor Wu [0:03:56.33]
06. Everyone’s Gone to the Movies [0:03:44.65]
07. Your Gold Teeth II [0:04:12.52]
08. Chain Lightning [0:03:00.10]
09. Any World (That I’m Welcome To) [0:03:55.28]
10. Throw Back the Little Ones [0:03:13.30]

Personnel:
Bass – Chuck Rainey, Wilton Felder
Bass, Guitar – Walter Becker
Drums, Percussion – Jeff Porcaro
Guitar – Dean Parks, Denny Dias, Elliot Randall, Hugh McCracken, Larry Carlton, Rick Derringer
Keyboards – David Paich, Michael Omartian
Keyboards – Donald Fagen
Backing Vocals – Michael McDonald

Exact Audio Copy V1.3 from 2. September 2016

EAC extraction logfile from 26. November 2017, 11:15

Steely Dan / Katy Lied

Used drive : TSSTcorpCDDVDW SE-S084C Adapter: 0 ID: 0

Read mode : Secure
Utilize accurate stream : Yes
Defeat audio cache : Yes
Make use of C2 pointers : No

Read offset correction : 6
Overread into Lead-In and Lead-Out : No
Fill up missing offset samples with silence : Yes
Delete leading and trailing silent blocks : No
Null samples used in CRC calculations : Yes
Used interface : Installed external ASPI interface

Used output format : User Defined Encoder
Selected bitrate : 320 kBit/s
Quality : High
Add ID3 tag : No
Command line compressor : C:\Program Files (x86)\Exact Audio Copy\FLAC\FLAC.EXE
Additional command line options : -V -8 -T "Date=%year%" -T "Genre=%genre%" %source%


TOC of the extracted CD

Track | Start | Length | Start sector | End sector
––––––––––––––––––––––––––––-
1 | 0:00.00 | 3:41.15 | 0 | 16589
2 | 3:41.15 | 3:19.72 | 16590 | 31586
3 | 7:01.12 | 3:05.25 | 31587 | 45486
4 | 10:06.37 | 3:15.65 | 45487 | 60176
5 | 13:22.27 | 3:56.33 | 60177 | 77909
6 | 17:18.60 | 3:44.65 | 77910 | 94774
7 | 21:03.50 | 4:12.52 | 94775 | 113726
8 | 25:16.27 | 3:00.10 | 113727 | 127236
9 | 28:16.37 | 3:55.28 | 127237 | 144889
10 | 32:11.65 | 3:13.30 | 144890 | 159394


Range status and errors

Selected range

Filename D:\EAC\Steely Dan - Katy Lied.wav

Peak level 98.8 %
Extraction speed 3.8 X
Range quality 100.0 %
Test CRC 77965D22
Copy CRC 77965D22
Copy OK

No errors occurred


AccurateRip summary

Track 1 accurately ripped (confidence 38) [0E101261] (AR v2)
Track 2 accurately ripped (confidence 52) [1290B10A] (AR v2)
Track 3 accurately ripped (confidence 52) [6AD511BA] (AR v2)
Track 4 accurately ripped (confidence 52) [444A638D] (AR v2)
Track 5 accurately ripped (confidence 52) [3B7DB6F9] (AR v2)
Track 6 accurately ripped (confidence 52) [44F9FBEC] (AR v2)
Track 7 accurately ripped (confidence 51) [D7317CF5] (AR v2)
Track 8 accurately ripped (confidence 52) [8EE005E8] (AR v2)
Track 9 accurately ripped (confidence 52) [44225541] (AR v2)
Track 10 accurately ripped (confidence 52) [A7DE52AA] (AR v2)

All tracks accurately ripped

End of status report

–– CUETools DB Plugin V2.1.6

[CTDB TOCID: bSE7WJ_b_M1mAS.E.Oz40HA2.yc-] found
Submit result: bSE7WJ_b_M1mAS.E.Oz40HA2.yc- has been confirmed
Track | CTDB Status
1 | (135/414) Accurately ripped
2 | (154/414) Accurately ripped
3 | (151/414) Accurately ripped
4 | (151/414) Accurately ripped
5 | (154/414) Accurately ripped
6 | (154/414) Accurately ripped
7 | (150/414) Accurately ripped
8 | (151/414) Accurately ripped
9 | (153/414) Accurately ripped
10 | (152/414) Accurately ripped


==== Log checksum 40914D672FDAD53F6D0C74FFF460FE8F41334F9D2022EC197E20D0729CC54D98 ====

foobar2000 1.3.16 / Dynamic Range Meter 1.1.1
log date: 2017-11-26 13:03:45

––––––––––––––––––––––––––––––––––––––––
Analyzed: Steely Dan / Katy Lied
––––––––––––––––––––––––––––––––––––––––

DR Peak RMS Duration Track
––––––––––––––––––––––––––––––––––––––––
DR12 -0.14 dB -14.28 dB 3:41 01-Black Friday
DR14 -0.10 dB -16.23 dB 3:20 02-Bad Sneakers
DR12 -0.10 dB -14.22 dB 3:05 03-Rose Darling
DR13 -0.10 dB -14.78 dB 3:16 04-Daddy Don’t Live in That New York City No More
DR11 -0.10 dB -13.37 dB 3:56 05-Doctor Wu
DR12 -0.10 dB -14.31 dB 3:45 06-Everyone’s Gone to the Movies
DR12 -0.10 dB -15.08 dB 4:13 07-Your Gold Teeth II
DR12 -0.10 dB -14.46 dB 3:00 08-Chain Lightning
DR11 -0.11 dB -15.53 dB 3:55 09-Any World (That I’m Welcome To)
DR12 -0.10 dB -14.69 dB 3:13 10-Throw Back the Little Ones
––––––––––––––––––––––––––––––––––––––––

Number of tracks: 10
Official DR value: DR12

Samplerate: 44100 Hz
Channels: 2
Bits per sample: 16
Bitrate: 886 kbps
Codec: FLAC
================================================================================

[CUETools log; Date: 26.11.2017 13:03:56; Version: 2.1.5]
[CTDB TOCID: bSE7WJ_b_M1mAS.E.Oz40HA2.yc-] found.
Track | CTDB Status
1 | (136/415) Accurately ripped
2 | (155/415) Accurately ripped
3 | (152/415) Accurately ripped
4 | (152/415) Accurately ripped
5 | (155/415) Accurately ripped
6 | (155/415) Accurately ripped
7 | (151/415) Accurately ripped
8 | (152/415) Accurately ripped
9 | (154/415) Accurately ripped
10 | (153/415) Accurately ripped
[AccurateRip ID: 000d4d5f-006acb46-76084d0a] found.
Track [ CRC | V2 ] Status
01 [d11b98e8|0e101261] (006+038/510) Accurately ripped
02 [d420b363|1290b10a] (007+052/525) Accurately ripped
03 [3b76abce|6ad511ba] (007+052/524) Accurately ripped
04 [49114e3f|444a638d] (007+052/522) Accurately ripped
05 [7286cf17|3b7db6f9] (007+052/524) Accurately ripped
06 [18550088|44f9fbec] (007+052/526) Accurately ripped
07 [2df1f1cb|d7317cf5] (006+051/521) Accurately ripped
08 [b8ae9634|8ee005e8] (006+052/525) Accurately ripped
09 [fbaa526b|44225541] (007+052/524) Accurately ripped
10 [19fb7e71|a7de52aa] (007+052/519) Accurately ripped
Offsetted by 667:
01 [9320b6f9] (046/510) Accurately ripped
02 [e23c08f6] (044/525) Accurately ripped
03 [6e96dfec] (046/524) Accurately ripped
04 [e0cd72d8] (044/522) Accurately ripped
05 [d787496b] (046/524) Accurately ripped
06 [0e2db316] (046/526) Accurately ripped
07 [ec2402f4] (046/521) Accurately ripped
08 [429bc645] (046/525) Accurately ripped
09 [7537beb4] (046/524) Accurately ripped
10 [b886b8bd] (045/519) Accurately ripped
Offsetted by 661:
01 [eb318e67] (002/510) Accurately ripped
02 [f175be80] (002/525) Accurately ripped
03 [d5c1f490] (000/524) No match (V2 was not tested)
04 [4d89aa65] (000/522) No match
05 [b6043324] (000/524) No match
06 [810749da] (000/526) No match
07 [b826a1b2] (000/521) No match
08 [511a99b3] (000/525) No match
09 [7aa62932] (000/524) No match
10 [eaea06e5] (000/519) No match
Offsetted by 673:
01 [3b0fdf8b] (000/510) No match (V2 was not tested)
02 [d302536c] (000/525) No match (V2 was not tested)
03 [076bcb48] (000/524) No match (V2 was not tested)
04 [a566d8c3] (000/522) No match (V2 was not tested)
05 [f8575de2] (000/524) No match (V2 was not tested)
06 [9b541c52] (000/526) No match (V2 was not tested)
07 [20216436] (000/521) No match (V2 was not tested)
08 [341cf2d7] (000/525) No match (V2 was not tested)
09 [6fc95436] (000/524) No match (V2 was not tested)
10 [86236a95] (000/519) No match (V2 was not tested)

Track Peak [ CRC32 ] [W/O NULL] [ LOG ]
– 98,8 [77965D22] [8F99A41F] CRC32
01 98,4 [5F257204] [773548B1]
02 98,8 [09156556] [F8311D57]
03 98,8 [268F3F24] [3EA7DDAE]
04 98,8 [4167F45F] [4A785F6D]
05 98,8 [C322D422] [7EC9491F]
06 98,8 [B2ECE95A] [AC5CBF6F]
07 98,8 [792A5AA9] [F65F2E2D]
08 98,8 [C5CD38B5] [518A71DE]
09 98,8 [93803A1B] [3C813D4B]
10 98,8 [243688C4] [19BFA353]

Steely Dan - Katy Lied (1975) {1999, Remastered}

All thanks go to salernitana

>>> Steely Dan in my Blog <<<

Download from icerbox.com: