Subcategories

Stefan Kaempfert & The Bert Kaempfert Orchestra - Kaempfert Plays Kaempfert (2011)

Posted By: BlondStyle
Stefan Kaempfert & The Bert Kaempfert Orchestra - Kaempfert Plays Kaempfert (2011)

Stefan Kaempfert & The Bert Kaempfert Orchestra - Kaempfert Plays Kaempfert (2011)
Jazz-Pop, Easy Listening | EAC Rip | FLAC, Tracks+CUE+LOG+Scans (JPEG) | 52:22 Min | 377,80 Mb
Label: Edel Records (Germany) | Cat.# 0207212EME | Released: 2011-12-02
Stefan Kaempfert & The Bert Kaempfert Orchestra - Kaempfert Plays Kaempfert (2011)

For many, Bert Kaempfert's music is inextricably bound up with certain situations, places, or feelings; it accompanies us through life. Unforgettable melodies, evergreens that meet us everywhere, world stars who owe some of their greatest successes to the genius composer, arranger and bandleader, this great artist who has become immortal through his music. His grandson Stefan has made it his task to present Bert Kaempfert's instrumental music to a new audience. Young generations who usually recognize their melodies immediately without having ever experienced their creator on the stage or on television.
~Amazon Germany

Stefan Kaempfert & The Bert Kaempfert Orchestra - Kaempfert Plays Kaempfert (2011)

Stefan Kaempfert & The Bert Kaempfert Orchestra - Kaempfert Plays Kaempfert (2011)


Release of this CD: 2011, December, 2 [CD Edel Records (Germany), Cat.# 0207212EME / UPC: 4029759072126]
© 2010 Bert Kaempfert Entertainment AG, Zug (Switzerland).
℗ 2011 Edel Germany GmbH.
Distributed by Edel Distribution.
Made in Germany by Optimal Media GmbH.


Tracklist:

01. A Swingin' Safari (03:08)
02. Spanish Eyes (02:43)
03. Wonderland By Night (03:05)
04. So What's New (02:15)
05. L.O.V.E. (02:33)
06. Red Roses For A Blue Lady (02:23)
07. Strangers In The Night (03:23)
08. Snowbird (02:17)
09. Danke Schoen (03:25)
10. Hold Back The Dawn (03:18)
11. I Can't Help Remembering You (03:17)
12. Cracklin' Rosie (03:07)
13. Remember When (03:01)
14. Tijuana Taxi (02:44)
15. It Makes No Difference (03:25)
16. Ducky (02:56)
17. Still Missing You (03:14)
18. Sweet Little Toddy (02:06)

Exact Audio Copy V1.3 from 2. September 2016

EAC extraction logfile from 13. August 2017, 16:23

Stefan Kaempfert & The Bert Kaempfert Orchestra / Kaempfert Plays Kaempfert

Used drive : TSSTcorpCDDVDW SE-208AB Adapter: 2 ID: 0

Read mode : Secure
Utilize accurate stream : Yes
Defeat audio cache : Yes
Make use of C2 pointers : No

Read offset correction : 6
Overread into Lead-In and Lead-Out : No
Fill up missing offset samples with silence : Yes
Delete leading and trailing silent blocks : No
Null samples used in CRC calculations : Yes
Used interface : Installed external ASPI interface
Gap handling : Appended to previous track

Used output format : User Defined Encoder
Selected bitrate : 768 kBit/s
Quality : High
Add ID3 tag : No
Command line compressor : C:\Program Files (x86)\Exact Audio Copy\Flac\flac.exe
Additional command line options : -8 -V -T "ARTIST=%artist%" -T "TITLE=%title%" -T "ALBUM=%albumtitle%" -T "DATE=%year%" -T "TRACKNUMBER=%tracknr%" -T "GENRE=%genre%" -T "COMMENT=%comment%" -T "BAND=%albuminterpret%" -T "ALBUMARTIST=%albuminterpret%" -T "COMPOSER=%composer%" %haslyrics%–tag-from-file=LYRICS="%lyricsfile%"%haslyrics% -T "DISCNUMBER=%cdnumber%" -T "TOTALDISCS=%totalcds%" -T "TOTALTRACKS=%numtracks%" %hascover%–picture="%coverfile%"%hascover% %source% -o %dest%


TOC of the extracted CD

Track | Start | Length | Start sector | End sector
––––––––––––––––––––––––––––-
1 | 0:00.00 | 3:07.56 | 0 | 14080
2 | 3:07.56 | 2:43.03 | 14081 | 26308
3 | 5:50.59 | 3:05.34 | 26309 | 40217
4 | 8:56.18 | 2:15.35 | 40218 | 50377
5 | 11:11.53 | 2:32.67 | 50378 | 61844
6 | 13:44.45 | 2:23.29 | 61845 | 72598
7 | 16:07.74 | 3:22.52 | 72599 | 87800
8 | 19:30.51 | 2:17.35 | 87801 | 98110
9 | 21:48.11 | 3:25.12 | 98111 | 113497
10 | 25:13.23 | 3:18.05 | 113498 | 128352
11 | 28:31.28 | 3:16.66 | 128353 | 143118
12 | 31:48.19 | 3:07.35 | 143119 | 157178
13 | 34:55.54 | 3:01.19 | 157179 | 170772
14 | 37:56.73 | 2:43.51 | 170773 | 183048
15 | 40:40.49 | 3:25.28 | 183049 | 198451
16 | 44:06.02 | 2:55.44 | 198452 | 211620
17 | 47:01.46 | 3:14.15 | 211621 | 226185
18 | 50:15.61 | 2:06.27 | 226186 | 235662


Track 1

Filename D:\Lietotājs\Pictures\Music\Flac\01. A Swingin' Safari.wav

Pre-gap length 0:00:02.00

Peak level 98.9 %
Extraction speed 1.0 X
Track quality 100.0 %
Test CRC 4925A125
Copy CRC 4925A125
Accurately ripped (confidence 2) [C43832E0] (AR v2)
Copy OK

Track 2

Filename D:\Lietotājs\Pictures\Music\Flac\02. Spanish Eyes.wav

Pre-gap length 0:00:00.54

Peak level 98.9 %
Extraction speed 1.0 X
Track quality 100.0 %
Test CRC 9A212F05
Copy CRC 9A212F05
Accurately ripped (confidence 2) [D1B8D44C] (AR v2)
Copy OK

Track 3

Filename D:\Lietotājs\Pictures\Music\Flac\03. Wonderland By Night.wav

Pre-gap length 0:00:00.63

Peak level 98.9 %
Extraction speed 1.2 X
Track quality 100.0 %
Test CRC 7772F752
Copy CRC 7772F752
Accurately ripped (confidence 2) [89BC65A5] (AR v2)
Copy OK

Track 4

Filename D:\Lietotājs\Pictures\Music\Flac\04. So What's New.wav

Pre-gap length 0:00:01.57

Peak level 98.9 %
Extraction speed 0.9 X
Track quality 99.9 %
Test CRC A9C4BE14
Copy CRC A9C4BE14
Accurately ripped (confidence 2) [BB8DC62F] (AR v2)
Copy OK

Track 5

Filename D:\Lietotājs\Pictures\Music\Flac\05. L.O.V.E..wav

Pre-gap length 0:00:01.33

Peak level 98.9 %
Extraction speed 1.2 X
Track quality 100.0 %
Test CRC FDFF8E4D
Copy CRC FDFF8E4D
Accurately ripped (confidence 2) [C169F850] (AR v2)
Copy OK

Track 6

Filename D:\Lietotājs\Pictures\Music\Flac\06. Red Roses For A Blue Lady.wav

Pre-gap length 0:00:01.44

Peak level 98.9 %
Extraction speed 1.1 X
Track quality 99.9 %
Test CRC 63688724
Copy CRC 63688724
Accurately ripped (confidence 2) [412B9B3D] (AR v2)
Copy OK

Track 7

Filename D:\Lietotājs\Pictures\Music\Flac\07. Strangers In The Night.wav

Pre-gap length 0:00:01.51

Peak level 98.9 %
Extraction speed 1.4 X
Track quality 100.0 %
Test CRC 2A6DBD05
Copy CRC 2A6DBD05
Accurately ripped (confidence 2) [8407A004] (AR v2)
Copy OK

Track 8

Filename D:\Lietotājs\Pictures\Music\Flac\08. Snowbird.wav

Pre-gap length 0:00:01.43

Peak level 98.9 %
Extraction speed 1.1 X
Track quality 99.9 %
Test CRC F40E3BA3
Copy CRC F40E3BA3
Accurately ripped (confidence 2) [3490F211] (AR v2)
Copy OK

Track 9

Filename D:\Lietotājs\Pictures\Music\Flac\09. Danke Schoen.wav

Pre-gap length 0:00:01.53

Peak level 98.9 %
Extraction speed 1.3 X
Track quality 99.9 %
Test CRC 9B7B9D64
Copy CRC 9B7B9D64
Accurately ripped (confidence 2) [B56DE8D3] (AR v2)
Copy OK

Track 10

Filename D:\Lietotājs\Pictures\Music\Flac\10. Hold Back The Dawn.wav

Pre-gap length 0:00:02.08

Peak level 98.9 %
Extraction speed 1.6 X
Track quality 100.0 %
Test CRC 6762FF3C
Copy CRC 6762FF3C
Accurately ripped (confidence 2) [1EB00F2B] (AR v2)
Copy OK

Track 11

Filename D:\Lietotājs\Pictures\Music\Flac\11. I Can't help Remembering You.wav

Pre-gap length 0:00:02.05

Peak level 98.9 %
Extraction speed 1.4 X
Track quality 99.9 %
Test CRC 33D2B3DF
Copy CRC 33D2B3DF
Accurately ripped (confidence 2) [AA96D3F5] (AR v2)
Copy OK

Track 12

Filename D:\Lietotājs\Pictures\Music\Flac\12. Creacklin' Rosie.wav

Pre-gap length 0:00:01.62

Peak level 98.9 %
Extraction speed 1.7 X
Track quality 100.0 %
Test CRC FCCCB760
Copy CRC FCCCB760
Accurately ripped (confidence 2) [4E24CF59] (AR v2)
Copy OK

Track 13

Filename D:\Lietotājs\Pictures\Music\Flac\13. Remember When.wav

Pre-gap length 0:00:01.56

Peak level 98.9 %
Extraction speed 1.5 X
Track quality 99.9 %
Test CRC 625E29E0
Copy CRC 625E29E0
Accurately ripped (confidence 2) [9EAF0EDB] (AR v2)
Copy OK

Track 14

Filename D:\Lietotājs\Pictures\Music\Flac\14. Tijuana Taxi.wav

Pre-gap length 0:00:01.28

Peak level 98.9 %
Extraction speed 1.5 X
Track quality 99.9 %
Test CRC C0EAB535
Copy CRC C0EAB535
Accurately ripped (confidence 2) [DFDF13B8] (AR v2)
Copy OK

Track 15

Filename D:\Lietotājs\Pictures\Music\Flac\15. It Makes No Difference.wav

Pre-gap length 0:00:02.06

Peak level 97.0 %
Extraction speed 1.9 X
Track quality 100.0 %
Test CRC D91C6D7B
Copy CRC D91C6D7B
Accurately ripped (confidence 2) [99DE1EC8] (AR v2)
Copy OK

Track 16

Filename D:\Lietotājs\Pictures\Music\Flac\16. Ducky.wav

Pre-gap length 0:00:01.68

Peak level 95.0 %
Extraction speed 1.6 X
Track quality 99.9 %
Test CRC B6036D38
Copy CRC B6036D38
Accurately ripped (confidence 2) [592AFBEE] (AR v2)
Copy OK

Track 17

Filename D:\Lietotājs\Pictures\Music\Flac\17. Still Missing You.wav

Pre-gap length 0:00:01.46

Peak level 98.9 %
Extraction speed 1.7 X
Track quality 99.9 %
Test CRC 16230963
Copy CRC 16230963
Accurately ripped (confidence 2) [0FA0F3D0] (AR v2)
Copy OK

Track 18

Filename D:\Lietotājs\Pictures\Music\Flac\18. Sweet Little Toddy.wav

Pre-gap length 0:00:02.05

Peak level 98.9 %
Extraction speed 1.8 X
Track quality 100.0 %
Test CRC BAFD014F
Copy CRC BAFD014F
Accurately ripped (confidence 2) [44125581] (AR v2)
Copy OK


All tracks accurately ripped

No errors occurred

End of status report

–– CUETools DB Plugin V2.1.6

[CTDB TOCID: h_oTHXf3uIFTYivVnztFKvUIVM4-] disk not present in database
Submit result: h_oTHXf3uIFTYivVnztFKvUIVM4- has been uploaded


==== Log checksum 01CC39E2D0555F530F2B4B2A7BE601340D0A99E6083C6330A1F5103B57D4E265 ====

––––––––––––––––––––––––––––––––––––––––
Analyzed: Stefan Kaempfert & The Bert Kaempfert Orchestra / Kaempfert Plays Kaempfert
––––––––––––––––––––––––––––––––––––––––

DR Peak RMS Duration Track
––––––––––––––––––––––––––––––––––––––––
DR8 -0.09 dB -10.81 dB 3:08 01-A Swingin' Safari
DR7 -0.09 dB -9.80 dB 2:43 02-Spanish Eyes
DR7 -0.09 dB -9.83 dB 3:05 03-Wonderland By Night
DR6 -0.09 dB -8.90 dB 2:15 04-So What's New
DR6 -0.09 dB -9.10 dB 2:33 05-L.O.V.E.
DR7 -0.09 dB -8.86 dB 2:23 06-Red Roses For A Blue Lady
DR6 -0.09 dB -7.82 dB 3:23 07-Strangers In The Night
DR7 -0.09 dB -9.26 dB 2:17 08-Snowbird
DR7 -0.09 dB -10.84 dB 3:25 09-Danke Schoen
DR6 -0.09 dB -8.22 dB 3:18 10-Hold Back The Dawn
DR6 -0.09 dB -7.66 dB 3:17 11-I Can't help Remembering You
DR7 -0.09 dB -9.67 dB 3:07 12-Creacklin' Rosie
DR8 -0.09 dB -9.85 dB 3:01 13-Remember When
DR7 -0.09 dB -9.01 dB 2:44 14-Tijuana Taxi
DR6 -0.26 dB -8.77 dB 3:25 15-It Makes No Difference
DR8 -0.44 dB -10.78 dB 2:56 16-Ducky
DR7 -0.09 dB -9.21 dB 3:14 17-Still Missing You
DR7 -0.09 dB -8.93 dB 2:06 18-Sweet Little Toddy
––––––––––––––––––––––––––––––––––––––––

Number of tracks: 18
Official DR value: DR7

Samplerate: 44100 Hz
Channels: 2
Bits per sample: 16
Bitrate: 864 kbps
Codec: FLAC
================================================================================

Thanks to Olivierito

password: BlondStyle