Subcategories

Stephen Hough, Dallas Symphony Orchestra, Andrew Litton - Rachmaninov: The Piano Concertos (2010)

Posted By: tirexiss
Stephen Hough, Dallas Symphony Orchestra, Andrew Litton - Rachmaninov: The Piano Concertos (2010)

Stephen Hough, Dallas Symphony Orchestra, Andrew Litton - Rachmaninov: The Piano Concertos (2010)
EAC | APE (image+.cue, log) | Covers Included | 02:24:00 | 501 MB
Genre: Classical | Label: Hyperion | Catalog: CDA30014/2

As everyone with a thesaurus knows, urgency rhymes with emergency. And these performances of Rachmaninov's works for piano and orchestra by Stephen Hough with Andrew Litton leading the Dallas Symphony are nothing if they are not urgent. Hough's tempos are quick and strong and vital, with plenty of rubato and lots of accelerando. Of course, there's nothing wrong with that. Go back and listen to the old Rachmaninov recordings to hear the roots of Hough's impetuous and romantic interpretation. But those are only the roots: Hough is himself a consummate virtuoso with a blazing technique and a passionate temperament and he has something to say about Rachmaninov, and in Rachmaninov's style, he says it urgently, often even ecstatically. Listen to the climax of the closing movement of the Concerto in D minor: Hough pushes forward by holding back and explodes in incandescent chords of surpassing bliss. Not since the '50s Horowitz recording has any pianist so perfectly represented the heart of the music by being so true to himself. Litton, an old hand at Rachmaninov, is a superb partner and the Dallas Symphony sounds like a thoroughbred orchestra. If you love Rachmaninov's works for piano and orchestra – and what red-blooded listener doesn't? – hearing Hough's recording is an emergency. Hyperion's live sound is faithful and true.

Stephen Hough, Dallas Symphony Orchestra, Andrew Litton - Rachmaninov: The Piano Concertos (2010)

Track List:

CD 1:
Piano Concerto No1 in F sharp minor Op1
1. I. Vivace (12'27)
2. II. Andante (5'39)
3. III. Allegro vivace (7'47)
Piano Concerto No4 in G minor Op40
4. I. Allegro vivace (9'03)
5. II. Largo (6'22)
6. III. Allegro vivace (9'06)
Rhapsody on a Theme of Paganini Op43
7. Introduction Allegro vivace (0'09)
8. Variation I Precedente (0'19)
9. Theme L'istesso Tempo (0'17)
10. II. L'istesso tempo (0'17)
11. III. L'istesso tempo (0'23)
12. IV. Piu vivo (0'27)
13. V. Tempo precedente (0'27)
14. VI. L'istesso tempo (1'05)
15. VII. Meno mosso, a tempo moderato (1'05)
16. VIII.Tempo I (0'32)
17. IX. L'istesso tempo (0'30)
18. X. Poco marcato (0'48)
19. XI. Moderato (1'26)
20. XII. Tempo di minuetto (1'23)
21. XII. Allegro (0'27)
22. XIII. L'istesso tempo (0'42)
23. XV. Piu vivo scherzando (1'09)
24. XVI. Allegretto (1'40)
25. XVII. Allegretto (2'12)
26. XVIII. Andante cantabile (2'57)
27. XIX. A tempo vivace (0'26)
28. XX. Un poco piu vivo (0'34)
29. XXI. Un poco piu vivo (0'25)
30. XXII. Un poco piu vivo (Alla breve) (1'37)
31. XXIII. L'estesso tempo (0'50)
32. XXIV. Atempo un poco meno mosso (1'23)

Exact Audio Copy V0.99 prebeta 4 from 23. January 2008

Отчёт EAC об извлечении, выполненном 5. февраля 2012, 8:57

Stephen Hough; Andrew Litton: Dallas Symphony Orchestra / Rachmaninov: Piano Concertos [Disc 1]

Дисковод: HL-DT-STDVDRAM GH20LS10 Adapter: 3 ID: 1

Режим чтения : Достоверность
Использование точного потока : Да
Отключение кэша аудио : Да
Использование указателей C2 : Нет

Коррекция смещения при чтении : 667
Способность читать области Lead-in и Lead-out : Нет
Заполнение пропущенных сэмплов тишиной : Да
Удаление блоков с тишиной в начале и конце : Нет
При вычислениях CRC использовались нулевые сэмплы : Да
Интерфейс : Встроенный Win32-интерфейс для Win NT/2000

Выходной формат : Внутренние WAV-операции
Формат сэмплов : 44.100 Гц; 16 бит; стерео


TOC извлечённого CD

Трек | Старт | Длительность | Начальный сектор | Конечный сектор
––––––––––––––––––––––––––––––––––-
1 | 0:00.00 | 12:32.71 | 0 | 56470
2 | 12:32.71 | 5:39.48 | 56471 | 81943
3 | 18:12.44 | 7:57.47 | 81944 | 117765
4 | 26:10.16 | 9:06.71 | 117766 | 158786
5 | 35:17.12 | 6:22.07 | 158787 | 187443
6 | 41:39.19 | 9:16.33 | 187444 | 229176
7 | 50:55.52 | 0:09.02 | 229177 | 229853
8 | 51:04.54 | 0:19.02 | 229854 | 231280
9 | 51:23.56 | 0:18.03 | 231281 | 232633
10 | 51:41.59 | 0:17.38 | 232634 | 233946
11 | 51:59.22 | 0:23.54 | 233947 | 235725
12 | 52:23.01 | 0:27.33 | 235726 | 237783
13 | 52:50.34 | 0:27.52 | 237784 | 239860
14 | 53:18.11 | 1:05.40 | 239861 | 244775
15 | 54:23.51 | 1:05.67 | 244776 | 249717
16 | 55:29.43 | 0:32.13 | 249718 | 252130
17 | 56:01.56 | 0:30.10 | 252131 | 254390
18 | 56:31.66 | 0:48.52 | 254391 | 258042
19 | 57:20.43 | 1:26.59 | 258043 | 264551
20 | 58:47.27 | 1:23.53 | 264552 | 270829
21 | 60:11.05 | 0:27.70 | 270830 | 272924
22 | 60:39.00 | 0:42.39 | 272925 | 276113
23 | 61:21.39 | 1:09.23 | 276114 | 281311
24 | 62:30.62 | 1:40.14 | 281312 | 288825
25 | 64:11.01 | 2:12.53 | 288826 | 298778
26 | 66:23.54 | 2:57.18 | 298779 | 312071
27 | 69:20.72 | 0:26.72 | 312072 | 314093
28 | 69:47.69 | 0:34.32 | 314094 | 316675
29 | 70:22.26 | 0:25.37 | 316676 | 318587
30 | 70:47.63 | 1:37.20 | 318588 | 325882
31 | 72:25.08 | 0:50.57 | 325883 | 329689
32 | 73:15.65 | 1:23.52 | 329690 | 335966


Характеристики диапазона извлечения и сообщения об ошибках

Выбранный диапазон

Имя файла D:\Lossless\Stephen Hough - Rachmaninov Piano Concertos - 2010\CD-1\Stephen Hough; Andrew Litton Dallas Symphony Orchestra - Rachmaninov Piano Concertos [Disc 1].wav

Пиковый уровень 100.0 %
Качество диапазона 99.9 %
CRC теста 1105D2D5
CRC копии 1105D2D5
Копирование… OK

Ошибок не произошло


AccurateRip: сводка

Трек 1 точное извлечение (доверие 2) [DA60351C]
Трек 2 точное извлечение (доверие 2) [C06CB4C6]
Трек 3 точное извлечение (доверие 2) [4482ECD7]
Трек 4 точное извлечение (доверие 2) [C0FBB912]
Трек 5 точное извлечение (доверие 2) [4A15B2BF]
Трек 6 точное извлечение (доверие 2) [63016401]
Трек 7 точное извлечение (доверие 2) [5F0ED795]
Трек 8 точное извлечение (доверие 2) [00FAF456]
Трек 9 точное извлечение (доверие 2) [1148FA79]
Трек 10 точное извлечение (доверие 2) [E6C262A9]
Трек 11 точное извлечение (доверие 2) [D4307EED]
Трек 12 точное извлечение (доверие 2) [275D655B]
Трек 13 точное извлечение (доверие 2) [85B059C6]
Трек 14 точное извлечение (доверие 2) [1C0C5138]
Трек 15 точное извлечение (доверие 2) [CD8B3B11]
Трек 16 точное извлечение (доверие 2) [EB51014B]
Трек 17 точное извлечение (доверие 2) [A7EBB331]
Трек 18 точное извлечение (доверие 2) [70C1402B]
Трек 19 точное извлечение (доверие 2) [D9A9BCCE]
Трек 20 точное извлечение (доверие 2) [21F31CA8]
Трек 21 точное извлечение (доверие 2) [C2F3A79D]
Трек 22 точное извлечение (доверие 2) [7721176F]
Трек 23 точное извлечение (доверие 2) [AD08A229]
Трек 24 точное извлечение (доверие 2) [2E8DACC1]
Трек 25 точное извлечение (доверие 2) [7402DD28]
Трек 26 точное извлечение (доверие 2) [99F0D36C]
Трек 27 точное извлечение (доверие 2) [99D71191]
Трек 28 точное извлечение (доверие 2) [D5D6BBF4]
Трек 29 точное извлечение (доверие 2) [003829F6]
Трек 30 точное извлечение (доверие 2) [5BD60E51]
Трек 31 точное извлечение (доверие 2) [054D108E]
Трек 32 точное извлечение (доверие 2) [D0AF6634]

Все треки извлечены точно

Конец отчёта

[CUETools log; Date: 08.09.2017 17:49:02; Version: 2.1.5]
[CTDB TOCID: i_MPhJ91Tl90Mu6LSVlBK53xNco-] found.
Track | CTDB Status
1 | (73/75) Accurately ripped
2 | (74/75) Accurately ripped
3 | (74/75) Accurately ripped
4 | (74/75) Accurately ripped
5 | (75/75) Accurately ripped
6 | (74/75) Accurately ripped
7 | (75/75) Accurately ripped
8 | (75/75) Accurately ripped
9 | (75/75) Accurately ripped
10 | (75/75) Accurately ripped
11 | (75/75) Accurately ripped
12 | (75/75) Accurately ripped
13 | (75/75) Accurately ripped
14 | (73/75) Accurately ripped
15 | (75/75) Accurately ripped
16 | (74/75) Accurately ripped
17 | (75/75) Accurately ripped
18 | (75/75) Accurately ripped
19 | (74/75) Accurately ripped
20 | (74/75) Accurately ripped
21 | (75/75) Accurately ripped
22 | (75/75) Accurately ripped
23 | (75/75) Accurately ripped
24 | (75/75) Accurately ripped
25 | (73/75) Accurately ripped
26 | (73/75) Accurately ripped
27 | (75/75) Accurately ripped
28 | (75/75) Accurately ripped
29 | (75/75) Accurately ripped
30 | (75/75) Accurately ripped
31 | (75/75) Accurately ripped
32 | (73/75) Accurately ripped
[AccurateRip ID: 00791ffb-095674f5-d2117f20] found.
Track [ CRC | V2 ] Status
01 [da60351c|15b0a287] (002+022/123) Accurately ripped
02 [c06cb4c6|5e71f6c3] (002+022/123) Accurately ripped
03 [4482ecd7|39362413] (002+022/122) Accurately ripped
04 [c0fbb912|95564fde] (002+022/122) Accurately ripped
05 [4a15b2bf|5899dc82] (002+022/121) Accurately ripped
06 [63016401|025fe9d5] (002+022/121) Accurately ripped
07 [5f0ed795|ad0a3580] (002+022/120) Accurately ripped
08 [00faf456|a169363d] (002+022/120) Accurately ripped
09 [1148fa79|d271619a] (002+022/120) Accurately ripped
10 [e6c262a9|7281e264] (002+022/119) Accurately ripped
11 [d4307eed|70c9b3b2] (002+022/120) Accurately ripped
12 [275d655b|275cfbdc] (002+022/120) Accurately ripped
13 [85b059c6|25cd0a0b] (002+022/119) Accurately ripped
14 [1c0c5138|b2cdb44b] (002+022/120) Accurately ripped
15 [cd8b3b11|86d50c41] (002+022/120) Accurately ripped
16 [eb51014b|42a49c25] (002+022/117) Accurately ripped
17 [a7ebb331|98f0d818] (002+022/120) Accurately ripped
18 [70c1402b|62c75198] (002+022/120) Accurately ripped
19 [d9a9bcce|6bf9dabf] (002+022/120) Accurately ripped
20 [21f31ca8|6f203e8b] (002+022/119) Accurately ripped
21 [c2f3a79d|dbb0dd0e] (002+022/120) Accurately ripped
22 [7721176f|06a9a294] (002+022/120) Accurately ripped
23 [ad08a229|15ff23b1] (002+022/120) Accurately ripped
24 [2e8dacc1|0ba62442] (002+022/119) Accurately ripped
25 [7402dd28|98275f9a] (002+022/117) Accurately ripped
26 [99f0d36c|6c40b734] (002+022/117) Accurately ripped
27 [99d71191|4c4fab45] (002+022/120) Accurately ripped
28 [d5d6bbf4|d850f81c] (002+022/120) Accurately ripped
29 [003829f6|b40d31eb] (002+022/119) Accurately ripped
30 [5bd60e51|901bf786] (002+022/115) Accurately ripped
31 [054d108e|0dd557be] (002+022/112) Accurately ripped
32 [d0af6634|93e6e4c1] (002+021/114) Accurately ripped
Offsetted by 18:
01 [ceef139a] (008/123) Accurately ripped
02 [08b26db7] (008/123) Accurately ripped
03 [bc86858f] (008/122) Accurately ripped
04 [9a12b0ab] (008/122) Accurately ripped
05 [6023ee9b] (008/121) Accurately ripped
06 [1226d1ea] (008/121) Accurately ripped
07 [44a3bed9] (008/120) Accurately ripped
08 [cb04ccfb] (008/120) Accurately ripped
09 [5bd80542] (008/120) Accurately ripped
10 [24395cc6] (008/119) Accurately ripped
11 [8400d77c] (008/120) Accurately ripped
12 [594783be] (008/120) Accurately ripped
13 [4275b23b] (008/119) Accurately ripped
14 [72f2be6b] (008/120) Accurately ripped
15 [fe66a23b] (008/120) Accurately ripped
16 [c24bd33d] (008/117) Accurately ripped
17 [9b35b2c1] (008/120) Accurately ripped
18 [ef9ae62a] (008/120) Accurately ripped
19 [88c99901] (008/120) Accurately ripped
20 [4575c0b0] (008/119) Accurately ripped
21 [0132d233] (008/120) Accurately ripped
22 [3cc01d2d] (008/120) Accurately ripped
23 [ca52756b] (008/120) Accurately ripped
24 [ef59dcb1] (008/119) Accurately ripped
25 [75a59e0c] (008/117) Accurately ripped
26 [b34c04f3] (008/117) Accurately ripped
27 [b621bcda] (008/120) Accurately ripped
28 [b16f36a6] (008/120) Accurately ripped
29 [4aea8a01] (007/119) Accurately ripped
30 [123c3c2e] (007/115) Accurately ripped
31 [70a0d92f] (007/112) Accurately ripped
32 [ac49fc3a] (008/114) Accurately ripped
Offsetted by 660:
01 [e204b7fd] (015/123) Accurately ripped
02 [4baeb067] (015/123) Accurately ripped
03 [97fa22b2] (014/122) Accurately ripped
04 [20922e52] (015/122) Accurately ripped
05 [9d1d752c] (015/121) Accurately ripped
06 [59595d8b] (015/121) Accurately ripped
07 [4e0c3488] (014/120) Accurately ripped
08 [09aa7809] (014/120) Accurately ripped
09 [685522ed] (014/120) Accurately ripped
10 [11e9182e] (014/119) Accurately ripped
11 [471c6a41] (014/120) Accurately ripped
12 [cd401d35] (014/120) Accurately ripped
13 [1e3a85d4] (014/119) Accurately ripped
14 [112efcb0] (014/120) Accurately ripped
15 [a1802c88] (014/120) Accurately ripped
16 [5f768228] (013/117) Accurately ripped
17 [2c13a909] (014/120) Accurately ripped
18 [14c49bb2] (014/120) Accurately ripped
19 [be3ed917] (014/120) Accurately ripped
20 [acd79fb1] (014/119) Accurately ripped
21 [3f56551c] (014/120) Accurately ripped
22 [f73ef01c] (014/120) Accurately ripped
23 [7ba6415f] (014/120) Accurately ripped
24 [d31d3b9c] (014/119) Accurately ripped
25 [6fb1152d] (014/117) Accurately ripped
26 [cd051d08] (014/117) Accurately ripped
27 [8672a4eb] (014/120) Accurately ripped
28 [a111d273] (014/120) Accurately ripped
29 [5fbe805c] (014/119) Accurately ripped
30 [d15a8f0a] (014/115) Accurately ripped
31 [7c57b89b] (011/112) Accurately ripped
32 [ef5cde93] (011/114) Accurately ripped
Offsetted by 672:
01 [4e3115cf] (004/123) Accurately ripped
02 [3c5834b3] (004/123) Accurately ripped
03 [6f9047e8] (004/122) Accurately ripped
04 [612acc93] (003/122) Accurately ripped
05 [aedeb8ae] (003/121) Accurately ripped
06 [3f862821] (003/121) Accurately ripped
07 [c53b73d6] (003/120) Accurately ripped
08 [f12ae598] (003/120) Accurately ripped
09 [0195d6e9] (003/120) Accurately ripped
10 [10640bbf] (002/119) Accurately ripped
11 [ad9b449c] (003/120) Accurately ripped
12 [c838b0b3] (003/120) Accurately ripped
13 [9641c684] (002/119) Accurately ripped
14 [9278e353] (003/120) Accurately ripped
15 [01b470e8] (003/120) Accurately ripped
16 [93fa627b] (002/117) Accurately ripped
17 [c7b50e1e] (003/120) Accurately ripped
18 [de43177a] (003/120) Accurately ripped
19 [a13cb6f0] (003/120) Accurately ripped
20 [a7a06784] (003/119) Accurately ripped
21 [ec8b2aa1] (003/120) Accurately ripped
22 [dc47ae0c] (003/120) Accurately ripped
23 [a58b49d6] (003/120) Accurately ripped
24 [d79a319e] (003/119) Accurately ripped
25 [124d3c40] (003/117) Accurately ripped
26 [8ac856dd] (002/117) Accurately ripped
27 [80d877a5] (003/120) Accurately ripped
28 [d9a51c09] (003/120) Accurately ripped
29 [c29dee62] (003/119) Accurately ripped
30 [520beb3e] (003/115) Accurately ripped
31 [e6b5bb13] (003/112) Accurately ripped
32 [5c4dec64] (003/114) Accurately ripped
Offsetted by 682:
01 [fe449c2a] (023/123) Accurately ripped
02 [d71cf018] (023/123) Accurately ripped
03 [ae67605a] (023/122) Accurately ripped
04 [d06e591d] (023/122) Accurately ripped
05 [ee3cf688] (022/121) Accurately ripped
06 [4a4f6dd7] (022/121) Accurately ripped
07 [3d2ea8bb] (023/120) Accurately ripped
08 [9a62fcc6] (023/120) Accurately ripped
09 [bab45318] (023/120) Accurately ripped
10 [4901db27] (023/119) Accurately ripped
11 [f05f0735] (023/120) Accurately ripped
12 [c599bfbb] (023/120) Accurately ripped
13 [75e8b3be] (023/119) Accurately ripped
14 [611acafa] (023/120) Accurately ripped
15 [70b2d2d4] (023/120) Accurately ripped
16 [411edbf2] (022/117) Accurately ripped
17 [ca3efeed] (023/120) Accurately ripped
18 [07cd1e9c] (023/120) Accurately ripped
19 [86024598] (023/120) Accurately ripped
20 [5d2c7d25] (023/119) Accurately ripped
21 [d380a16c] (023/120) Accurately ripped
22 [7f93cfe7] (023/120) Accurately ripped
23 [b6c67acc] (023/120) Accurately ripped
24 [2fd6021b] (023/119) Accurately ripped
25 [884b3c42] (023/117) Accurately ripped
26 [ced716bc] (022/117) Accurately ripped
27 [34d23193] (023/120) Accurately ripped
28 [315ea59c] (023/120) Accurately ripped
29 [9b82da66] (023/119) Accurately ripped
30 [e076e720] (022/115) Accurately ripped
31 [409bed76] (022/112) Accurately ripped
32 [caea0b3d] (023/114) Accurately ripped

Track Peak [ CRC32 ] [W/O NULL] [ LOG ]
– 100,0 [1105D2D5] [F5810A2D] CRC32
01 75,0 [BE9ECB0B] [8EFFDA00]
02 27,2 [A29C2525] [D3944335]
03 90,8 [13F5414A] [A3BAA99A]
04 60,2 [970AEAEF] [E01F44DD]
05 45,1 [9EB49361] [EE1A466B]
06 100,0 [8B22E95C] [735E09E3]
07 52,4 [6D73AA96] [27A25664]
08 38,5 [A2D55285] [83407B13]
09 13,1 [3F16F78B] [918D3044]
10 15,4 [3B656AE3] [2DDB3363]
11 10,6 [A9C97F3F] [C5F6B2F1]
12 28,0 [EB14F60B] [885BA47E]
13 30,1 [0F79D7FD] [0256C84D]
14 20,6 [8695BC67] [5C6C6501]
15 20,2 [9101AA84] [DB252CE6]
16 33,6 [67F7649C] [9EE73F99]
17 31,9 [667AA07A] [8AD5F94F]
18 56,8 [98181332] [A3884909]
19 19,0 [D7FFAF81] [884C9554]
20 14,2 [11AF2EED] [40C4597F]
21 57,5 [89063DFC] [2A2A68A1]
22 72,6 [0D87B769] [2CFBC911]
23 26,3 [D6A34FB1] [F6E878B2]
24 14,0 [50B34122] [D1C13727]
25 19,1 [FB54C336] [A0AB771C]
26 57,4 [A7EC9B35] [A72D266D]
27 22,4 [4C6919F1] [3450F1FF]
28 31,3 [628EAC52] [A38AB76C]
29 30,7 [49D4A823] [2D87E5C4]
30 80,0 [1BB362A9] [389F07D2]
31 99,7 [C741234F] [335B2CE6]
32 98,4 [57F35CEE] [F1574917]

CD 2:
Piano Concerto No2 in C minor Op18
1. I. Moderato (9'54)
2. II. Adagio sostenuto (11'02)
3. III. Allegro scherzando (11'22)
Piano Concerto No3 in D minor Op30
4. I. Allegro ma non tanto (15'01)
5. II. Intermezzo: Adagio (9'55)
6. III. Finale: Alla breve (13'21)

Exact Audio Copy V0.99 prebeta 4 from 23. January 2008

Отчёт EAC об извлечении, выполненном 5. февраля 2012, 10:42

Stephen Hough; Andrew Litton: Dallas Symphony Orchestra / Rachmaninov: Piano Concertos [Disc 2]

Дисковод: HL-DT-STDVDRAM GH20LS10 Adapter: 3 ID: 1

Режим чтения : Достоверность
Использование точного потока : Да
Отключение кэша аудио : Да
Использование указателей C2 : Нет

Коррекция смещения при чтении : 667
Способность читать области Lead-in и Lead-out : Нет
Заполнение пропущенных сэмплов тишиной : Да
Удаление блоков с тишиной в начале и конце : Нет
При вычислениях CRC использовались нулевые сэмплы : Да
Интерфейс : Встроенный Win32-интерфейс для Win NT/2000

Выходной формат : Внутренние WAV-операции
Формат сэмплов : 44.100 Гц; 16 бит; стерео


TOC извлечённого CD

Трек | Старт | Длительность | Начальный сектор | Конечный сектор
––––––––––––––––––––––––––––––––––-
1 | 0:00.00 | 9:59.12 | 0 | 44936
2 | 9:59.12 | 11:02.44 | 44937 | 94630
3 | 21:01.56 | 11:33.10 | 94631 | 146615
4 | 32:34.66 | 15:05.07 | 146616 | 214497
5 | 47:39.73 | 9:55.67 | 214498 | 259189
6 | 57:35.65 | 13:21.32 | 259190 | 319296


Характеристики диапазона извлечения и сообщения об ошибках

Выбранный диапазон

Имя файла D:\Lossless\Stephen Hough - Rachmaninov Piano Concertos - 2010\CD-2\Stephen Hough; Andrew Litton Dallas Symphony Orchestra - Rachmaninov Piano Concertos [Disc 2].wav

Пиковый уровень 100.0 %
Качество диапазона 100.0 %
CRC теста 3CDB1E9B
CRC копии 3CDB1E9B
Копирование… OK

Ошибок не произошло


AccurateRip: сводка

Трек 1 точное извлечение (доверие 2) [25D319A9]
Трек 2 точное извлечение (доверие 2) [01082A4C]
Трек 3 точное извлечение (доверие 2) [72EF17F7]
Трек 4 точное извлечение (доверие 2) [B6F6113C]
Трек 5 точное извлечение (доверие 2) [CE8E69FA]
Трек 6 точное извлечение (доверие 2) [346D7B57]

Все треки извлечены точно

Конец отчёта

[CUETools log; Date: 08.09.2017 17:50:13; Version: 2.1.5]
[CTDB TOCID: w0gHWHOtAuOI3nPBIlg.mEVYQkg-] found.
Track | CTDB Status
1 | (41/41) Accurately ripped
2 | (41/41) Accurately ripped
3 | (41/41) Accurately ripped
4 | (41/41) Accurately ripped
5 | (41/41) Accurately ripped
6 | (40/41) Accurately ripped
[AccurateRip ID: 00107781-0058d9dd-4e10a106] found.
Track [ CRC | V2 ] Status
01 [25d319a9|c546fa1f] (02+21/48) Accurately ripped
02 [01082a4c|70dcd7d4] (02+21/48) Accurately ripped
03 [72ef17f7|a696eba7] (02+21/48) Accurately ripped
04 [b6f6113c|2c276f56] (02+21/48) Accurately ripped
05 [ce8e69fa|63a36566] (02+21/48) Accurately ripped
06 [346d7b57|342913f8] (02+20/47) Accurately ripped
Offsetted by 18:
01 [923f88fc] (08/48) Accurately ripped
02 [5c30a67e] (08/48) Accurately ripped
03 [103c4412] (08/48) Accurately ripped
04 [4af79286] (08/48) Accurately ripped
05 [fca224f1] (08/48) Accurately ripped
06 [7fcce29c] (08/47) Accurately ripped
Offsetted by 682:
01 [101dad92] (03/48) Accurately ripped
02 [e37d515a] (03/48) Accurately ripped
03 [6f0d1da7] (03/48) Accurately ripped
04 [de0032db] (03/48) Accurately ripped
05 [f7269ed0] (03/48) Accurately ripped
06 [795056aa] (03/47) Accurately ripped
Offsetted by -646:
01 [e606c151] (00/48) No match (V2 was not tested)
02 [fa1db50d] (00/48) No match (V2 was not tested)
03 [6f686f52] (00/48) No match (V2 was not tested)
04 [cdade340] (00/48) No match (V2 was not tested)
05 [728342b9] (00/48) No match (V2 was not tested)
06 [6c70b0a3] (00/47) No match (V2 was not tested)

Track Peak [ CRC32 ] [W/O NULL] [ LOG ]
– 100,0 [3CDB1E9B] [5A655618] CRC32
01 68,4 [BA430027] [E4FC6064]
02 68,4 [F9D88BA1] [9D63092E]
03 100,0 [8F0A5B95] [FBBB17A3]
04 50,5 [E8623C01] [0948FA63]
05 66,0 [DD854A9D] [5C300EEA]
06 88,0 [E4493E52] [74CE986B]

Performers:
Stephen Hough, piano
Dallas Symphony Orchestra
Andrew Litton, conductor

Thanks to the Original ripper SerBlues!

Download: