Subcategories

Stephen Kovacevich - Complete Philips Recordings (2015) (25 CD Box Set)

Posted By: murena
Stephen Kovacevich - Complete Philips Recordings (2015) (25 CD Box Set)

Stephen Kovacevich - Complete Philips Recordings (2015) (25 CD Box Set)
EAC Rip | FLAC (Tracks, cue, log) | 25 CDs | Covers included | 4,85 Gb
Genre: Classical / Label: Decca

Released to celebrate his 75th Birthday, this 25CD Limited Edition encompasses the complete recorded legacy of Stephen Kovacevich for the Philips label. It includes his acclaimed interpretations of works by Beethoven, Bartók, Brahms, Chopin, Debussy, Dvorák, Grieg, Mozart, Schumann and Stravinsky.

Following his triumphant debut in London, 1961, Stephen Kovacevich embarked on a brilliant international career and made many acclaimed recordings for Philips Classics, including his legendary Beethoven Piano Concertos and Diabelli Variations.

Kovacevich recorded Bartók’s Piano Concertos under Sir Colin Davis, No. 2 winning an Edison Award. Kovacevich and Martha Argerich together won a Gramophone Award in 1978 for Best Chamber Music recording for album No 25 in this set (Mozart / Debussy / Bartok), the first of several recorded collaborations.

Stephen Kovacevich - Complete Philips Recordings (2015) (25 CD Box Set)


CD1
Beethoven: Diabelli Variations op.120

CD2
Beethoven: Piano Concerto No.1 & Piano Sonata, op.10/1
BBC Symphony Orchestra, Sir Colin Davis

CD3
Beethoven: Piano Concertos Nos. 2 & 4
BBC Symphony Orchestra, Sir Colin Davis

CD4
Beethoven: Piano Concerto No.3 & Piano Sonata, op.13 “Pathétique”
BBC Symphony Orchestra, Sir Colin Davis

CD5
Beethoven: Piano Concerto No. 5
BBC Symphony Orchestra, Sir Colin Davis

CD6
Beethoven: Piano Sonatas opp.101 & 109

CD7
Beethoven: Piano Sonatas opp.110 & 111

CD8
Beethoven: Piano Sonatas op.31/2 & 3

CD9
Beethoven: Bagatelles op.33, 119, 126

CD10
Chopin: Polonaise No.7, Impromptu No.3, Mazurka No.39, etc.

CD11
Dvořák: Piano Quintet op.81 & String Quintet op.97
Mozart: Kegelstadt Trio*
Members of the Berlin Philharmonic Octet
* With Jack Brymer and Patrick Ireland

CD12
Brahms: Piano Concerto No.1
London Symphony Orchestra, Sir Colin Davis

CD13
Brahms: Piano Concerto No. 2
London Symphony Orchestra, Sir Colin Davis

CD14
Brahms: Scherzo in E Flat Minor op.4, 4 Ballades op. 10, 8 Klavierstücke op.76

CD15
Brahms: Klavierstücke Op. 116, 117 & 119

CD16
Brahms: Variations and Fugue on a Theme by Handel op.24,
Klavierstücke op. 117 & 119 [Analogue]

CD17
Brahms: 16 Waltzes, Op.39, 2 Rhapsodies, Op.79, Klavierstücke op.118

CD18
Mozart: Piano Concertos Nos. 21 & 25
London Symphony Orchestra, Sir Colin Davis

CD19
Mozart: Piano Concertos Nos. 20 & 23
London Symphony Orchestra, Sir Colin Davis

CD20
Grieg & Schumann: Piano Concertos
BBC Symphony Orchestra, Sir Colin Davis

CD21
Bartók: Mikrokosmos Nook 6* / Out of Doors / Sonatina [*first international CD release]

CD22
Stravinsky: Concerto for piano and wind
Bartók: Piano Concerto No. 2
BBC Symphony Orchestra, Sir Colin Davis

CD23
Bennett: Piano Concerto No. 1 & Jazz Calendar
London Symphony Orchestra, Sir Alexander Gibson

CD24
Bartók: Piano Concertos Nos.1 & 3
London Symphony Orchestra, Sir Colin Davis

CD25
*Bartók: Sonata for 2 Pianos and Percussion
Andante and Five Variations for Piano duet in G, K.501
Debussy: En blanc et noir
With Martha Argerich,
*With Martha Argerich, Willy Goudswaard and Michael De Roo

Stephen Kovacevich - Complete Philips Recordings (2015) (25 CD Box Set)



Disc: 1
1. Tema (Vivace) - Variation I (Alla marcia maestoso)
2. Variation II (Poco allegro)
3. Variation III (L'istesso tempo)
4. Variation IV (Un poco più vivace)
5. Variation V (Allegro vivace)
6. Variation VI (Allegro ma non troppo e serioso)
7. Variation VII (Un poco più allegro)
8. Variation VIII (Poco vivace)
9. Variation IX (Allegro pesante e risoluto)
10. Variation X (Presto)
11. Variation XI (Allegretto)
12. Variation XII (Un poco più moto)
13. Variation XIII (Vivace)
14. Variation XIV (Grave e maestoso)
15. Variation XV (Presto scherzando)
16. Variation XVI (Allegro)
17. Variation XVII
18. Variation XVIII (Poco moderato)
19. Variation XIX (Presto)
20. Variation XX (Andante)
21. Variation XXI (Allegro con brio - Meno allegro - Tempo I)
22. Variation XXII (Allegro molto): Alla "Notte e giorno faticar" di Mozart
23. Variation XXIII (Allegro assai)
24. Variation XXIV: Fughetta (Andante)
25. Variation XXV (Allegro)
26. Variation XXVI
27. Variation XXVII (Vivace)
28. Variation XXVIII (Allegro)
29. Variation XXIX (Adagio ma non troppo)
30. Variation XXX (Andante, sempre cantabile)
31. Variation XXXI (Largo, molto espressivo)
32. Variation XXXII: Fuga (Allegro - Poco adagio)
33. Variation XXXIII (Tempo di minuetto moderato, ma non tirarsi dietro)

Disc: 2
1. 1. Allegro con brio - Stephen Kovacevich, BBC Symphony Orchestra, Colin Davis
2. 2. Largo - Stephen Kovacevich, BBC Symphony Orchestra, Colin Davis
3. 3. Rondo (Allegro scherzando) - Stephen Kovacevich, BBC Symphony Orchestra, Colin Davis
4. 1. Allegro molto e con brio
5. 2. Adagio molto
6. 3. Finale (Prestissimo)

Disc: 3
1. 1. Allegro con brio - Stephen Kovacevich, BBC Symphony Orchestra, Colin Davis
2. 2. Adagio - Stephen Kovacevich, BBC Symphony Orchestra, Colin Davis
3. 3. Rondo (Molto allegro) - Stephen Kovacevich, BBC Symphony Orchestra, Colin Davis
4. 1. Allegro moderato - Stephen Kovacevich, BBC Symphony Orchestra, Colin Davis
5. 2. Andante con moto - Stephen Kovacevich, BBC Symphony Orchestra, Colin Davis
6. 3. Rondo (Vivace) - Stephen Kovacevich, BBC Symphony Orchestra, Colin Davis

Disc: 4
1. 1. Allegro con brio - Stephen Kovacevich, BBC Symphony Orchestra, Colin Davis
2. 2. Largo - Stephen Kovacevich, BBC Symphony Orchestra, Colin Davis
3. 3. Rondo (Allegro) - Stephen Kovacevich, BBC Symphony Orchestra, Colin Davis
4. 1. Grave - Allegro di molto e con brio
5. 2. Adagio cantabile
6. 3. Rondo (Allegro)

Disc: 5
1. 1. Allegro - Stephen Kovacevich, London Symphony Orchestra, Colin Davis
2. 2. Adagio un poco mosso - Stephen Kovacevich, London Symphony Orchestra, Colin Davis
3. 3. Rondo (Allegro) - Stephen Kovacevich, London Symphony Orchestra, Colin Davis

Disc: 6
1. 1. Etwas lebhaft und mit der innigsten Empfindung (Allegretto ma non troppo)
2. 2. Lebhaft, marschmäßig (Vivace alla marcia)
3. 3. Langsam und sehnsuchtsvoll (Adagio ma non troppo, con affetto)
4. 4. Geschwind, doch nicht zu sehr und mit Entschlossen- heit (Allegro)
5. 1. Vivace, ma non troppo - Adagio espressivo - Tempo I
6. 2. Prestissimo
7. 3. Gesangvoll, mit innigster Empfindung (Andante molto cantabile ed espressivo)

Disc: 7
1. 1. Moderato cantabile molto espressivo
2. 2. Allegro molto
3. 3. Adagio ma non troppo - Fuga (Allegro ma non troppo)
4. 1. Maestoso - Allegro con brio ed appassionato
5. 2. Arietta (Adagio molto semplice e cantabile)

Disc: 8
1. 1. Largo - Allegro
2. 2. Adagio
3. 3. Allegretto
4. 1. Allegro
5. 2. Scherzo (Allegretto vivace)
6. 3. Menuetto (Moderato e grazioso)
7. 4. Presto con fuoco

Disc: 9
1. 1. Andante grazioso, quasi Allegretto
2. 2. Scherzo (Allegro)
3. 3. Allegretto
4. 4. Andante
5. 5. Allegro, ma non troppo
6. 6. Allegretto quasi Andante
7. 7. Presto
8. 1. Allegretto
9. 2. Andante con moto
10. 3. à l'Allemande
11. 4. Andante cantabile
12. 5. Risoluto
13. 6. Andante - Allegretto leggiermente
14. 7. Allegro ma non troppo
15. 8. Moderato cantabile
16. 9. Vivace moderato
17. 10. Allegramente
18. 11. Andante, ma non troppo
19. 1. Andante con moto
20. 2. Allegro
21. 3. Andante
22. 4. Presto
23. 5. Quasi Allegretto
24. 6. Presto - Andante amabile e con moto

Disc: 10
1. Polonaise No.7 in A flat, Op.61 Polonaise-Fantaisie
2. Impromptu No.3 in G flat, Op.51
3. Mazurka No.39 in B Op.63 No.1
4. Mazurka No.40 in F minor Op.63 No.2
5. Mazurka No.41 in C sharp minor Op.63 No.3
6. Barcarolle in F Sharp Major, Op.60
7. Nocturne No.17 in B, Op.62 No.1
8. Nocturne No.18 in E, Op.62 No.2

Disc: 11
1. 1. Allegro, ma non tanto - Stephen Kovacevich, Members of the Berlin Philharmonic Octet
2. 2. Dumka (Andante con moto) - Stephen Kovacevich, Members of the Berlin Philharmonic Octet
3. 3. Scherzo (Furiant) (Molto vivace) - Stephen Kovacevich, Members of the Berlin Philharmonic Octet
4. 4. Finale (Allegro) - Stephen Kovacevich, Members of the Berlin Philharmonic Octet
5. 1. Allegro non tanto - Members of the Berlin Philharmonic Octet
6. 2. Allegro vivo - Members of the Berlin Philharmonic Octet
7. 3. Larghetto - Members of the Berlin Philharmonic Octet
8. 4. Finale (Allegro giusto) - Members of the Berlin Philharmonic Octet
9. 1. Andante - Stephen Kovacevich, Jack Brymer, Patrick Ireland
10. 2. Menuetto & Trio - Stephen Kovacevich, Jack Brymer, Patrick Ireland
11. 3. Rondeau (Allegretto) - Stephen Kovacevich, Jack Brymer, Patrick Ireland

Disc: 12
1. 1. Maestoso - Poco più moderato - Stephen Kovacevich, London Symphony Orchestra, Colin Davis
2. 2. Adagio - Stephen Kovacevich, London Symphony Orchestra, Colin Davis
3. 3. Rondo (Allegro non troppo) - Stephen Kovacevich, London Symphony Orchestra, Colin Davis

Disc: 13
1. 1. Allegro non troppo - Stephen Kovacevich, London Symphony Orchestra, Colin Davis
2. 2. Allegro appassionato - Stephen Kovacevich, London Symphony Orchestra, Colin Davis
3. 3. Andante - Più adagio - Stephen Kovacevich, London Symphony Orchestra, Colin Davis
4. 4. Allegretto grazioso - Un poco più presto - Stephen Kovacevich, London Symphony Orchestra, Colin Davis

Disc: 14
1. Scherzo in E Flat Minor, Op.4
2. No.1 in D minor
3. No.2 in D
4. No.3 in B minor
5. No.4 in B
6. 1. Capriccio in F sharp minor
7. 2. Capriccio in B minor
8. 3. Intermezzo in A flat
9. 4. Intermezzo in B flat
10. 5. Capriccio in C sharp minor
11. 6. Intermezzo in A
12. 7. Intermezzo in A minor
13. 8. Capriccio in C

Disc: 15
1. 1. Capriccio in D Minor
2. 2. Intermezzo in A Minor
3. 3. Capriccio in G Minor
4. 4. Intermezzo in E Major
5. 5. Intermezzo in E Minor
6. 6. Intermezzo in E Major
7. 7. Capriccio in D Minor
8. 1. in E Flat Major
9. 2. in B Flat Minor
10. 3. in C Sharp Minor
11. 1. Intermezzo in B Minor
12. 2. Intermezzo in E Minor
13. 3. Intermezzo in C Major
14. 4. Rhapsody in E Flat Major

Disc: 16
1. Aria
2. Variation I
3. Variation II
4. Variation III
5. Variation IV
6. Variation V
7. Variation VI
8. Variation VII
9. Variation VIII
10. Variation IX
11. Variation X
12. Variation XI
13. Variation XII
14. Variation XIII
15. Variation XIV
16. Variation XV
17. Variation XVI
18. Variation XVII
19. Variation XVIII
20. Variation XIX
21. Variation XX
22. Variation XXI
23. Variation XXII
24. Variation XXIII
25. Variation XXIV
26. Variation XXV
27. Fuga
28. 1. Intermezzo in B minor
29. 2. Intermezzo in E minor
30. 3. Intermezzo in C
31. 4. Rhapsody in E flat
32. 1. in E flat major
33. 2. in B flat minor
34. 3. in C sharp minor

Disc: 17
1. Rhapsody in B Minor, Op.79, No.1
2. Rhapsody in G Minor, Op.79, No.2
3. 1. in B Major
4. 2. in E Major
5. 3. in G Sharp Minor
6. 4. in E Minor
7. 5. in E Major
8. 6. in C Sharp Major
9. 7. in C Sharp Minor
10. 8. in B Flat Major
11. 9. in D Minor
12. 10. in G Major
13. 11. in B Minor
14. 12. in E Major
15. 13. in B Major
16. 14. in G Sharp Minor
17. 15. in A Flat Major
18. 16. in C Sharp Minor
19. 1. Intermezzo in A Minor
20. 2. Intermezzo in A Major
21. 3. Ballade in G Minor
22. 4. Intermezzo in F Minor
23. 5. Romance in F Major
24. 6. Intermezzo in E Flat Minor

Disc: 18
1. 1. Allegro maestoso - Stephen Kovacevich, London Symphony Orchestra, Colin Davis
2. 2. Andante - Stephen Kovacevich, London Symphony Orchestra, Colin Davis
3. 3. Allegro vivace assai - Stephen Kovacevich, London Symphony Orchestra, Colin Davis
4. 1. Allegro maestoso - Stephen Kovacevich, London Symphony Orchestra, Colin Davis
5. 2. Andante - Stephen Kovacevich, London Symphony Orchestra, Colin Davis
6. 3. Allegretto - Stephen Kovacevich, London Symphony Orchestra, Colin Davis

Disc: 19
1. 1. Allegro - Stephen Kovacevich, London Symphony Orchestra, Colin Davis
2. 2. Romance - Stephen Kovacevich, London Symphony Orchestra, Colin Davis
3. 3. Rondo (Allegro assai) - Stephen Kovacevich, London Symphony Orchestra, Colin Davis
4. 1. Allegro - Stephen Kovacevich, London Symphony Orchestra, Colin Davis
5. 2. Andante - Stephen Kovacevich, London Symphony Orchestra, Colin Davis
6. 3. Allegro assai - Stephen Kovacevich, London Symphony Orchestra, Colin Davis

Disc: 20
1. 1. Allegro molto moderato - Stephen Kovacevich, BBC Symphony Orchestra, Colin Davis
2. 2. Adagio - Stephen Kovacevich, BBC Symphony Orchestra, Colin Davis
3. 3. Allegro moderato molto e marcato - Quasi presto - Andante maestoso - Stephen Kovacevich, BBC Symphony Orchestra, Colin Davis
4. 1. Allegro affettuoso - Stephen Kovacevich, BBC Symphony Orchestra, Colin Davis
5. 2. Intermezzo (Andantino grazioso) - Stephen Kovacevich, BBC Symphony Orchestra, Colin Davis
6. 3. Allegro vivace - Stephen Kovacevich, BBC Symphony Orchestra, Colin Davis

Disc: 21
1. No.140 Free Variations
2. No.141 Subject and Reflection
3. No.142 From the Diary of a Fly
4. No.143 Divided Arpeggios
5. No.144 Minor Seconds, Major Seventh
6. No.145 Chromatic Invention (Version A & B)
7. No.146 Ostinato
8. No.147 March
9. No.148 Dance in Bulgarian Rhythm I
10. No.149 Dance in Bulgarian Rhythm II
11. No.150 Dance in Bulgarian Rhythm III
12. No.151 Dance in Bulgarian Rhythm IV
13. No.152 Dance in Bulgarian Rhythm V
14. No.153 Dance in Bulgarian Rhythm VI
15. 1. With Drums and Pipes
16. 2. Barcarolla
17. 3. Musettes
18. 4. The Night's Music
19. 5. The Chase
20. 1. Allegretto - Allegro
21. 2. Moderato
22. 3. Allegro vivace

Disc: 22
1. 1. Largo - Allegro - Più moso - Maestoso - Stephen Kovacevich, BBC Symphony Orchestra, Colin Davis
2. 2. Largo - Stephen Kovacevich, BBC Symphony Orchestra, Colin Davis
3. 3. Allegro - Stephen Kovacevich, BBC Symphony Orchestra, Colin Davis
4. 1. Allegro - Stephen Kovacevich, BBC Symphony Orchestra, Colin Davis
5. 2. Adagio - Più adagio - Presto - Stephen Kovacevich, BBC Symphony Orchestra, Colin Davis
6. 3. Allegro molto - Stephen Kovacevich, BBC Symphony Orchestra, Colin Davis

Disc: 23
1. 1. Moderato - Stephen Kovacevich, London Symphony Orchestra, Alexander Gibson
2. 2. Presto - Stephen Kovacevich, London Symphony Orchestra, Alexander Gibson
3. 3. Lento - - Stephen Kovacevich, London Symphony Orchestra, Alexander Gibson
4. 4. Vivo - Stephen Kovacevich, London Symphony Orchestra, Alexander Gibson
5. Friday's Child - The London Jazz Ensemble, John Lanchbery
6. Saturday's Child - The London Jazz Ensemble, John Lanchbery
7. Sunday's Child - The London Jazz Ensemble, John Lanchbery
8. Monday's Child - The London Jazz Ensemble, John Lanchbery
9. Tuesday's Child - The London Jazz Ensemble, John Lanchbery
10. Wednesday's Child - The London Jazz Ensemble, John Lanchbery
11. Thursday's Child - The London Jazz Ensemble, John Lanchbery

Disc: 24
1. 1. Allegro moderato - Allegro - Stephen Kovacevich, London Symphony Orchestra, Colin Davis
2. 2. Andante - Stephen Kovacevich, London Symphony Orchestra, Colin Davis
3. 3. Allegro molto - Stephen Kovacevich, London Symphony Orchestra, Colin Davis
4. 1. Allegretto - Stephen Kovacevich, London Symphony Orchestra, Colin Davis
5. 2. Adagio religioso - Stephen Kovacevich, London Symphony Orchestra, Colin Davis
6. 3. Allegro vivace - Stephen Kovacevich, London Symphony Orchestra, Colin Davis

Disc: 25
1. Assai lento - Allegro molto - Martha Argerich, Stephen Kovacevich, Willy Goudswaard, Michael De Roo
2. Lento ma non troppo - Martha Argerich, Stephen Kovacevich, Willy Goudswaard, Michael De Roo
3. Allegro non troppo - Martha Argerich, Stephen Kovacevich, Willy Goudswaard, Michael De Roo
4. Thema (Andante) - Martha Argerich, Stephen Kovacevich
5. Variation 1 - Martha Argerich, Stephen Kovacevich
6. Variation 2 - Martha Argerich, Stephen Kovacevich
7. Variation 3 - Martha Argerich, Stephen Kovacevich
8. Variation 4 - Martha Argerich, Stephen Kovacevich
9. Variation 5 - Martha Argerich, Stephen Kovacevich
10. 1. Avec emportement - Martha Argerich, Stephen Kovacevich
11. 2. Lent. Sombre - Martha Argerich, Stephen Kovacevich
12. 3. Scherzando - Martha Argerich, Stephen Kovacevich



CD1
Exact Audio Copy V1.1 from 23. June 2015

EAC 抓取日志文件从24. 十二月 2015, 21:22

未知艺术家 / 未知标题

使用驱动器 :TSSTcorpCDDVDW SN-208FB Adapter: 1 ID: 0

读取模式 : 可靠Secure
使用精确流 : 是
清空音频缓存 : 是
使用 C2 指示器 : 否

组合读写偏移校正: : 0
读取 Lead-In 和 Lead-Out : 否
用静音填充抓取中丢失偏移的采样 : 是
去除首尾静音块 : 否
在CRC 计算中使用了空样本 : 是
已用接口 : Win NT 及 2000 本地 Win32 接口

所用输出模式: : 用户定义的编码器
已选比特率 : 768 kBit/s
质量 : 高
添加 ID3 标签 : 否
命令行压缩器 : C:\Users\admin\Desktop\exactaudiocopy\eac-1.1\FLAC\FLAC.EXE
附加命令行参数: : -6 -V -T "ARTIST=%artist%" -T "TITLE=%title%" -T "ALBUM=%albumtitle%" -T "DATE=%year%" -T "TRACKNUMBER=%tracknr%" -T "GENRE=%genre%" -T "COMMENT=%comment%" -T "BAND=%albuminterpret%" -T "ALBUMARTIST=%albuminterpret%" -T "COMPOSER=%composer%" %haslyrics%–tag-from-file=LYRICS="%lyricsfile%"%haslyrics% -T "DISCNUMBER=%cdnumber%" -T "TOTALDISCS=%totalcds%" -T "TOTALTRACKS=%numtracks%" %hascover%–picture="%coverfile%"%hascover% %source% -o %dest%


已抓取 CD 的 TOC

音轨 | 起始 | 长度 | 起始扇区 | 结束扇区
––––––––––––––––––––––
1 | 0:00.00 | 2:24.58 | 0 | 10857
2 | 2:24.58 | 0:41.14 | 10858 | 13946
3 | 3:05.72 | 1:25.45 | 13947 | 20366
4 | 4:31.42 | 0:55.15 | 20367 | 24506
5 | 5:26.57 | 0:53.46 | 24507 | 28527
6 | 6:20.28 | 1:54.11 | 28528 | 37088
7 | 8:14.39 | 1:05.63 | 37089 | 42026
8 | 9:20.27 | 1:36.70 | 42027 | 49296
9 | 10:57.22 | 1:49.69 | 49297 | 57540
10 | 12:47.16 | 0:37.37 | 57541 | 60352
11 | 13:24.53 | 1:08.33 | 60353 | 65485
12 | 14:33.11 | 0:56.67 | 65486 | 69752
13 | 15:30.03 | 1:05.72 | 69753 | 74699
14 | 16:36.00 | 5:16.40 | 74700 | 98439
15 | 21:52.40 | 0:35.11 | 98440 | 101075
16 | 22:27.51 | 1:02.52 | 101076 | 105777
17 | 23:30.28 | 1:02.29 | 105778 | 110456
18 | 24:32.57 | 1:28.35 | 110457 | 117091
19 | 26:01.17 | 0:49.17 | 117092 | 120783
20 | 26:50.34 | 2:06.41 | 120784 | 130274
21 | 28:57.00 | 1:06.46 | 130275 | 135270
22 | 30:03.46 | 0:45.63 | 135271 | 138708
23 | 30:49.34 | 0:51.18 | 138709 | 142551
24 | 31:40.52 | 3:14.38 | 142552 | 157139
25 | 34:55.15 | 0:47.04 | 157140 | 160668
26 | 35:42.19 | 1:13.62 | 160669 | 166205
27 | 36:56.06 | 0:56.61 | 166206 | 170466
28 | 37:52.67 | 0:52.10 | 170467 | 174376
29 | 38:45.02 | 1:27.72 | 174377 | 180973
30 | 40:12.74 | 2:06.21 | 180974 | 190444
31 | 42:19.20 | 5:05.15 | 190445 | 213334
32 | 47:24.35 | 2:50.73 | 213335 | 226157
33 | 50:15.33 | 4:09.29 | 226158 | 244861


范围状态及错误

已选择范围

文件名 C:\Users\admin\Desktop\Kovacevich\CD1\未知艺术家 - 未知标题.wav

峰值电平 98.3 %
抓取速度 3.6 X
范围质量 100.0 %
复制 CRC 6B4DE525
复制成功

没有错误发生

状态报告结尾

–– CUETools DB Plugin V2.1.6

[CTDB TOCID: w3wXi3tuAqhGXT3ExyotvaoJ_A0-] found
Submit result: w3wXi3tuAqhGXT3ExyotvaoJ_A0- has been confirmed
Track | CTDB Status
1 | (13/13) Accurately ripped
2 | (13/13) Accurately ripped
3 | (13/13) Accurately ripped
4 | (13/13) Accurately ripped
5 | (13/13) Accurately ripped
6 | (13/13) Accurately ripped
7 | (13/13) Accurately ripped
8 | (13/13) Accurately ripped
9 | (13/13) Accurately ripped
10 | (13/13) Accurately ripped
11 | (13/13) Accurately ripped
12 | (13/13) Accurately ripped
13 | (13/13) Accurately ripped
14 | (13/13) Accurately ripped
15 | (13/13) Accurately ripped
16 | (13/13) Accurately ripped
17 | (13/13) Accurately ripped
18 | (13/13) Accurately ripped
19 | (13/13) Accurately ripped
20 | (13/13) Accurately ripped
21 | (13/13) Accurately ripped
22 | (13/13) Accurately ripped
23 | (13/13) Accurately ripped
24 | (13/13) Accurately ripped
25 | (13/13) Accurately ripped
26 | (13/13) Accurately ripped
27 | (13/13) Accurately ripped
28 | (13/13) Accurately ripped
29 | (13/13) Accurately ripped
30 | (13/13) Accurately ripped
31 | (13/13) Accurately ripped
32 | (13/13) Accurately ripped
33 | (13/13) Accurately ripped


CD2
Exact Audio Copy V1.1 from 23. June 2015

EAC 抓取日志文件从24. 十二月 2015, 21:59

未知艺术家 / 未知标题

使用驱动器 :TSSTcorpCDDVDW SN-208FB Adapter: 1 ID: 0

读取模式 : 可靠Secure
使用精确流 : 是
清空音频缓存 : 是
使用 C2 指示器 : 否

组合读写偏移校正: : 0
读取 Lead-In 和 Lead-Out : 否
用静音填充抓取中丢失偏移的采样 : 是
去除首尾静音块 : 否
在CRC 计算中使用了空样本 : 是
已用接口 : Win NT 及 2000 本地 Win32 接口

所用输出模式: : 用户定义的编码器
已选比特率 : 768 kBit/s
质量 : 高
添加 ID3 标签 : 否
命令行压缩器 : C:\Users\admin\Desktop\exactaudiocopy\eac-1.1\FLAC\FLAC.EXE
附加命令行参数: : -6 -V -T "ARTIST=%artist%" -T "TITLE=%title%" -T "ALBUM=%albumtitle%" -T "DATE=%year%" -T "TRACKNUMBER=%tracknr%" -T "GENRE=%genre%" -T "COMMENT=%comment%" -T "BAND=%albuminterpret%" -T "ALBUMARTIST=%albuminterpret%" -T "COMPOSER=%composer%" %haslyrics%–tag-from-file=LYRICS="%lyricsfile%"%haslyrics% -T "DISCNUMBER=%cdnumber%" -T "TOTALDISCS=%totalcds%" -T "TOTALTRACKS=%numtracks%" %hascover%–picture="%coverfile%"%hascover% %source% -o %dest%


已抓取 CD 的 TOC

音轨 | 起始 | 长度 | 起始扇区 | 结束扇区
––––––––––––––––––––––
1 | 0:00.00 | 17:51.64 | 0 | 80388
2 | 17:51.64 | 10:27.57 | 80389 | 127470
3 | 28:19.46 | 8:54.54 | 127471 | 167574
4 | 37:14.25 | 5:20.19 | 167575 | 191593
5 | 42:34.44 | 8:22.50 | 191594 | 229293
6 | 50:57.19 | 4:28.64 | 229294 | 249457


范围状态及错误

已选择范围

文件名 C:\Users\admin\Desktop\Kovacevich\CD2\未知艺术家 - 未知标题.wav

峰值电平 93.8 %
抓取速度 1.6 X
范围质量 100.0 %
复制 CRC 25A65363
复制成功

没有错误发生

状态报告结尾

–– CUETools DB Plugin V2.1.6

[CTDB TOCID: MFwDmpA8.5uLJKmhYqxBdHqgsfg-] found
Submit result: MFwDmpA8.5uLJKmhYqxBdHqgsfg- has been confirmed
Track | CTDB Status
1 | (2/2) Accurately ripped
2 | (2/2) Accurately ripped
3 | (2/2) Accurately ripped
4 | (2/2) Accurately ripped
5 | (2/2) Accurately ripped
6 | (2/2) Accurately ripped



CD3
Exact Audio Copy V1.1 from 23. June 2015

EAC 抓取日志文件从25. 十二月 2015, 18:03

未知艺术家 / 未知标题

使用驱动器 :TSSTcorpCDDVDW SN-208FB Adapter: 1 ID: 0

读取模式 : 可靠Secure
使用精确流 : 是
清空音频缓存 : 是
使用 C2 指示器 : 否

组合读写偏移校正: : 0
读取 Lead-In 和 Lead-Out : 否
用静音填充抓取中丢失偏移的采样 : 是
去除首尾静音块 : 否
在CRC 计算中使用了空样本 : 是
已用接口 : Win NT 及 2000 本地 Win32 接口

所用输出模式: : 用户定义的编码器
已选比特率 : 768 kBit/s
质量 : 高
添加 ID3 标签 : 否
命令行压缩器 : C:\Users\admin\Desktop\exactaudiocopy\eac-1.1\FLAC\FLAC.EXE
附加命令行参数: : -6 -V -T "ARTIST=%artist%" -T "TITLE=%title%" -T "ALBUM=%albumtitle%" -T "DATE=%year%" -T "TRACKNUMBER=%tracknr%" -T "GENRE=%genre%" -T "COMMENT=%comment%" -T "BAND=%albuminterpret%" -T "ALBUMARTIST=%albuminterpret%" -T "COMPOSER=%composer%" %haslyrics%–tag-from-file=LYRICS="%lyricsfile%"%haslyrics% -T "DISCNUMBER=%cdnumber%" -T "TOTALDISCS=%totalcds%" -T "TOTALTRACKS=%numtracks%" %hascover%–picture="%coverfile%"%hascover% %source% -o %dest%


已抓取 CD 的 TOC

音轨 | 起始 | 长度 | 起始扇区 | 结束扇区
––––––––––––––––––––––
1 | 0:00.00 | 13:44.00 | 0 | 61799
2 | 13:44.00 | 10:26.00 | 61800 | 108749
3 | 24:10.00 | 5:59.00 | 108750 | 135674
4 | 30:09.00 | 18:34.00 | 135675 | 219224
5 | 48:43.00 | 5:30.00 | 219225 | 243974
6 | 54:13.00 | 9:05.00 | 243975 | 284849


范围状态及错误

已选择范围

文件名 C:\Users\admin\Desktop\Kovacevich\CD3\未知艺术家 - 未知标题.wav

峰值电平 99.6 %
抓取速度 4.0 X
范围质量 100.0 %
复制 CRC 26EC0F14
复制成功

没有错误发生

状态报告结尾

–– CUETools DB Plugin V2.1.6

[CTDB TOCID: ZcPkcOAyID2bd4EfZ8k5BHS5Z5k-] found
Submit result: ZcPkcOAyID2bd4EfZ8k5BHS5Z5k- has been confirmed
Track | CTDB Status
1 | (9/9) Accurately ripped
2 | (9/9) Accurately ripped
3 | (9/9) Accurately ripped
4 | (9/9) Accurately ripped
5 | (9/9) Accurately ripped
6 | (9/9) Accurately ripped



Exact Audio Copy V1.1 from 23. June 2015

EAC 抓取日志文件从25. 十二月 2015, 18:51

未知艺术家 / 未知标题

使用驱动器 :TSSTcorpCDDVDW SN-208FB Adapter: 1 ID: 0

读取模式 : 可靠Secure
使用精确流 : 是
清空音频缓存 : 是
使用 C2 指示器 : 否

组合读写偏移校正: : 0
读取 Lead-In 和 Lead-Out : 否
用静音填充抓取中丢失偏移的采样 : 是
去除首尾静音块 : 否
在CRC 计算中使用了空样本 : 是
已用接口 : Win NT 及 2000 本地 Win32 接口

所用输出模式: : 用户定义的编码器
已选比特率 : 768 kBit/s
质量 : 高
添加 ID3 标签 : 否
命令行压缩器 : C:\Users\admin\Desktop\exactaudiocopy\eac-1.1\FLAC\FLAC.EXE
附加命令行参数: : -6 -V -T "ARTIST=%artist%" -T "TITLE=%title%" -T "ALBUM=%albumtitle%" -T "DATE=%year%" -T "TRACKNUMBER=%tracknr%" -T "GENRE=%genre%" -T "COMMENT=%comment%" -T "BAND=%albuminterpret%" -T "ALBUMARTIST=%albuminterpret%" -T "COMPOSER=%composer%" %haslyrics%–tag-from-file=LYRICS="%lyricsfile%"%haslyrics% -T "DISCNUMBER=%cdnumber%" -T "TOTALDISCS=%totalcds%" -T "TOTALTRACKS=%numtracks%" %hascover%–picture="%coverfile%"%hascover% %source% -o %dest%


已抓取 CD 的 TOC

音轨 | 起始 | 长度 | 起始扇区 | 结束扇区
––––––––––––––––––––––
1 | 0:00.00 | 16:37.64 | 0 | 74838
2 | 16:37.64 | 10:49.73 | 74839 | 123586
3 | 27:27.62 | 9:05.29 | 123587 | 164490
4 | 36:33.16 | 9:00.10 | 164491 | 205000
5 | 45:33.26 | 6:20.62 | 205001 | 233562
6 | 51:54.13 | 4:08.39 | 233563 | 252201


范围状态及错误

已选择范围

文件名 C:\Users\admin\Desktop\Kovacevich\CD4\未知艺术家 - 未知标题.wav

峰值电平 96.3 %
抓取速度 1.6 X
范围质量 100.0 %
复制 CRC F2E706AB
复制成功

没有错误发生

状态报告结尾

–– CUETools DB Plugin V2.1.6

[CTDB TOCID: O7qUZoDPhkjDoMliM1SzGb.rD4I-] found
Submit result: O7qUZoDPhkjDoMliM1SzGb.rD4I- has been confirmed
Track | CTDB Status
1 | (2/2) Accurately ripped
2 | (2/2) Accurately ripped
3 | (2/2) Accurately ripped
4 | (2/2) Accurately ripped
5 | (2/2) Accurately ripped
6 | (2/2) Accurately ripped



Exact Audio Copy V1.1 from 23. June 2015

EAC 抓取日志文件从25. 十二月 2015, 19:22

未知艺术家 / 未知标题

使用驱动器 :TSSTcorpCDDVDW SN-208FB Adapter: 1 ID: 0

读取模式 : 可靠Secure
使用精确流 : 是
清空音频缓存 : 是
使用 C2 指示器 : 否

组合读写偏移校正: : 0
读取 Lead-In 和 Lead-Out : 否
用静音填充抓取中丢失偏移的采样 : 是
去除首尾静音块 : 否
在CRC 计算中使用了空样本 : 是
已用接口 : Win NT 及 2000 本地 Win32 接口

所用输出模式: : 用户定义的编码器
已选比特率 : 768 kBit/s
质量 : 高
添加 ID3 标签 : 否
命令行压缩器 : C:\Users\admin\Desktop\exactaudiocopy\eac-1.1\FLAC\FLAC.EXE
附加命令行参数: : -6 -V -T "ARTIST=%artist%" -T "TITLE=%title%" -T "ALBUM=%albumtitle%" -T "DATE=%year%" -T "TRACKNUMBER=%tracknr%" -T "GENRE=%genre%" -T "COMMENT=%comment%" -T "BAND=%albuminterpret%" -T "ALBUMARTIST=%albuminterpret%" -T "COMPOSER=%composer%" %haslyrics%–tag-from-file=LYRICS="%lyricsfile%"%haslyrics% -T "DISCNUMBER=%cdnumber%" -T "TOTALDISCS=%totalcds%" -T "TOTALTRACKS=%numtracks%" %hascover%–picture="%coverfile%"%hascover% %source% -o %dest%


已抓取 CD 的 TOC

音轨 | 起始 | 长度 | 起始扇区 | 结束扇区
––––––––––––––––––––––
1 | 0:00.00 | 20:36.04 | 0 | 92703
2 | 20:36.04 | 9:07.07 | 92704 | 133735
3 | 29:43.11 | 10:13.40 | 133736 | 179750


范围状态及错误

已选择范围

文件名 C:\Users\admin\Desktop\Kovacevich\CD5\未知艺术家 - 未知标题.wav

峰值电平 99.9 %
抓取速度 1.5 X
范围质量 100.0 %
复制 CRC 56135112
复制成功

没有错误发生

状态报告结尾

–– CUETools DB Plugin V2.1.6

[CTDB TOCID: menCyRlSMyfO7Kzkr9q9SNng3T4-] found
Submit result: menCyRlSMyfO7Kzkr9q9SNng3T4- has been confirmed
Track | CTDB Status
1 | (2/2) Accurately ripped
2 | (2/2) Accurately ripped
3 | (2/2) Accurately ripped



CD6
Exact Audio Copy V1.1 from 23. June 2015

EAC 抓取日志文件从25. 十二月 2015, 19:52

未知艺术家 / 未知标题

使用驱动器 :TSSTcorpCDDVDW SN-208FB Adapter: 1 ID: 0

读取模式 : 可靠Secure
使用精确流 : 是
清空音频缓存 : 是
使用 C2 指示器 : 否

组合读写偏移校正: : 0
读取 Lead-In 和 Lead-Out : 否
用静音填充抓取中丢失偏移的采样 : 是
去除首尾静音块 : 否
在CRC 计算中使用了空样本 : 是
已用接口 : Win NT 及 2000 本地 Win32 接口

所用输出模式: : 用户定义的编码器
已选比特率 : 768 kBit/s
质量 : 高
添加 ID3 标签 : 否
命令行压缩器 : C:\Users\admin\Desktop\exactaudiocopy\eac-1.1\FLAC\FLAC.EXE
附加命令行参数: : -6 -V -T "ARTIST=%artist%" -T "TITLE=%title%" -T "ALBUM=%albumtitle%" -T "DATE=%year%" -T "TRACKNUMBER=%tracknr%" -T "GENRE=%genre%" -T "COMMENT=%comment%" -T "BAND=%albuminterpret%" -T "ALBUMARTIST=%albuminterpret%" -T "COMPOSER=%composer%" %haslyrics%–tag-from-file=LYRICS="%lyricsfile%"%haslyrics% -T "DISCNUMBER=%cdnumber%" -T "TOTALDISCS=%totalcds%" -T "TOTALTRACKS=%numtracks%" %hascover%–picture="%coverfile%"%hascover% %source% -o %dest%


已抓取 CD 的 TOC

音轨 | 起始 | 长度 | 起始扇区 | 结束扇区
––––––––––––––––––––––
1 | 0:00.00 | 4:27.64 | 0 | 20088
2 | 4:27.64 | 5:33.74 | 20089 | 45137
3 | 10:01.63 | 3:13.67 | 45138 | 59679
4 | 13:15.55 | 7:22.36 | 59680 | 92865
5 | 20:38.16 | 3:52.57 | 92866 | 110322
6 | 24:30.73 | 2:16.34 | 110323 | 120556
7 | 26:47.32 | 13:20.74 | 120557 | 180630


范围状态及错误

已选择范围

文件名 C:\Users\admin\Desktop\Kovacevich\CD6\未知艺术家 - 未知标题.wav

峰值电平 92.8 %
抓取速度 1.5 X
范围质量 100.0 %
复制 CRC 925BFB1C
复制成功

没有错误发生

状态报告结尾

–– CUETools DB Plugin V2.1.6

[CTDB TOCID: E2rrgngHyh8YoXfZ.H0qgfGx4k0-] found
Submit result: E2rrgngHyh8YoXfZ.H0qgfGx4k0- has been confirmed
Track | CTDB Status
1 | (2/2) Accurately ripped
2 | (2/2) Accurately ripped
3 | (2/2) Accurately ripped
4 | (2/2) Accurately ripped
5 | (2/2) Accurately ripped
6 | (2/2) Accurately ripped
7 | (2/2) Accurately ripped



CD7
Exact Audio Copy V1.1 from 23. June 2015

EAC 抓取日志文件从26. 十二月 2015, 11:02

未知艺术家 / 未知标题

使用驱动器 :TSSTcorpCDDVDW SN-208FB Adapter: 1 ID: 0

读取模式 : 可靠Secure
使用精确流 : 是
清空音频缓存 : 是
使用 C2 指示器 : 否

组合读写偏移校正: : 0
读取 Lead-In 和 Lead-Out : 否
用静音填充抓取中丢失偏移的采样 : 是
去除首尾静音块 : 否
在CRC 计算中使用了空样本 : 是
已用接口 : Win NT 及 2000 本地 Win32 接口

所用输出模式: : 用户定义的编码器
已选比特率 : 768 kBit/s
质量 : 高
添加 ID3 标签 : 否
命令行压缩器 : C:\Users\admin\Desktop\exactaudiocopy\eac-1.1\FLAC\FLAC.EXE
附加命令行参数: : -6 -V -T "ARTIST=%artist%" -T "TITLE=%title%" -T "ALBUM=%albumtitle%" -T "DATE=%year%" -T "TRACKNUMBER=%tracknr%" -T "GENRE=%genre%" -T "COMMENT=%comment%" -T "BAND=%albuminterpret%" -T "ALBUMARTIST=%albuminterpret%" -T "COMPOSER=%composer%" %haslyrics%–tag-from-file=LYRICS="%lyricsfile%"%haslyrics% -T "DISCNUMBER=%cdnumber%" -T "TOTALDISCS=%totalcds%" -T "TOTALTRACKS=%numtracks%" %hascover%–picture="%coverfile%"%hascover% %source% -o %dest%


已抓取 CD 的 TOC

音轨 | 起始 | 长度 | 起始扇区 | 结束扇区
––––––––––––––––––––––
1 | 0:00.00 | 6:46.41 | 0 | 30490
2 | 6:46.41 | 1:49.51 | 30491 | 38716
3 | 8:36.17 | 11:37.50 | 38717 | 91041
4 | 20:13.67 | 9:30.20 | 91042 | 133811
5 | 29:44.12 | 17:29.19 | 133812 | 212505


范围状态及错误

已选择范围

文件名 C:\Users\admin\Desktop\Kovacevich\CD7\未知艺术家 - 未知标题.wav

峰值电平 95.5 %
抓取速度 3.4 X
范围质量 100.0 %
复制 CRC 52C9DF9A
复制成功

没有错误发生

状态报告结尾

–– CUETools DB Plugin V2.1.6

[CTDB TOCID: .ATDBJ1HBcEpCBORNrNcAkd1ujw-] found
Submit result: .ATDBJ1HBcEpCBORNrNcAkd1ujw- has been confirmed
Track | CTDB Status
1 | (2/2) Accurately ripped
2 | (2/2) Accurately ripped
3 | (2/2) Accurately ripped
4 | (2/2) Accurately ripped
5 | (2/2) Accurately ripped



CD8
Exact Audio Copy V1.1 from 23. June 2015

EAC 抓取日志文件从26. 十二月 2015, 11:32

未知艺术家 / 未知标题

使用驱动器 :TSSTcorpCDDVDW SN-208FB Adapter: 1 ID: 0

读取模式 : 可靠Secure
使用精确流 : 是
清空音频缓存 : 是
使用 C2 指示器 : 否

组合读写偏移校正: : 0
读取 Lead-In 和 Lead-Out : 否
用静音填充抓取中丢失偏移的采样 : 是
去除首尾静音块 : 否
在CRC 计算中使用了空样本 : 是
已用接口 : Win NT 及 2000 本地 Win32 接口

所用输出模式: : 用户定义的编码器
已选比特率 : 768 kBit/s
质量 : 高
添加 ID3 标签 : 否
命令行压缩器 : C:\Users\admin\Desktop\exactaudiocopy\eac-1.1\FLAC\FLAC.EXE
附加命令行参数: : -6 -V -T "ARTIST=%artist%" -T "TITLE=%title%" -T "ALBUM=%albumtitle%" -T "DATE=%year%" -T "TRACKNUMBER=%tracknr%" -T "GENRE=%genre%" -T "COMMENT=%comment%" -T "BAND=%albuminterpret%" -T "ALBUMARTIST=%albuminterpret%" -T "COMPOSER=%composer%" %haslyrics%–tag-from-file=LYRICS="%lyricsfile%"%haslyrics% -T "DISCNUMBER=%cdnumber%" -T "TOTALDISCS=%totalcds%" -T "TOTALTRACKS=%numtracks%" %hascover%–picture="%coverfile%"%hascover% %source% -o %dest%


已抓取 CD 的 TOC

音轨 | 起始 | 长度 | 起始扇区 | 结束扇区
––––––––––––––––––––––
1 | 0:00.00 | 8:40.00 | 0 | 38999
2 | 8:40.00 | 8:46.16 | 39000 | 78465
3 | 17:26.16 | 6:34.39 | 78466 | 108054
4 | 24:00.55 | 8:04.32 | 108055 | 144386
5 | 32:05.12 | 4:54.27 | 144387 | 166463
6 | 36:59.39 | 3:46.74 | 166464 | 183487
7 | 40:46.38 | 4:37.44 | 183488 | 204306


范围状态及错误

已选择范围

文件名 C:\Users\admin\Desktop\Kovacevich\CD8\未知艺术家 - 未知标题.wav

峰值电平 92.1 %
抓取速度 1.5 X
范围质量 100.0 %
复制 CRC 08E349CA
复制成功

没有错误发生

状态报告结尾

–– CUETools DB Plugin V2.1.6

[CTDB TOCID: zEvUMHhgQfN1KWAbghvrMgCClio-] found
Submit result: zEvUMHhgQfN1KWAbghvrMgCClio- has been confirmed
Track | CTDB Status
1 | (2/2) Accurately ripped
2 | (2/2) Accurately ripped
3 | (2/2) Accurately ripped
4 | (2/2) Accurately ripped
5 | (2/2) Accurately ripped
6 | (2/2) Accurately ripped
7 | (2/2) Accurately ripped



CD9
Exact Audio Copy V1.1 from 23. June 2015

EAC 抓取日志文件从26. 十二月 2015, 12:08

未知艺术家 / 未知标题

使用驱动器 :TSSTcorpCDDVDW SN-208FB Adapter: 1 ID: 0

读取模式 : 可靠Secure
使用精确流 : 是
清空音频缓存 : 是
使用 C2 指示器 : 否

组合读写偏移校正: : 0
读取 Lead-In 和 Lead-Out : 否
用静音填充抓取中丢失偏移的采样 : 是
去除首尾静音块 : 否
在CRC 计算中使用了空样本 : 是
已用接口 : Win NT 及 2000 本地 Win32 接口

所用输出模式: : 用户定义的编码器
已选比特率 : 768 kBit/s
质量 : 高
添加 ID3 标签 : 否
命令行压缩器 : C:\Users\admin\Desktop\exactaudiocopy\eac-1.1\FLAC\FLAC.EXE
附加命令行参数: : -6 -V -T "ARTIST=%artist%" -T "TITLE=%title%" -T "ALBUM=%albumtitle%" -T "DATE=%year%" -T "TRACKNUMBER=%tracknr%" -T "GENRE=%genre%" -T "COMMENT=%comment%" -T "BAND=%albuminterpret%" -T "ALBUMARTIST=%albuminterpret%" -T "COMPOSER=%composer%" %haslyrics%–tag-from-file=LYRICS="%lyricsfile%"%haslyrics% -T "DISCNUMBER=%cdnumber%" -T "TOTALDISCS=%totalcds%" -T "TOTALTRACKS=%numtracks%" %hascover%–picture="%coverfile%"%hascover% %source% -o %dest%


已抓取 CD 的 TOC

音轨 | 起始 | 长度 | 起始扇区 | 结束扇区
––––––––––––––––––––––
1 | 0:00.32 | 3:03.00 | 32 | 13756
2 | 3:03.32 | 2:29.00 | 13757 | 24931
3 | 5:32.32 | 2:00.00 | 24932 | 33931
4 | 7:32.32 | 2:29.00 | 33932 | 45106
5 | 10:01.32 | 2:58.00 | 45107 | 58456
6 | 12:59.32 | 2:14.00 | 58457 | 68506
7 | 15:13.32 | 1:52.00 | 68507 | 76906
8 | 17:05.32 | 2:29.00 | 76907 | 88081
9 | 19:34.32 | 0:48.00 | 88082 | 91681
10 | 20:22.32 | 1:19.00 | 91682 | 97606
11 | 21:41.32 | 1:27.00 | 97607 | 104131
12 | 23:08.32 | 1:07.00 | 104132 | 109156
13 | 24:15.32 | 1:34.00 | 109157 | 116206
14 | 25:49.32 | 0:53.00 | 116207 | 120181
15 | 26:42.32 | 1:41.00 | 120182 | 127756
16 | 28:23.32 | 0:47.00 | 127757 | 131281
17 | 29:10.32 | 0:11.00 | 131282 | 132106
18 | 29:21.32 | 1:46.00 | 132107 | 140056
19 | 31:07.32 | 3:28.00 | 140057 | 155656
20 | 34:35.32 | 2:34.00 | 155657 | 167206
21 | 37:09.32 | 2:40.00 | 167207 | 179206
22 | 39:49.32 | 3:34.00 | 179207 | 195256
23 | 43:23.32 | 2:54.00 | 195257 | 208306
24 | 46:17.32 | 4:13.00 | 208307 | 227281


范围状态及错误

已选择范围

文件名 C:\Users\admin\Desktop\Kovacevich\CD9\未知艺术家 - 未知标题.wav

峰值电平 98.9 %
抓取速度 1.5 X
范围质量 100.0 %
复制 CRC 3737FEEE
复制成功

没有错误发生

状态报告结尾

–– CUETools DB Plugin V2.1.6

[CTDB TOCID: b0vMBGyrmahs2Zh84acQINhvWew-] found
Submit result: b0vMBGyrmahs2Zh84acQINhvWew- has been confirmed
Track | CTDB Status
1 | (2/2) Accurately ripped
2 | (2/2) Accurately ripped
3 | (2/2) Accurately ripped
4 | (2/2) Accurately ripped
5 | (2/2) Accurately ripped
6 | (2/2) Accurately ripped
7 | (2/2) Accurately ripped
8 | (2/2) Accurately ripped
9 | (2/2) Accurately ripped
10 | (2/2) Accurately ripped
11 | (2/2) Accurately ripped
12 | (2/2) Accurately ripped
13 | (2/2) Accurately ripped
14 | (2/2) Accurately ripped
15 | (2/2) Accurately ripped
16 | (2/2) Accurately ripped
17 | (2/2) Accurately ripped
18 | (2/2) Accurately ripped
19 | (2/2) Accurately ripped
20 | (2/2) Accurately ripped
21 | (2/2) Accurately ripped
22 | (2/2) Accurately ripped
23 | (2/2) Accurately ripped
24 | (2/2) Accurately ripped



CD10
Exact Audio Copy V1.1 from 23. June 2015

EAC 抓取日志文件从26. 十二月 2015, 12:45

未知艺术家 / 未知标题

使用驱动器 :TSSTcorpCDDVDW SN-208FB Adapter: 1 ID: 0

读取模式 : 可靠Secure
使用精确流 : 是
清空音频缓存 : 是
使用 C2 指示器 : 否

组合读写偏移校正: : 0
读取 Lead-In 和 Lead-Out : 否
用静音填充抓取中丢失偏移的采样 : 是
去除首尾静音块 : 否
在CRC 计算中使用了空样本 : 是
已用接口 : Win NT 及 2000 本地 Win32 接口

所用输出模式: : 用户定义的编码器
已选比特率 : 768 kBit/s
质量 : 高
添加 ID3 标签 : 否
命令行压缩器 : C:\Users\admin\Desktop\exactaudiocopy\eac-1.1\FLAC\FLAC.EXE
附加命令行参数: : -6 -V -T "ARTIST=%artist%" -T "TITLE=%title%" -T "ALBUM=%albumtitle%" -T "DATE=%year%" -T "TRACKNUMBER=%tracknr%" -T "GENRE=%genre%" -T "COMMENT=%comment%" -T "BAND=%albuminterpret%" -T "ALBUMARTIST=%albuminterpret%" -T "COMPOSER=%composer%" %haslyrics%–tag-from-file=LYRICS="%lyricsfile%"%haslyrics% -T "DISCNUMBER=%cdnumber%" -T "TOTALDISCS=%totalcds%" -T "TOTALTRACKS=%numtracks%" %hascover%–picture="%coverfile%"%hascover% %source% -o %dest%


已抓取 CD 的 TOC

音轨 | 起始 | 长度 | 起始扇区 | 结束扇区
––––––––––––––––––––––
1 | 0:00.00 | 13:46.38 | 0 | 61987
2 | 13:46.38 | 4:59.23 | 61988 | 84435
3 | 18:45.61 | 2:01.69 | 84436 | 93579
4 | 20:47.55 | 2:28.26 | 93580 | 104705
5 | 23:16.06 | 2:17.32 | 104706 | 115012
6 | 25:33.38 | 8:53.69 | 115013 | 155056
7 | 34:27.32 | 8:26.41 | 155057 | 193047
8 | 42:53.73 | 6:35.09 | 193048 | 222681


范围状态及错误

已选择范围

文件名 C:\Users\admin\Desktop\Kovacevich\CD10\未知艺术家 - 未知标题.wav

峰值电平 99.1 %
抓取速度 1.5 X
范围质量 99.9 %
复制 CRC 87096E6F
复制成功

没有错误发生

状态报告结尾

–– CUETools DB Plugin V2.1.6

[CTDB TOCID: SNs8RzRo81BaX5Yo0fDLiY3npE8-] found
Submit result: SNs8RzRo81BaX5Yo0fDLiY3npE8- has been confirmed
Track | CTDB Status
1 | (2/2) Accurately ripped
2 | (2/2) Accurately ripped
3 | (2/2) Accurately ripped
4 | (2/2) Accurately ripped
5 | (2/2) Accurately ripped
6 | (2/2) Accurately ripped
7 | (2/2) Accurately ripped
8 | (2/2) Accurately ripped



CD11
Exact Audio Copy V1.1 from 23. June 2015

EAC 抓取日志文件从26. 十二月 2015, 13:30

未知艺术家 / 未知标题

使用驱动器 :TSSTcorpCDDVDW SN-208FB Adapter: 1 ID: 0

读取模式 : 可靠Secure
使用精确流 : 是
清空音频缓存 : 是
使用 C2 指示器 : 否

组合读写偏移校正: : 0
读取 Lead-In 和 Lead-Out : 否
用静音填充抓取中丢失偏移的采样 : 是
去除首尾静音块 : 否
在CRC 计算中使用了空样本 : 是
已用接口 : Win NT 及 2000 本地 Win32 接口

所用输出模式: : 用户定义的编码器
已选比特率 : 768 kBit/s
质量 : 高
添加 ID3 标签 : 否
命令行压缩器 : C:\Users\admin\Desktop\exactaudiocopy\eac-1.1\FLAC\FLAC.EXE
附加命令行参数: : -6 -V -T "ARTIST=%artist%" -T "TITLE=%title%" -T "ALBUM=%albumtitle%" -T "DATE=%year%" -T "TRACKNUMBER=%tracknr%" -T "GENRE=%genre%" -T "COMMENT=%comment%" -T "BAND=%albuminterpret%" -T "ALBUMARTIST=%albuminterpret%" -T "COMPOSER=%composer%" %haslyrics%–tag-from-file=LYRICS="%lyricsfile%"%haslyrics% -T "DISCNUMBER=%cdnumber%" -T "TOTALDISCS=%totalcds%" -T "TOTALTRACKS=%numtracks%" %hascover%–picture="%coverfile%"%hascover% %source% -o %dest%


已抓取 CD 的 TOC

音轨 | 起始 | 长度 | 起始扇区 | 结束扇区
––––––––––––––––––––––
1 | 0:00.00 | 9:24.67 | 0 | 42366
2 | 9:24.67 | 10:53.70 | 42367 | 91411
3 | 20:18.62 | 3:56.52 | 91412 | 109163
4 | 24:15.39 | 7:08.06 | 109164 | 141269
5 | 31:23.45 | 8:37.69 | 141270 | 180113
6 | 40:01.39 | 5:07.71 | 180114 | 203209
7 | 45:09.35 | 9:17.44 | 203210 | 245028
8 | 54:27.04 | 8:06.35 | 245029 | 281513
9 | 62:33.39 | 6:20.37 | 281514 | 310050
10 | 68:54.01 | 5:50.13 | 310051 | 336313
11 | 74:44.14 | 8:25.13 | 336314 | 374201


范围状态及错误

已选择范围

文件名 C:\Users\admin\Desktop\Kovacevich\CD11\未知艺术家 - 未知标题.wav

峰值电平 99.0 %
抓取速度 2.0 X
范围质量 100.0 %
复制 CRC C099F2F3
复制成功

没有错误发生

状态报告结尾

–– CUETools DB Plugin V2.1.6

[CTDB TOCID: TmLCzoi0APxb6rwKTnzZnOYPnKI-] found
Submit result: TmLCzoi0APxb6rwKTnzZnOYPnKI- has been confirmed
Track | CTDB Status
1 | (2/2) Accurately ripped
2 | (2/2) Accurately ripped
3 | (2/2) Accurately ripped
4 | (2/2) Accurately ripped
5 | (2/2) Accurately ripped
6 | (2/2) Accurately ripped
7 | (2/2) Accurately ripped
8 | (2/2) Accurately ripped
9 | (2/2) Accurately ripped
10 | (2/2) Accurately ripped
11 | (2/2) Accurately ripped



CD13
Exact Audio Copy V1.1 from 23. June 2015

EAC 抓取日志文件从26. 十二月 2015, 17:24

未知艺术家 / 未知标题

使用驱动器 :TSSTcorpCDDVDW SN-208FB Adapter: 1 ID: 0

读取模式 : 可靠Secure
使用精确流 : 是
清空音频缓存 : 是
使用 C2 指示器 : 否

组合读写偏移校正: : 0
读取 Lead-In 和 Lead-Out : 否
用静音填充抓取中丢失偏移的采样 : 是
去除首尾静音块 : 否
在CRC 计算中使用了空样本 : 是
已用接口 : Win NT 及 2000 本地 Win32 接口

所用输出模式: : 用户定义的编码器
已选比特率 : 768 kBit/s
质量 : 高
添加 ID3 标签 : 否
命令行压缩器 : C:\Users\admin\Desktop\exactaudiocopy\eac-1.1\FLAC\FLAC.EXE
附加命令行参数: : -6 -V -T "ARTIST=%artist%" -T "TITLE=%title%" -T "ALBUM=%albumtitle%" -T "DATE=%year%" -T "TRACKNUMBER=%tracknr%" -T "GENRE=%genre%" -T "COMMENT=%comment%" -T "BAND=%albuminterpret%" -T "ALBUMARTIST=%albuminterpret%" -T "COMPOSER=%composer%" %haslyrics%–tag-from-file=LYRICS="%lyricsfile%"%haslyrics% -T "DISCNUMBER=%cdnumber%" -T "TOTALDISCS=%totalcds%" -T "TOTALTRACKS=%numtracks%" %hascover%–picture="%coverfile%"%hascover% %source% -o %dest%


已抓取 CD 的 TOC

音轨 | 起始 | 长度 | 起始扇区 | 结束扇区
––––––––––––––––––––––
1 | 0:00.00 | 18:01.43 | 0 | 81117
2 | 18:01.43 | 8:37.52 | 81118 | 119944
3 | 26:39.20 | 14:35.04 | 119945 | 185573
4 | 41:14.24 | 9:15.62 | 185574 | 227260


范围状态及错误

已选择范围

文件名 C:\Users\admin\Desktop\Kovacevich\CD13\未知艺术家 - 未知标题.wav

峰值电平 86.0 %
抓取速度 3.5 X
范围质量 99.9 %
复制 CRC CB989B5E
复制成功

没有错误发生

状态报告结尾

–– CUETools DB Plugin V2.1.6

[CTDB TOCID: RN.ubh4g3In6d1PM26ye0b0wAIU-] found
Submit result: RN.ubh4g3In6d1PM26ye0b0wAIU- has been confirmed
Track | CTDB Status
1 | (2/2) Accurately ripped
2 | (2/2) Accurately ripped
3 | (2/2) Accurately ripped
4 | (2/2) Accurately ripped



CD14
Exact Audio Copy V1.1 from 23. June 2015

EAC 抓取日志文件从26. 十二月 2015, 17:57

未知艺术家 / 未知标题

使用驱动器 :TSSTcorpCDDVDW SN-208FB Adapter: 1 ID: 0

读取模式 : 可靠Secure
使用精确流 : 是
清空音频缓存 : 是
使用 C2 指示器 : 否

组合读写偏移校正: : 0
读取 Lead-In 和 Lead-Out : 否
用静音填充抓取中丢失偏移的采样 : 是
去除首尾静音块 : 否
在CRC 计算中使用了空样本 : 是
已用接口 : Win NT 及 2000 本地 Win32 接口

所用输出模式: : 用户定义的编码器
已选比特率 : 768 kBit/s
质量 : 高
添加 ID3 标签 : 否
命令行压缩器 : C:\Users\admin\Desktop\exactaudiocopy\eac-1.1\FLAC\FLAC.EXE
附加命令行参数: : -6 -V -T "ARTIST=%artist%" -T "TITLE=%title%" -T "ALBUM=%albumtitle%" -T "DATE=%year%" -T "TRACKNUMBER=%tracknr%" -T "GENRE=%genre%" -T "COMMENT=%comment%" -T "BAND=%albuminterpret%" -T "ALBUMARTIST=%albuminterpret%" -T "COMPOSER=%composer%" %haslyrics%–tag-from-file=LYRICS="%lyricsfile%"%haslyrics% -T "DISCNUMBER=%cdnumber%" -T "TOTALDISCS=%totalcds%" -T "TOTALTRACKS=%numtracks%" %hascover%–picture="%coverfile%"%hascover% %source% -o %dest%


已抓取 CD 的 TOC

音轨 | 起始 | 长度 | 起始扇区 | 结束扇区
––––––––––––––––––––––
1 | 0:00.33 | 8:53.00 | 33 | 40007
2 | 8:53.33 | 3:55.00 | 40008 | 57632
3 | 12:48.33 | 5:14.00 | 57633 | 81182
4 | 18:02.33 | 3:47.00 | 81183 | 98207
5 | 21:49.33 | 6:07.00 | 98208 | 125732
6 | 27:56.33 | 2:35.07 | 125733 | 137364
7 | 30:31.40 | 3:00.68 | 137365 | 150932
8 | 33:32.33 | 2:25.00 | 150933 | 161807
9 | 35:57.33 | 2:19.00 | 161808 | 172232
10 | 38:16.33 | 2:56.00 | 172233 | 185432
11 | 41:12.33 | 2:54.00 | 185433 | 198482
12 | 44:06.33 | 2:34.00 | 198483 | 210032
13 | 46:40.33 | 2:53.00 | 210033 | 223007


范围状态及错误

已选择范围

文件名 C:\Users\admin\Desktop\Kovacevich\CD14\未知艺术家 - 未知标题.wav

峰值电平 94.3 %
抓取速度 1.5 X
范围质量 100.0 %
复制 CRC 908BE99D
复制成功

没有错误发生

状态报告结尾

–– CUETools DB Plugin V2.1.6

[CTDB TOCID: H_m_PWTlyK9Jz87Qc8WMepLfG60-] found
Submit result: H_m_PWTlyK9Jz87Qc8WMepLfG60- has been confirmed
Track | CTDB Status
1 | (7/7) Accurately ripped
2 | (7/7) Accurately ripped
3 | (7/7) Accurately ripped
4 | (7/7) Accurately ripped
5 | (7/7) Accurately ripped
6 | (7/7) Accurately ripped
7 | (7/7) Accurately ripped
8 | (7/7) Accurately ripped
9 | (7/7) Accurately ripped
10 | (7/7) Accurately ripped
11 | (7/7) Accurately ripped
12 | (7/7) Accurately ripped
13 | (7/7) Accurately ripped



CD15
Exact Audio Copy V1.1 from 23. June 2015

EAC 抓取日志文件从26. 十二月 2015, 18:40

未知艺术家 / 未知标题

使用驱动器 :TSSTcorpCDDVDW SN-208FB Adapter: 1 ID: 0

读取模式 : 可靠Secure
使用精确流 : 是
清空音频缓存 : 是
使用 C2 指示器 : 否

组合读写偏移校正: : 0
读取 Lead-In 和 Lead-Out : 否
用静音填充抓取中丢失偏移的采样 : 是
去除首尾静音块 : 否
在CRC 计算中使用了空样本 : 是
已用接口 : Win NT 及 2000 本地 Win32 接口

所用输出模式: : 用户定义的编码器
已选比特率 : 768 kBit/s
质量 : 高
添加 ID3 标签 : 否
命令行压缩器 : C:\Users\admin\Desktop\exactaudiocopy\eac-1.1\FLAC\FLAC.EXE
附加命令行参数: : -6 -V -T "ARTIST=%artist%" -T "TITLE=%title%" -T "ALBUM=%albumtitle%" -T "DATE=%year%" -T "TRACKNUMBER=%tracknr%" -T "GENRE=%genre%" -T "COMMENT=%comment%" -T "BAND=%albuminterpret%" -T "ALBUMARTIST=%albuminterpret%" -T "COMPOSER=%composer%" %haslyrics%–tag-from-file=LYRICS="%lyricsfile%"%haslyrics% -T "DISCNUMBER=%cdnumber%" -T "TOTALDISCS=%totalcds%" -T "TOTALTRACKS=%numtracks%" %hascover%–picture="%coverfile%"%hascover% %source% -o %dest%


已抓取 CD 的 TOC

音轨 | 起始 | 长度 | 起始扇区 | 结束扇区
––––––––––––––––––––––
1 | 0:00.33 | 1:54.00 | 33 | 8582
2 | 1:54.33 | 3:24.42 | 8583 | 23924
3 | 5:19.00 | 2:43.33 | 23925 | 36182
4 | 8:02.33 | 3:53.00 | 36183 | 53657
5 | 11:55.33 | 2:31.00 | 53658 | 64982
6 | 14:26.33 | 3:13.00 | 64983 | 79457
7 | 17:39.33 | 2:20.00 | 79458 | 89957
8 | 19:59.33 | 4:49.00 | 89958 | 111632
9 | 24:48.33 | 4:48.00 | 111633 | 133232
10 | 29:36.33 | 5:37.00 | 133233 | 158507
11 | 35:13.33 | 4:06.37 | 158508 | 176994
12 | 39:19.70 | 5:34.00 | 176995 | 202044
13 | 44:53.70 | 1:30.00 | 202045 | 208794
14 | 46:23.70 | 4:55.38 | 208795 | 230957


范围状态及错误

已选择范围

文件名 C:\Users\admin\Desktop\Kovacevich\CD15\未知艺术家 - 未知标题.wav

峰值电平 99.2 %
抓取速度 1.6 X
范围质量 100.0 %
复制 CRC 4CC9EDC9
复制成功

没有错误发生

状态报告结尾

–– CUETools DB Plugin V2.1.6

[CTDB TOCID: RwjM0UBkOqrZSlR0CHxNe0l_450-] found
Submit result: RwjM0UBkOqrZSlR0CHxNe0l_450- has been confirmed
Track | CTDB Status
1 | (10/10) Accurately ripped
2 | (10/10) Accurately ripped
3 | (10/10) Accurately ripped
4 | (10/10) Accurately ripped
5 | (10/10) Accurately ripped
6 | (10/10) Accurately ripped
7 | (10/10) Accurately ripped
8 | (10/10) Accurately ripped
9 | (10/10) Accurately ripped
10 | (10/10) Accurately ripped
11 | (10/10) Accurately ripped
12 | (10/10) Accurately ripped
13 | (10/10) Accurately ripped
14 | (10/10) Accurately ripped



CD16
Exact Audio Copy V1.1 from 23. June 2015

EAC 抓取日志文件从26. 十二月 2015, 19:27

未知艺术家 / 未知标题

使用驱动器 :TSSTcorpCDDVDW SN-208FB Adapter: 1 ID: 0

读取模式 : 可靠Secure
使用精确流 : 是
清空音频缓存 : 是
使用 C2 指示器 : 否

组合读写偏移校正: : 0
读取 Lead-In 和 Lead-Out : 否
用静音填充抓取中丢失偏移的采样 : 是
去除首尾静音块 : 否
在CRC 计算中使用了空样本 : 是
已用接口 : Win NT 及 2000 本地 Win32 接口

所用输出模式: : 用户定义的编码器
已选比特率 : 768 kBit/s
质量 : 高
添加 ID3 标签 : 否
命令行压缩器 : C:\Users\admin\Desktop\exactaudiocopy\eac-1.1\FLAC\FLAC.EXE
附加命令行参数: : -6 -V -T "ARTIST=%artist%" -T "TITLE=%title%" -T "ALBUM=%albumtitle%" -T "DATE=%year%" -T "TRACKNUMBER=%tracknr%" -T "GENRE=%genre%" -T "COMMENT=%comment%" -T "BAND=%albuminterpret%" -T "ALBUMARTIST=%albuminterpret%" -T "COMPOSER=%composer%" %haslyrics%–tag-from-file=LYRICS="%lyricsfile%"%haslyrics% -T "DISCNUMBER=%cdnumber%" -T "TOTALDISCS=%totalcds%" -T "TOTALTRACKS=%numtracks%" %hascover%–picture="%coverfile%"%hascover% %source% -o %dest%


已抓取 CD 的 TOC

音轨 | 起始 | 长度 | 起始扇区 | 结束扇区
––––––––––––––––––––––
1 | 0:00.00 | 0:58.55 | 0 | 4404
2 | 0:58.55 | 0:49.28 | 4405 | 8107
3 | 1:48.08 | 0:37.33 | 8108 | 10915
4 | 2:25.41 | 0:36.30 | 10916 | 13645
5 | 3:01.71 | 0:47.02 | 13646 | 17172
6 | 3:48.73 | 1:12.56 | 17173 | 22628
7 | 5:01.54 | 1:02.29 | 22629 | 27307
8 | 6:04.08 | 0:35.39 | 27308 | 29971
9 | 6:39.47 | 0:35.43 | 29972 | 32639
10 | 7:15.15 | 1:16.20 | 32640 | 38359
11 | 8:31.35 | 0:33.46 | 38360 | 40880
12 | 9:05.06 | 0:55.49 | 40881 | 45054
13 | 10:00.55 | 0:51.28 | 45055 | 48907
14 | 10:52.08 | 1:24.06 | 48908 | 55213
15 | 12:16.14 | 0:38.28 | 55214 | 58091
16 | 12:54.42 | 0:39.29 | 58092 | 61045
17 | 13:33.71 | 0:29.53 | 61046 | 63273
18 | 14:03.49 | 0:25.67 | 63274 | 65215
19 | 14:29.41 | 1:05.29 | 65216 | 70119
20 | 15:34.70 | 1:01.32 | 70120 | 74726
21 | 16:36.27 | 1:19.45 | 74727 | 80696
22 | 17:55.72 | 0:49.44 | 80697 | 84415
23 | 18:45.41 | 0:58.23 | 84416 | 88788
24 | 19:43.64 | 0:34.51 | 88789 | 91389
25 | 20:18.40 | 0:35.74 | 91390 | 94088
26 | 20:54.39 | 0:41.27 | 94089 | 97190
27 | 21:35.66 | 4:53.14 | 97191 | 119179
28 | 26:29.05 | 3:50.47 | 119180 | 136476
29 | 30:19.52 | 5:36.63 | 136477 | 161739
30 | 35:56.40 | 1:26.17 | 161740 | 168206
31 | 37:22.57 | 4:38.56 | 168207 | 189112
32 | 42:01.38 | 4:49.56 | 189113 | 210843
33 | 46:51.19 | 5:12.40 | 210844 | 234283
34 | 52:03.59 | 5:47.37 | 234284 | 260345


范围状态及错误

已选择范围

文件名 C:\Users\admin\Desktop\Kovacevich\CD16\未知艺术家 - 未知标题.wav

峰值电平 97.4 %
抓取速度 1.6 X
范围质量 100.0 %
复制 CRC 2DB83225
复制成功

没有错误发生

状态报告结尾

–– CUETools DB Plugin V2.1.6

[CTDB TOCID: LZ13gpKxTYX4zl7tfwCPmpXSMB8-] found
Submit result: LZ13gpKxTYX4zl7tfwCPmpXSMB8- has been confirmed
Track | CTDB Status
1 | (3/3) Accurately ripped
2 | (3/3) Accurately ripped
3 | (3/3) Accurately ripped
4 | (3/3) Accurately ripped
5 | (3/3) Accurately ripped
6 | (3/3) Accurately ripped
7 | (3/3) Accurately ripped
8 | (3/3) Accurately ripped
9 | (3/3) Accurately ripped
10 | (3/3) Accurately ripped
11 | (3/3) Accurately ripped
12 | (3/3) Accurately ripped
13 | (3/3) Accurately ripped
14 | (3/3) Accurately ripped
15 | (3/3) Accurately ripped
16 | (3/3) Accurately ripped
17 | (3/3) Accurately ripped
18 | (3/3) Accurately ripped
19 | (3/3) Accurately ripped
20 | (3/3) Accurately ripped
21 | (3/3) Accurately ripped
22 | (3/3) Accurately ripped
23 | (3/3) Accurately ripped
24 | (3/3) Accurately ripped
25 | (3/3) Accurately ripped
26 | (3/3) Accurately ripped
27 | (3/3) Accurately ripped
28 | (3/3) Accurately ripped
29 | (3/3) Accurately ripped
30 | (3/3) Accurately ripped
31 | (3/3) Accurately ripped
32 | (3/3) Accurately ripped
33 | (3/3) Accurately ripped
34 | (3/3) Accurately ripped



CD17
Exact Audio Copy V1.1 from 23. June 2015

EAC 抓取日志文件从26. 十二月 2015, 20:11

未知艺术家 / 未知标题

使用驱动器 :TSSTcorpCDDVDW SN-208FB Adapter: 1 ID: 0

读取模式 : 可靠Secure
使用精确流 : 是
清空音频缓存 : 是
使用 C2 指示器 : 否

组合读写偏移校正: : 0
读取 Lead-In 和 Lead-Out : 否
用静音填充抓取中丢失偏移的采样 : 是
去除首尾静音块 : 否
在CRC 计算中使用了空样本 : 是
已用接口 : Win NT 及 2000 本地 Win32 接口

所用输出模式: : 用户定义的编码器
已选比特率 : 768 kBit/s
质量 : 高
添加 ID3 标签 : 否
命令行压缩器 : C:\Users\admin\Desktop\exactaudiocopy\eac-1.1\FLAC\FLAC.EXE
附加命令行参数: : -6 -V -T "ARTIST=%artist%" -T "TITLE=%title%" -T "ALBUM=%albumtitle%" -T "DATE=%year%" -T "TRACKNUMBER=%tracknr%" -T "GENRE=%genre%" -T "COMMENT=%comment%" -T "BAND=%albuminterpret%" -T "ALBUMARTIST=%albuminterpret%" -T "COMPOSER=%composer%" %haslyrics%–tag-from-file=LYRICS="%lyricsfile%"%haslyrics% -T "DISCNUMBER=%cdnumber%" -T "TOTALDISCS=%totalcds%" -T "TOTALTRACKS=%numtracks%" %hascover%–picture="%coverfile%"%hascover% %source% -o %dest%


已抓取 CD 的 TOC

音轨 | 起始 | 长度 | 起始扇区 | 结束扇区
––––––––––––––––––––––
1 | 0:00.33 | 9:01.00 | 33 | 40607
2 | 9:01.33 | 5:46.00 | 40608 | 66557
3 | 14:47.33 | 0:42.35 | 66558 | 69742
4 | 15:29.68 | 1:13.40 | 69743 | 75257
5 | 16:43.33 | 0:42.40 | 75258 | 78447
6 | 17:25.73 | 0:58.35 | 78448 | 82832
7 | 18:24.33 | 1:02.00 | 82833 | 87482
8 | 19:26.33 | 0:53.00 | 87483 | 91457
9 | 20:19.33 | 1:34.32 | 91458 | 98539
10 | 21:53.65 | 1:00.43 | 98540 | 103082
11 | 22:54.33 | 1:16.17 | 103083 | 108799
12 | 24:10.50 | 0:35.65 | 108800 | 111489
13 | 24:46.40 | 1:19.68 | 111490 | 117482
14 | 26:06.33 | 1:29.35 | 117483 | 124192
15 | 27:35.68 | 0:33.65 | 124193 | 126732
16 | 28:09.58 | 1:12.15 | 126733 | 132147
17 | 29:21.73 | 1:26.35 | 132148 | 138632
18 | 30:48.33 | 1:19.00 | 138633 | 144557
19 | 32:07.33 | 1:42.00 | 144558 | 152207
20 | 33:49.33 | 5:05.00 | 152208 | 175082
21 | 38:54.33 | 3:09.00 | 175083 | 189257
22 | 42:03.33 | 2:40.00 | 189258 | 201257
23 | 44:43.33 | 2:58.00 | 201258 | 214607
24 | 47:41.33 | 5:34.00 | 214608 | 239657


范围状态及错误

已选择范围

文件名 C:\Users\admin\Desktop\Kovacevich\CD17\未知艺术家 - 未知标题.wav

峰值电平 96.4 %
抓取速度 1.6 X
范围质量 100.0 %
复制 CRC 48910861
复制成功

没有错误发生

状态报告结尾

–– CUETools DB Plugin V2.1.6

[CTDB TOCID: HGJiy.pTSymAS2qTAW1yWc25hnQ-] found
Submit result: HGJiy.pTSymAS2qTAW1yWc25hnQ- has been confirmed
Track | CTDB Status
1 | (10/10) Accurately ripped
2 | (10/10) Accurately ripped
3 | (10/10) Accurately ripped
4 | (10/10) Accurately ripped
5 | (10/10) Accurately ripped
6 | (10/10) Accurately ripped
7 | (10/10) Accurately ripped
8 | (10/10) Accurately ripped
9 | (10/10) Accurately ripped
10 | (10/10) Accurately ripped
11 | (10/10) Accurately ripped
12 | (10/10) Accurately ripped
13 | (10/10) Accurately ripped
14 | (10/10) Accurately ripped
15 | (10/10) Accurately ripped
16 | (10/10) Accurately ripped
17 | (10/10) Accurately ripped
18 | (10/10) Accurately ripped
19 | (10/10) Accurately ripped
20 | (10/10) Accurately ripped
21 | (10/10) Accurately ripped
22 | (10/10) Accurately ripped
23 | (10/10) Accurately ripped
24 | (10/10) Accurately ripped


CD18
Exact Audio Copy V1.1 from 23. June 2015

EAC 抓取日志文件从27. 十二月 2015, 9:51

未知艺术家 / 未知标题

使用驱动器 :TSSTcorpCDDVDW SN-208FB Adapter: 1 ID: 0

读取模式 : 可靠Secure
使用精确流 : 是
清空音频缓存 : 是
使用 C2 指示器 : 否

组合读写偏移校正: : 0
读取 Lead-In 和 Lead-Out : 否
用静音填充抓取中丢失偏移的采样 : 是
去除首尾静音块 : 否
在CRC 计算中使用了空样本 : 是
已用接口 : Win NT 及 2000 本地 Win32 接口

所用输出模式: : 用户定义的编码器
已选比特率 : 768 kBit/s
质量 : 高
添加 ID3 标签 : 否
命令行压缩器 : C:\Users\admin\Desktop\exactaudiocopy\eac-1.1\FLAC\FLAC.EXE
附加命令行参数: : -6 -V -T "ARTIST=%artist%" -T "TITLE=%title%" -T "ALBUM=%albumtitle%" -T "DATE=%year%" -T "TRACKNUMBER=%tracknr%" -T "GENRE=%genre%" -T "COMMENT=%comment%" -T "BAND=%albuminterpret%" -T "ALBUMARTIST=%albuminterpret%" -T "COMPOSER=%composer%" %haslyrics%–tag-from-file=LYRICS="%lyricsfile%"%haslyrics% -T "DISCNUMBER=%cdnumber%" -T "TOTALDISCS=%totalcds%" -T "TOTALTRACKS=%numtracks%" %hascover%–picture="%coverfile%"%hascover% %source% -o %dest%


已抓取 CD 的 TOC

音轨 | 起始 | 长度 | 起始扇区 | 结束扇区
––––––––––––––––––––––
1 | 0:00.33 | 13:35.00 | 33 | 61157
2 | 13:35.33 | 7:45.00 | 61158 | 96032
3 | 21:20.33 | 6:35.00 | 96033 | 125657
4 | 27:55.33 | 14:56.00 | 125658 | 192857
5 | 42:51.33 | 7:18.00 | 192858 | 225707
6 | 50:09.33 | 9:11.00 | 225708 | 267032


范围状态及错误

已选择范围

文件名 C:\Users\admin\Desktop\Kovacevich\CD18\未知艺术家 - 未知标题.wav

峰值电平 93.6 %
抓取速度 3.6 X
范围质量 100.0 %
复制 CRC 28DB2A99
复制成功

没有错误发生

状态报告结尾

–– CUETools DB Plugin V2.1.6

[CTDB TOCID: 9SNdMHejXQ237P73xhQlXW3MWCg-] database access error: 操作超时



CD19
Exact Audio Copy V1.1 from 23. June 2015

EAC 抓取日志文件从27. 十二月 2015, 11:07

未知艺术家 / 未知标题

使用驱动器 :TSSTcorpCDDVDW SN-208FB Adapter: 1 ID: 0

读取模式 : 可靠Secure
使用精确流 : 是
清空音频缓存 : 是
使用 C2 指示器 : 否

组合读写偏移校正: : 0
读取 Lead-In 和 Lead-Out : 否
用静音填充抓取中丢失偏移的采样 : 是
去除首尾静音块 : 否
在CRC 计算中使用了空样本 : 是
已用接口 : Win NT 及 2000 本地 Win32 接口

所用输出模式: : 用户定义的编码器
已选比特率 : 768 kBit/s
质量 : 高
添加 ID3 标签 : 否
命令行压缩器 : C:\Users\admin\Desktop\exactaudiocopy\eac-1.1\FLAC\FLAC.EXE
附加命令行参数: : -6 -V -T "ARTIST=%artist%" -T "TITLE=%title%" -T "ALBUM=%albumtitle%" -T "DATE=%year%" -T "TRACKNUMBER=%tracknr%" -T "GENRE=%genre%" -T "COMMENT=%comment%" -T "BAND=%albuminterpret%" -T "ALBUMARTIST=%albuminterpret%" -T "COMPOSER=%composer%" %haslyrics%–tag-from-file=LYRICS="%lyricsfile%"%haslyrics% -T "DISCNUMBER=%cdnumber%" -T "TOTALDISCS=%totalcds%" -T "TOTALTRACKS=%numtracks%" %hascover%–picture="%coverfile%"%hascover% %source% -o %dest%


已抓取 CD 的 TOC

音轨 | 起始 | 长度 | 起始扇区 | 结束扇区
––––––––––––––––––––––
1 | 0:00.33 | 12:35.00 | 33 | 56657
2 | 12:35.33 | 9:50.00 | 56658 | 100907
3 | 22:25.33 | 6:26.00 | 100908 | 129857
4 | 28:51.33 | 10:58.00 | 129858 | 179207
5 | 39:49.33 | 7:06.00 | 179208 | 211157
6 | 46:55.33 | 7:48.00 | 211158 | 246257


范围状态及错误

已选择范围

文件名 C:\Users\admin\Desktop\Kovacevich\CD19\未知艺术家 - 未知标题.wav

峰值电平 93.1 %
抓取速度 1.6 X
范围质量 100.0 %
复制 CRC 033D5B3C
复制成功

没有错误发生

状态报告结尾

–– CUETools DB Plugin V2.1.6

[CTDB TOCID: twz0cI.GT2JnIv6r6vwj_1qyTbg-] database access error: 操作超时



CD20
Exact Audio Copy V1.1 from 23. June 2015

EAC 抓取日志文件从27. 十二月 2015, 11:48

未知艺术家 / 未知标题

使用驱动器 :TSSTcorpCDDVDW SN-208FB Adapter: 1 ID: 0

读取模式 : 可靠Secure
使用精确流 : 是
清空音频缓存 : 是
使用 C2 指示器 : 否

组合读写偏移校正: : 0
读取 Lead-In 和 Lead-Out : 否
用静音填充抓取中丢失偏移的采样 : 是
去除首尾静音块 : 否
在CRC 计算中使用了空样本 : 是
已用接口 : Win NT 及 2000 本地 Win32 接口

所用输出模式: : 用户定义的编码器
已选比特率 : 768 kBit/s
质量 : 高
添加 ID3 标签 : 否
命令行压缩器 : C:\Users\admin\Desktop\exactaudiocopy\eac-1.1\FLAC\FLAC.EXE
附加命令行参数: : -6 -V -T "ARTIST=%artist%" -T "TITLE=%title%" -T "ALBUM=%albumtitle%" -T "DATE=%year%" -T "TRACKNUMBER=%tracknr%" -T "GENRE=%genre%" -T "COMMENT=%comment%" -T "BAND=%albuminterpret%" -T "ALBUMARTIST=%albuminterpret%" -T "COMPOSER=%composer%" %haslyrics%–tag-from-file=LYRICS="%lyricsfile%"%haslyrics% -T "DISCNUMBER=%cdnumber%" -T "TOTALDISCS=%totalcds%" -T "TOTALTRACKS=%numtracks%" %hascover%–picture="%coverfile%"%hascover% %source% -o %dest%


已抓取 CD 的 TOC

音轨 | 起始 | 长度 | 起始扇区 | 结束扇区
––––––––––––––––––––––
1 | 0:00.33 | 12:31.00 | 33 | 56357
2 | 12:31.33 | 6:45.10 | 56358 | 86742
3 | 19:16.43 | 10:22.65 | 86743 | 133457
4 | 29:39.33 | 14:47.00 | 133458 | 199982
5 | 44:26.33 | 5:32.32 | 199983 | 224914
6 | 49:58.65 | 10:29.43 | 224915 | 272132


范围状态及错误

已选择范围

文件名 C:\Users\admin\Desktop\Kovacevich\CD20\未知艺术家 - 未知标题.wav

峰值电平 98.6 %
抓取速度 1.7 X
范围质量 99.9 %
复制 CRC CCA16627
复制成功

没有错误发生

状态报告结尾

–– CUETools DB Plugin V2.1.6

[CTDB TOCID: HQZ2F_pWE0VkGnOINcZamAV1EeY-] database access error: 操作超时



CD21
Exact Audio Copy V1.1 from 23. June 2015

EAC 抓取日志文件从27. 十二月 2015, 12:19

未知艺术家 / 未知标题

使用驱动器 :TSSTcorpCDDVDW SN-208FB Adapter: 1 ID: 0

读取模式 : 可靠Secure
使用精确流 : 是
清空音频缓存 : 是
使用 C2 指示器 : 否

组合读写偏移校正: : 0
读取 Lead-In 和 Lead-Out : 否
用静音填充抓取中丢失偏移的采样 : 是
去除首尾静音块 : 否
在CRC 计算中使用了空样本 : 是
已用接口 : Win NT 及 2000 本地 Win32 接口

所用输出模式: : 用户定义的编码器
已选比特率 : 768 kBit/s
质量 : 高
添加 ID3 标签 : 否
命令行压缩器 : C:\Users\admin\Desktop\exactaudiocopy\eac-1.1\FLAC\FLAC.EXE
附加命令行参数: : -6 -V -T "ARTIST=%artist%" -T "TITLE=%title%" -T "ALBUM=%albumtitle%" -T "DATE=%year%" -T "TRACKNUMBER=%tracknr%" -T "GENRE=%genre%" -T "COMMENT=%comment%" -T "BAND=%albuminterpret%" -T "ALBUMARTIST=%albuminterpret%" -T "COMPOSER=%composer%" %haslyrics%–tag-from-file=LYRICS="%lyricsfile%"%haslyrics% -T "DISCNUMBER=%cdnumber%" -T "TOTALDISCS=%totalcds%" -T "TOTALTRACKS=%numtracks%" %hascover%–picture="%coverfile%"%hascover% %source% -o %dest%


已抓取 CD 的 TOC

音轨 | 起始 | 长度 | 起始扇区 | 结束扇区
––––––––––––––––––––––
1 | 0:00.00 | 1:27.53 | 0 | 6577
2 | 1:27.53 | 1:15.74 | 6578 | 12276
3 | 2:43.52 | 1:12.33 | 12277 | 17709
4 | 3:56.10 | 2:30.29 | 17710 | 28988
5 | 6:26.39 | 4:08.31 | 28989 | 47619
6 | 10:34.70 | 1:05.11 | 47620 | 52505
7 | 11:40.06 | 2:04.63 | 52506 | 61868
8 | 13:44.69 | 1:58.27 | 61869 | 70745
9 | 15:43.21 | 2:08.35 | 70746 | 80380
10 | 17:51.56 | 1:04.34 | 80381 | 85214
11 | 18:56.15 | 1:17.09 | 85215 | 90998
12 | 20:13.24 | 1:29.16 | 90999 | 97689
13 | 21:42.40 | 1:06.04 | 97690 | 102643
14 | 22:48.44 | 1:49.31 | 102644 | 110849
15 | 24:38.00 | 1:43.54 | 110850 | 118628
16 | 26:21.54 | 2:04.36 | 118629 | 127964
17 | 28:26.15 | 3:08.26 | 127965 | 142090
18 | 31:34.41 | 5:44.20 | 142091 | 167910
19 | 37:18.61 | 2:27.52 | 167911 | 178987
20 | 39:46.38 | 1:31.52 | 178988 | 185864
21 | 41:18.15 | 0:52.26 | 185865 | 189790
22 | 42:10.41 | 1:46.68 | 189791 | 197808


范围状态及错误

已选择范围

文件名 C:\Users\admin\Desktop\Kovacevich\CD21\未知艺术家 - 未知标题.wav

峰值电平 65.3 %
抓取速度 1.5 X
范围质量 100.0 %
复制 CRC B526B106
复制成功

没有错误发生

状态报告结尾

–– CUETools DB Plugin V2.1.6

[CTDB TOCID: ZjUb.P0qV10l.W.gmEBCrcsg.io-] database access error: 操作超时



CD22
Exact Audio Copy V1.1 from 23. June 2015

EAC 抓取日志文件从27. 十二月 2015, 12:58

未知艺术家 / 未知标题

使用驱动器 :TSSTcorpCDDVDW SN-208FB Adapter: 1 ID: 0

读取模式 : 可靠Secure
使用精确流 : 是
清空音频缓存 : 是
使用 C2 指示器 : 否

组合读写偏移校正: : 0
读取 Lead-In 和 Lead-Out : 否
用静音填充抓取中丢失偏移的采样 : 是
去除首尾静音块 : 否
在CRC 计算中使用了空样本 : 是
已用接口 : Win NT 及 2000 本地 Win32 接口

所用输出模式: : 用户定义的编码器
已选比特率 : 768 kBit/s
质量 : 高
添加 ID3 标签 : 否
命令行压缩器 : C:\Users\admin\Desktop\exactaudiocopy\eac-1.1\FLAC\FLAC.EXE
附加命令行参数: : -6 -V -T "ARTIST=%artist%" -T "TITLE=%title%" -T "ALBUM=%albumtitle%" -T "DATE=%year%" -T "TRACKNUMBER=%tracknr%" -T "GENRE=%genre%" -T "COMMENT=%comment%" -T "BAND=%albuminterpret%" -T "ALBUMARTIST=%albuminterpret%" -T "COMPOSER=%composer%" %haslyrics%–tag-from-file=LYRICS="%lyricsfile%"%haslyrics% -T "DISCNUMBER=%cdnumber%" -T "TOTALDISCS=%totalcds%" -T "TOTALTRACKS=%numtracks%" %hascover%–picture="%coverfile%"%hascover% %source% -o %dest%


已抓取 CD 的 TOC

音轨 | 起始 | 长度 | 起始扇区 | 结束扇区
––––––––––––––––––––––
1 | 0:00.00 | 7:20.14 | 0 | 33013
2 | 7:20.14 | 7:42.03 | 33014 | 67666
3 | 15:02.17 | 5:03.34 | 67667 | 90425
4 | 20:05.51 | 9:29.72 | 90426 | 133172
5 | 29:35.48 | 12:44.09 | 133173 | 190481
6 | 42:19.57 | 5:54.17 | 190482 | 217048


范围状态及错误

已选择范围

文件名 C:\Users\admin\Desktop\Kovacevich\CD22\未知艺术家 - 未知标题.wav

峰值电平 97.3 %
抓取速度 1.5 X
范围质量 100.0 %
复制 CRC AAD6D9BD
复制成功

没有错误发生

状态报告结尾

–– CUETools DB Plugin V2.1.6

[CTDB TOCID: wM0tdnO1FypVFiXqSIn3PzHxgVM-] database access error: 操作超时



CD23
Exact Audio Copy V1.1 from 23. June 2015

EAC 抓取日志文件从27. 十二月 2015, 13:48

未知艺术家 / 未知标题

使用驱动器 :TSSTcorpCDDVDW SN-208FB Adapter: 1 ID: 0

读取模式 : 可靠Secure
使用精确流 : 是
清空音频缓存 : 是
使用 C2 指示器 : 否

组合读写偏移校正: : 0
读取 Lead-In 和 Lead-Out : 否
用静音填充抓取中丢失偏移的采样 : 是
去除首尾静音块 : 否
在CRC 计算中使用了空样本 : 是
已用接口 : Win NT 及 2000 本地 Win32 接口

所用输出模式: : 用户定义的编码器
已选比特率 : 768 kBit/s
质量 : 高
添加 ID3 标签 : 否
命令行压缩器 : C:\Users\admin\Desktop\exactaudiocopy\eac-1.1\FLAC\FLAC.EXE
附加命令行参数: : -6 -V -T "ARTIST=%artist%" -T "TITLE=%title%" -T "ALBUM=%albumtitle%" -T "DATE=%year%" -T "TRACKNUMBER=%tracknr%" -T "GENRE=%genre%" -T "COMMENT=%comment%" -T "BAND=%albuminterpret%" -T "ALBUMARTIST=%albuminterpret%" -T "COMPOSER=%composer%" %haslyrics%–tag-from-file=LYRICS="%lyricsfile%"%haslyrics% -T "DISCNUMBER=%cdnumber%" -T "TOTALDISCS=%totalcds%" -T "TOTALTRACKS=%numtracks%" %hascover%–picture="%coverfile%"%hascover% %source% -o %dest%


已抓取 CD 的 TOC

音轨 | 起始 | 长度 | 起始扇区 | 结束扇区
––––––––––––––––––––––
1 | 0:00.00 | 8:37.16 | 0 | 38790
2 | 8:37.16 | 4:10.25 | 38791 | 57565
3 | 12:47.41 | 6:41.22 | 57566 | 87662
4 | 19:28.63 | 4:50.10 | 87663 | 109422
5 | 24:18.73 | 5:21.41 | 109423 | 133538
6 | 29:40.39 | 4:04.34 | 133539 | 151872
7 | 33:44.73 | 3:40.18 | 151873 | 168390
8 | 37:25.16 | 4:01.67 | 168391 | 186532
9 | 41:27.08 | 3:57.66 | 186533 | 204373
10 | 45:24.74 | 4:36.24 | 204374 | 225097
11 | 50:01.23 | 3:55.32 | 225098 | 242754


范围状态及错误

已选择范围

文件名 C:\Users\admin\Desktop\Kovacevich\CD23\未知艺术家 - 未知标题.wav

峰值电平 99.4 %
抓取速度 1.6 X
范围质量 100.0 %
复制 CRC B9CD464B
复制成功

没有错误发生

状态报告结尾

–– CUETools DB Plugin V2.1.6

[CTDB TOCID: zdk0FwObHrQsYnZOLrtRb8Q93no-] database access error: 操作超时



CD24
Exact Audio Copy V1.1 from 23. June 2015

EAC 抓取日志文件从27. 十二月 2015, 14:34

未知艺术家 / 未知标题

使用驱动器 :TSSTcorpCDDVDW SN-208FB Adapter: 1 ID: 0

读取模式 : 可靠Secure
使用精确流 : 是
清空音频缓存 : 是
使用 C2 指示器 : 否

组合读写偏移校正: : 0
读取 Lead-In 和 Lead-Out : 否
用静音填充抓取中丢失偏移的采样 : 是
去除首尾静音块 : 否
在CRC 计算中使用了空样本 : 是
已用接口 : Win NT 及 2000 本地 Win32 接口

所用输出模式: : 用户定义的编码器
已选比特率 : 768 kBit/s
质量 : 高
添加 ID3 标签 : 否
命令行压缩器 : C:\Users\admin\Desktop\exactaudiocopy\eac-1.1\FLAC\FLAC.EXE
附加命令行参数: : -6 -V -T "ARTIST=%artist%" -T "TITLE=%title%" -T "ALBUM=%albumtitle%" -T "DATE=%year%" -T "TRACKNUMBER=%tracknr%" -T "GENRE=%genre%" -T "COMMENT=%comment%" -T "BAND=%albuminterpret%" -T "ALBUMARTIST=%albuminterpret%" -T "COMPOSER=%composer%" %haslyrics%–tag-from-file=LYRICS="%lyricsfile%"%haslyrics% -T "DISCNUMBER=%cdnumber%" -T "TOTALDISCS=%totalcds%" -T "TOTALTRACKS=%numtracks%" %hascover%–picture="%coverfile%"%hascover% %source% -o %dest%


已抓取 CD 的 TOC

音轨 | 起始 | 长度 | 起始扇区 | 结束扇区
––––––––––––––––––––––
1 | 0:00.33 | 9:11.68 | 33 | 41425
2 | 9:12.26 | 8:27.01 | 41426 | 79451
3 | 17:39.27 | 6:38.67 | 79452 | 109368
4 | 24:18.19 | 7:10.29 | 109369 | 141647
5 | 31:28.48 | 10:56.68 | 141648 | 190915
6 | 42:25.41 | 6:22.65 | 190916 | 219630


范围状态及错误

已选择范围

文件名 C:\Users\admin\Desktop\Kovacevich\CD24\未知艺术家 - 未知标题.wav

峰值电平 98.5 %
抓取速度 3.4 X
范围质量 100.0 %
复制 CRC D00DA4E3
复制成功

没有错误发生

状态报告结尾

–– CUETools DB Plugin V2.1.6

[CTDB TOCID: aqafy_5fSZ4XeseuXOYuUlsWd2w-] database access error: 操作超时



CD25
Exact Audio Copy V1.1 from 23. June 2015

EAC 抓取日志文件从27. 十二月 2015, 16:23

未知艺术家 / 未知标题

使用驱动器 :TSSTcorpCDDVDW SN-208FB Adapter: 1 ID: 0

读取模式 : 可靠Secure
使用精确流 : 是
清空音频缓存 : 是
使用 C2 指示器 : 否

组合读写偏移校正: : 0
读取 Lead-In 和 Lead-Out : 否
用静音填充抓取中丢失偏移的采样 : 是
去除首尾静音块 : 否
在CRC 计算中使用了空样本 : 是
已用接口 : Win NT 及 2000 本地 Win32 接口

所用输出模式: : 用户定义的编码器
已选比特率 : 768 kBit/s
质量 : 高
添加 ID3 标签 : 否
命令行压缩器 : C:\Users\admin\Desktop\exactaudiocopy\eac-1.1\FLAC\FLAC.EXE
附加命令行参数: : -6 -V -T "ARTIST=%artist%" -T "TITLE=%title%" -T "ALBUM=%albumtitle%" -T "DATE=%year%" -T "TRACKNUMBER=%tracknr%" -T "GENRE=%genre%" -T "COMMENT=%comment%" -T "BAND=%albuminterpret%" -T "ALBUMARTIST=%albuminterpret%" -T "COMPOSER=%composer%" %haslyrics%–tag-from-file=LYRICS="%lyricsfile%"%haslyrics% -T "DISCNUMBER=%cdnumber%" -T "TOTALDISCS=%totalcds%" -T "TOTALTRACKS=%numtracks%" %hascover%–picture="%coverfile%"%hascover% %source% -o %dest%


已抓取 CD 的 TOC

音轨 | 起始 | 长度 | 起始扇区 | 结束扇区
––––––––––––––––––––––
1 | 0:00.00 | 13:32.55 | 0 | 60954
2 | 13:32.55 | 6:46.38 | 60955 | 91442
3 | 20:19.18 | 6:35.32 | 91443 | 121099
4 | 26:54.50 | 1:08.52 | 121100 | 126251
5 | 28:03.27 | 0:59.55 | 126252 | 130731
6 | 29:03.07 | 0:57.23 | 130732 | 135029
7 | 30:00.30 | 0:54.55 | 135030 | 139134
8 | 30:55.10 | 1:29.44 | 139135 | 145853
9 | 32:24.54 | 2:02.69 | 145854 | 155072
10 | 34:27.48 | 4:10.13 | 155073 | 173835
11 | 38:37.61 | 7:17.16 | 173836 | 206626
12 | 45:55.02 | 3:59.47 | 206627 | 224598


范围状态及错误

已选择范围

文件名 C:\Users\admin\Desktop\Kovacevich\CD25\未知艺术家 - 未知标题.wav

峰值电平 100.0 %
抓取速度 3.5 X
范围质量 99.9 %
复制 CRC 78D7BCDD
复制成功

没有错误发生

状态报告结尾

–– CUETools DB Plugin V2.1.6

[CTDB TOCID: jF9qfd8CbZzRHGRh0Js5E1apSno-] database access error: 操作超时


–––––––––––-

DON'T MODIFY THIS FILE

–––––––––––-

PERFORMER: auCDtect Task Manager, ver. 1.6.0 RC1 build 1.6.0.1
Copyright © 2008-2010 y-soft. All rights reserved
http://y-soft.org

ANALYZER: auCDtect: CD records authenticity detector, version 0.8.2
Copyright © 2004 Oleg Berngardt. All rights reserved.
Copyright © 2004 Alexander Djourik. All rights reserved.


FILE: (33) [Stephen Kovacevich] Variation 33 (Tempo di minuetto moderato, ma non tirarsi dietro).flac
Size: 15445838 Hash: A8AAEB38C4BC136D9F4D637F3CD6FC05 Accuracy: -m0
Conclusion: CDDA 100%
Signature: CC07A5E024A0695D0F4E5C7D7F28574580493C2E
FILE: (32) [Stephen Kovacevich] Variation 32 Fuga (Allegro - Poco adagio).flac
Size: 12883143 Hash: 19D6EB3CB6D342E9EAB30E8BDA31CCF6 Accuracy: -m0
Conclusion: CDDA 99%
Signature: 2DE8171959B2483714EA51DAC75A688110C74D32
FILE: (31) [Stephen Kovacevich] Variation 31 (Largo, molto espressivo).flac
Size: 18977007 Hash: 60D95369FB33DCA51DDC84E43792259E Accuracy: -m0
Conclusion: CDDA 100%
Signature: 360B3C999C861201B4D44C65ABC626B114F185B3
FILE: (30) [Stephen Kovacevich] Variation 30 (Andante, sempre cantabile).flac
Size: 7455360 Hash: 9B6CA0C7FE67A463ABDBE3B051C81F43 Accuracy: -m0
Conclusion: CDDA 100%
Signature: 96CA1397AA85EB455A6A0D242C5E0CDEEBC41999
FILE: (29) [Stephen Kovacevich] Variation 29 (Adagio ma non troppo).flac
Size: 5051394 Hash: 37FFD9B7EE7CE89917296C48A9D88AE8 Accuracy: -m0
Conclusion: CDDA 100%
Signature: EFA33EC7A16C7C4EC6FA2D8F18606319129C871B
FILE: (28) [Stephen Kovacevich] Variation 28 (Allegro).flac
Size: 4010571 Hash: 1C8839161EEF98A46C66AC9087629D39 Accuracy: -m0
Conclusion: CDDA 100%
Signature: DA28352F53725757664C3DA56DDCD966A4AD6078
FILE: (27) [Stephen Kovacevich] Variation 27 (Vivace).flac
Size: 4142174 Hash: E3503D3328C66279DE47B883D2983FD0 Accuracy: -m0
Conclusion: CDDA 100%
Signature: 50010005F21C70A4F069D52314BCC8D1B88B3CFF
FILE: (26) [Stephen Kovacevich] Variation 26.flac
Size: 4622239 Hash: BD75BE3E605FF134E432150B063DF2E3 Accuracy: -m0
Conclusion: CDDA 100%
Signature: 8A1331F5B7609524C5A5A978E6B9A3DD5F24D008
FILE: (25) [Stephen Kovacevich] Variation 25 (Allegro).flac
Size: 3091192 Hash: F6255311EF429F2F0EE8E34E4703E614 Accuracy: -m0
Conclusion: CDDA 100%
Signature: 60CFB45AFD6E3F1C0005DDED49C27FD2A1B58812
FILE: (24) [Stephen Kovacevich] Variation 24 Fughetta (Andante).flac
Size: 11495277 Hash: 8E1E5CBFEA9A1937184B67F5335BE922 Accuracy: -m0
Conclusion: CDDA 100%
Signature: 9EB76182AAE7B400F8D1F544A648EAB3384463B5
FILE: (23) [Stephen Kovacevich] Variation 23 (Allegro assai).flac
Size: 3807314 Hash: D6BC3D869CF7273334129AA3A479D102 Accuracy: -m0
Conclusion: CDDA 100%
Signature: CF57F2A0D0E73039345FBA2072D2782A9D28F4CA
FILE: (22) [Stephen Kovacevich] Variation 22 (Allegro molto)- Alla -Notte e giorno faticar- di Mozart.flac
Size: 3117082 Hash: 022C0AEF79580245C56E12CABC2234E1 Accuracy: -m0
Conclusion: CDDA 100%
Signature: D4CB990509CDC9EEF5B714574916BCEA69E714C3
FILE: (21) [Stephen Kovacevich] Variation 21 (Allegro con brio - Meno allegro - Tempo I).flac
Size: 4876903 Hash: 4BF5E956997AB032E2BE9C5645D8E801 Accuracy: -m0
Conclusion: CDDA 100%
Signature: E6033BE634FE6BD16EA6CE9956949B1F4EF86545
FILE: (20) [Stephen Kovacevich] Variation 20 (Andante).flac
Size: 7137628 Hash: 2C837E03E8E6528890F18490DB092D96 Accuracy: -m0
Conclusion: CDDA 100%
Signature: D63BE409058F833703644E80511F0AA7EE046BC7
FILE: (19) [Stephen Kovacevich] Variation 19 (Presto).flac
Size: 3757810 Hash: C6D09DC76C8CC04512E63CC1D9EFE58F Accuracy: -m0
Conclusion: CDDA 100%
Signature: 4E62EAF160EE8ADC6A662D58989421FFA761C17A
FILE: (18) [Stephen Kovacevich] Variation 18 (Poco moderato).flac
Size: 5462556 Hash: 2373AD8008D8C0A7E1A59B24C23FA503 Accuracy: -m0
Conclusion: CDDA 99%
Signature: 531CA3B28FCE986936FF85239E52C89365D41FFD
FILE: (17) [Stephen Kovacevich] Variation 17.flac
Size: 4816486 Hash: 4C2B79CC8C63485A14EF4B44435D1584 Accuracy: -m0
Conclusion: CDDA 100%
Signature: 3D7CDFB359E69F53794167C4A84FDD0CA7001318
FILE: (16) [Stephen Kovacevich] Variation 16 (Allegro).flac
Size: 4847906 Hash: F37BFDD8ECCC65FE4D2A98A6BC82B8D5 Accuracy: -m0
Conclusion: CDDA 100%
Signature: C1537F712BB17F311E00798C1981B00572F77999
FILE: (15) [Stephen Kovacevich] Variation 15 (Presto scherzando).flac
Size: 2281401 Hash: D5E300A204C3DC15FC6154E64C82D09B Accuracy: -m0
Conclusion: CDDA 99%
Signature: 018B8394589044E73D11503E667D3BDA6860B3E3
FILE: (14) [Stephen Kovacevich] Variation 14 (Grave e maestoso).flac
Size: 19666188 Hash: BB15B4BB7EC245F258C54452395265B6 Accuracy: -m0
Conclusion: CDDA 100%
Signature: 9D617FA6142CBE2435C039A4BE6AE5E9F6447709
FILE: (13) [Stephen Kovacevich] Variation 13 (Vivace).flac
Size: 4380641 Hash: 5A8A58075107E7DDA02FCD41EB840F66 Accuracy: -m0
Conclusion: CDDA 100%
Signature: 2138DF62DA0F988638B6A61FA7582147322F0FA7
FILE: (12) [Stephen Kovacevich] Variation 12 (Un poco più moto).flac
Size: 3716059 Hash: 369E04590658921449D4692E3355A90D Accuracy: -m0
Conclusion: CDDA 100%
Signature: 99E0AA263CAFB2AC08493FF718FCC2FFAD6DF3E4
FILE: (11) [Stephen Kovacevich] Variation 11 (Allegretto).flac
Size: 4121731 Hash: D170A0E5E2DBC963918A2B1355FE33B1 Accuracy: -m0
Conclusion: CDDA 100%
Signature: 7AA135D83A941361B5BEF4143CC0714237E15E46
FILE: (10) [Stephen Kovacevich] Variation 10 (Presto).flac
Size: 2652451 Hash: 940C30E5815C939A9AE5EFA4F46CAD1A Accuracy: -m0
Conclusion: CDDA 100%
Signature: AEAFB3CA0BF1048946D55FB3B89BA6590648A063
FILE: (09) [Stephen Kovacevich] Variation 9 (Allegro pesante e risoluto).flac
Size: 8072579 Hash: 3C2761AB532BC0B849A4D27DF71C9ACA Accuracy: -m0
Conclusion: CDDA 100%
Signature: 8F37E6C93A343BE57533B2FFB6CA4A75F5B55CC2
FILE: (08) [Stephen Kovacevich] Variation 8 (Poco vivace).flac
Size: 5806328 Hash: 55B1B3B3139CD46F34FA701AB763B340 Accuracy: -m0
Conclusion: CDDA 100%
Signature: 6448B459BED32A6AF2708C29A538EA2F0E612B53
FILE: (07) [Stephen Kovacevich] Variation 7 (Un poco più allegro).flac
Size: 5195388 Hash: 8D505C664D3DEA1353A4B0B49CCB7AE8 Accuracy: -m0
Conclusion: CDDA 99%
Signature: C8F3E6D5711860C033AF4E7BBE47DFDE780BC1B2
FILE: (06) [Stephen Kovacevich] Variation 6 (Allegro ma non troppo e serioso).flac
Size: 8196116 Hash: 1C8FA10D5A62DEF34660988C86B780CC Accuracy: -m0
Conclusion: CDDA 100%
Signature: 5371B5E79FBF267EFFE58D04DA9B74AE8B058FB6
FILE: (05) [Stephen Kovacevich] Variation 5 (Allegro vivace).flac
Size: 3773084 Hash: CCBF6DA5F0BE36F9ECDC86319CE0B2D6 Accuracy: -m0
Conclusion: CDDA 100%
Signature: 41D31664D5064AF61702571ADCEED89511E69B5E
FILE: (04) [Stephen Kovacevich] Variation 4 (Un poco più vivace).flac
Size: 3927508 Hash: 942431E07364DA85FC249D7E3E38B6A2 Accuracy: -m0
Conclusion: CDDA 100%
Signature: E1A341ED70CD3D44910673C299CBE3C2D2DDE04F
FILE: (03) [Stephen Kovacevich] Variation 3 (L'istesso tempo).flac
Size: 5202629 Hash: A8B8D7261B5DE6BB8C9F96739D61B156 Accuracy: -m0
Conclusion: CDDA 100%
Signature: D7AECFB90E77BFC3F4127DD672313666B14FC3A5
FILE: (02) [Stephen Kovacevich] Variation 2 (Poco allegro).flac
Size: 2531697 Hash: 6B6AD18AD4993CECDB114C5314D776AC Accuracy: -m0
Conclusion: CDDA 100%
Signature: 9474DC62D6925D4EC7446B8E11DD3041DF815E47
FILE: (01) [Stephen Kovacevich] Tema (Vivace) - Variation I (Alla marcia maestoso).flac
Size: 10757307 Hash: 3DE600BE65EBF65B077B1E601B2CB595 Accuracy: -m0
Conclusion: CDDA 100%
Signature: A69CE3BBC5DD14E6B7336C461BDA298B81EE6975


–––––––––––-

DON'T MODIFY THIS FILE

–––––––––––-

PERFORMER: auCDtect Task Manager, ver. 1.6.0 RC1 build 1.6.0.1
Copyright © 2008-2010 y-soft. All rights reserved
http://y-soft.org

ANALYZER: auCDtect: CD records authenticity detector, version 0.8.2
Copyright © 2004 Oleg Berngardt. All rights reserved.
Copyright © 2004 Alexander Djourik. All rights reserved.


FILE: (06) [Stephen Kovacevich] Piano Sonata No.5 in C minor, Op.10 No.1, 3. Finale (Prestissimo).flac
Size: 18639452 Hash: 6CB8A029DE063B2BED605F034AFD61B5 Accuracy: -m0
Conclusion: CDDA 100%
Signature: C7294ECAB94AD9D96BDDCE1D8588F486EB14C3A7
FILE: (05) [Stephen Kovacevich] Piano Sonata No.5 in C minor, Op.10 No.1, 2. Adagio molto.flac
Size: 32163750 Hash: 562DC33F70CB9169947C82C3807AD1AD Accuracy: -m0
Conclusion: CDDA 100%
Signature: 8CD0CEDA0DA6CD4FABD0685FC6722E101300D5D6
FILE: (04) [Stephen Kovacevich] Piano Sonata No.5 in C minor, Op.10 No.1, 1. Allegro molto e con brio.flac
Size: 22618225 Hash: 8237B5C4E6EBCC0741B671504A677C23 Accuracy: -m0
Conclusion: CDDA 100%
Signature: CE2672D9FA22FFF74057885EFEBE6311BAA790B9
FILE: (03) [Stephen Kovacevich, Colin Davis- BBC Symphony] Piano Concerto No.1 in C Major, Op.15, 3. Rondo (Allegro scherzando).flac
Size: 36853545 Hash: 22327EAF3CCABF75E3C1AE3BD14E57F7 Accuracy: -m0
Conclusion: CDDA 100%
Signature: C293397DFEBC53C1736BE7DD66567B2DA33D7C4B
FILE: (02) [Stephen Kovacevich, Colin Davis- BBC Symphony] Piano Concerto No.1 in C Major, Op.15, 2. Largo.flac
Size: 40745308 Hash: FAEE3884A78BA98FB5284E6682C2D8E3 Accuracy: -m0
Conclusion: CDDA 100%
Signature: B5F63FF76533B014FEDF727CD43DC732580D7A2F
FILE: (01) [Stephen Kovacevich, Colin Davis- BBC Symphony] Piano Concerto No.1 in C Major, Op.15, 1. Allegro con brio.flac
Size: 74208028 Hash: 417C47A51181AADDBA6B9ACFDDD13F5A Accuracy: -m0
Conclusion: CDDA 99%
Signature: 01920560937E7ED8EE49CD04D609BF1E64F32D15


–––––––––––-

DON'T MODIFY THIS FILE

–––––––––––-

PERFORMER: auCDtect Task Manager, ver. 1.6.0 RC1 build 1.6.0.1
Copyright © 2008-2010 y-soft. All rights reserved
http://y-soft.org

ANALYZER: auCDtect: CD records authenticity detector, version 0.8.2
Copyright © 2004 Oleg Berngardt. All rights reserved.
Copyright © 2004 Alexander Djourik. All rights reserved.


FILE: (06) [Stephen Kovacevich, Colin Davis- BBC Symphony] Piano Concerto No.4 in G Major, Op.58, 3. Rondo (Vivace).flac
Size: 38384806 Hash: 4FAA74DA26DB822B671A4607BD48FDDF Accuracy: -m0
Conclusion: CDDA 100%
Signature: F210AF4DF22208EF77F7AF707EE7E0B26EBEC7FB
FILE: (05) [Stephen Kovacevich, Colin Davis- BBC Symphony] Piano Concerto No.4 in G Major, Op.58, 2. Andante con moto.flac
Size: 17707378 Hash: 989159BCCBF5134BD681509BA39CEC02 Accuracy: -m0
Conclusion: CDDA 100%
Signature: 403165AD643EFFB354F27B1789ECB770CEEA790D
FILE: (04) [Stephen Kovacevich, Colin Davis- BBC Symphony] Piano Concerto No.4 in G Major, Op.58, 1. Allegro moderato.flac
Size: 73872584 Hash: 9DED89930458B0C00557060E86A68674 Accuracy: -m0
Conclusion: CDDA 100%
Signature: F8F9D927FE03CDBEB9A39B187D125AAACA7C99E4
FILE: (03) [Stephen Kovacevich, Colin Davis- BBC Symphony] Piano Concerto No.2 in B Flat Major, Op.19, 3. Rondo (Molto allegro).flac
Size: 26568268 Hash: 718A706CE9220DB8856BC5E6D9F7E96D Accuracy: -m0
Conclusion: CDDA 100%
Signature: 436EE2CDB9516A46E780DEDD115A0CE64E1D285A
FILE: (02) [Stephen Kovacevich, Colin Davis- BBC Symphony] Piano Concerto No.2 in B Flat Major, Op.19, 2. Adagio.flac
Size: 40706263 Hash: 045E8B9D60D44A8A6252AC04C2F7E90F Accuracy: -m0
Conclusion: CDDA 100%
Signature: 25772BE8B80C1B13C3C837BDAA4F958C336382FE
FILE: (01) [Stephen Kovacevich, Colin Davis- BBC Symphony] Piano Concerto No.2 in B Flat Major, Op.19, 1. Allegro con brio.flac
Size: 58827574 Hash: 7EB8A9064DA238971F59A60E542A2A8D Accuracy: -m0
Conclusion: CDDA 100%
Signature: 3E75F26D1460DF6F82C55F34AB84A44D57BAF017


–––––––––––-

DON'T MODIFY THIS FILE

–––––––––––-

PERFORMER: auCDtect Task Manager, ver. 1.6.0 RC1 build 1.6.0.1
Copyright © 2008-2010 y-soft. All rights reserved
http://y-soft.org

ANALYZER: auCDtect: CD records authenticity detector, version 0.8.2
Copyright © 2004 Oleg Berngardt. All rights reserved.
Copyright © 2004 Alexander Djourik. All rights reserved.


FILE: (06) [Stephen Kovacevich] Piano Sonata No.8 in C Minor, Op.13,'Pathétique', 3. Rondo (Allegro).flac
Size: 17567143 Hash: 694732EDA28FA7E050BD9A1AA194B1C2 Accuracy: -m0
Conclusion: CDDA 100%
Signature: 0FE3BE91F3C4D81C34A237D52DCB0CC0E3D44E8D
FILE: (05) [Stephen Kovacevich] Piano Sonata No.8 in C Minor, Op.13,'Pathétique', 2. Adagio cantabile.flac
Size: 23577779 Hash: F312B9A34782D7D69C183CCB227A6630 Accuracy: -m0
Conclusion: CDDA 99%
Signature: 0E1B84152AA9945882EA78C0A607F669D729D045
FILE: (04) [Stephen Kovacevich] Piano Sonata No.8 in C Minor, Op.13,'Pathétique', 1. Grave - Allegro di molto e con brio.flac
Size: 37672320 Hash: 91360F8B1D9FC35DB5B36E97E859F305 Accuracy: -m0
Conclusion: CDDA 100%
Signature: 6DE1BE47060EA302E57BCC399B932BF8AFDCF42F
FILE: (03) [Stephen Kovacevich, Colin Davis- BBC Symphony ] Piano Concerto No.3 in C Minor, Op.37, 3. Rondo (Allegro).flac
Size: 41664359 Hash: 7300E80750FDC7192D258FC96805DB06 Accuracy: -m0
Conclusion: CDDA 100%
Signature: 187109E1015ED1367E13C113F5FE4C8D6AC9B28C
FILE: (02) [Stephen Kovacevich, Colin Davis- BBC Symphony ] Piano Concerto No.3 in C Minor, Op.37, 2. Largo.flac
Size: 40688360 Hash: 959F0AEB51F2814DC68FB54555C48013 Accuracy: -m0
Conclusion: CDDA 100%
Signature: 3B82F1EA888C1730977BF6E9C397886CB0BC2995
FILE: (01) [Stephen Kovacevich, Colin Davis- BBC Symphony ] Piano Concerto No.3 in C Minor, Op.37, 1. Allegro con brio.flac
Size: 76246424 Hash: 4276EF0D4AF4FB43E159842CE37ABEA2 Accuracy: -m0
Conclusion: CDDA 100%
Signature: 8D6925CA9364E28873DD5DF5443A3BE4B839D7DA


–––––––––––-

DON'T MODIFY THIS FILE

–––––––––––-

PERFORMER: auCDtect Task Manager, ver. 1.6.0 RC1 build 1.6.0.1
Copyright © 2008-2010 y-soft. All rights reserved
http://y-soft.org

ANALYZER: auCDtect: CD records authenticity detector, version 0.8.2
Copyright © 2004 Oleg Berngardt. All rights reserved.
Copyright © 2004 Alexander Djourik. All rights reserved.


FILE: (03) [Stephen Kovacevich, Colin Davis- BBC Symphony] Piano Concerto No.5 in E Flat, Op.73,'Emperor', 3. Rondo (Allegro).flac
Size: 49810716 Hash: 7E12DC9619BC27E4B233C908854E1C45 Accuracy: -m0
Conclusion: CDDA 100%
Signature: A075CCC2E258806D424AD951FEB4B5181272FD9D
FILE: (02) [Stephen Kovacevich, Colin Davis- BBC Symphony] Piano Concerto No.5 in E Flat, Op.73,'Emperor', 2. Adagio un poco mosso.flac
Size: 35650493 Hash: 9C9AA1FDA668F4A2BBF38C7B0D93B09C Accuracy: -m0
Conclusion: CDDA 100%
Signature: CE73BC0418419F50227987A3A917D4463F1F3A84
FILE: (01) [Stephen Kovacevich, Colin Davis- BBC Symphony] Piano Concerto No.5 in E Flat, Op.73,'Emperor', 1. Allegro.flac
Size: 99108834 Hash: 9D78F11B1A3CB9115E582A0E956D7341 Accuracy: -m0
Conclusion: CDDA 100%
Signature: A6E1474961D9417C8623D9E20164FABBD5A504B4


–––––––––––-

DON'T MODIFY THIS FILE

–––––––––––-

PERFORMER: auCDtect Task Manager, ver. 1.6.0 RC1 build 1.6.0.1
Copyright © 2008-2010 y-soft. All rights reserved
http://y-soft.org

ANALYZER: auCDtect: CD records authenticity detector, version 0.8.2
Copyright © 2004 Oleg Berngardt. All rights reserved.
Copyright © 2004 Alexander Djourik. All rights reserved.


FILE: (07) [Stephen Kovacevich] Piano Sonata No.30 in E major, Op.109, 3. Andante molto cantabile ed espressivo.flac
Size: 43634384 Hash: BF020E1996BDD7DA7FBBAC08D9799733 Accuracy: -m0
Conclusion: CDDA 99%
Signature: 5DB4FB021B95BC7D0DA880FE2779D960F779A863
FILE: (06) [Stephen Kovacevich] Piano Sonata No.30 in E major, Op.109, 2. Prestissimo.flac
Size: 8934943 Hash: F51B694859384FFBD3ADDE8FA9CB5AF1 Accuracy: -m0
Conclusion: CDDA 100%
Signature: 8E6A2A08556190BF5A9FF6E79386101D43698A42
FILE: (05) [Stephen Kovacevich] Piano Sonata No.30 in E major, Op.109, 1. Vivace, ma non troppo.flac
Size: 12999364 Hash: 6B2FAD22536AB95C39839044A5B2EAC7 Accuracy: -m0
Conclusion: CDDA 100%
Signature: 42D127002900DA6D27B2CA59D8E16B1CB3489E71
FILE: (04) [Stephen Kovacevich] Piano Sonata No.28 in A, Op.101, 4. Allegro).flac
Size: 27856188 Hash: D3B29E3B432FBED1B7705EB8503C5023 Accuracy: -m0
Conclusion: CDDA 100%
Signature: 2CAC5B872F0DCE7E523BE73EC193D68B6DE7839D
FILE: (03) [Stephen Kovacevich] Piano Sonata No.28 in A, Op.101, 3. Adagio ma non troppo, con affetto.flac
Size: 9671177 Hash: 785809A80F0EA069B3E6E5D1796736B7 Accuracy: -m0
Conclusion: CDDA 100%
Signature: 159537BE92B49AA3B05F7E3D4F569B6FD53C3635
FILE: (02) [Stephen Kovacevich] Piano Sonata No.28 in A, Op.101, 2. Vivace alla marcia.flac
Size: 22777646 Hash: 0C735F534F07514DCA9BD233DDEC1A5B Accuracy: -m0
Conclusion: CDDA 100%
Signature: A91F01D08ABFBF092887C69AE209CD85148DC58B
FILE: (01) [Stephen Kovacevich] Piano Sonata No.28 in A, Op.101, 1. Allegretto ma non troppo.flac
Size: 14088285 Hash: 47AF17AAC8EA2190FDC242AC591E7E6C Accuracy: -m0
Conclusion: CDDA 100%
Signature: 8A3594F3A4773E7B00D04B129A7DB2A9A3C6632B


–––––––––––-

DON'T MODIFY THIS FILE

–––––––––––-

PERFORMER: auCDtect Task Manager, ver. 1.6.0 RC1 build 1.6.0.1
Copyright © 2008-2010 y-soft. All rights reserved
http://y-soft.org

ANALYZER: auCDtect: CD records authenticity detector, version 0.8.2
Copyright © 2004 Oleg Berngardt. All rights reserved.
Copyright © 2004 Alexander Djourik. All rights reserved.


FILE: (05) [Stephen Kovacevich] Piano Sonata No.32 in C minor, Op.111, 2. Arietta (Adagio molto semplice e cantabile).flac
Size: 63718340 Hash: 3D005D8485C14E2CF782F64E5A18C630 Accuracy: -m0
Conclusion: MPEG 80%
Signature: 117D58C613DF1A6E37DA604CD40CD699A9F6EBE3
FILE: (04) [Stephen Kovacevich] Piano Sonata No.32 in C minor, Op.111, 1. Maestoso - Allegro con brio ed appassionato.flac
Size: 39293324 Hash: 80E49D8D8A785E859B0353C12C853E40 Accuracy: -m0
Conclusion: CDDA 92%
Signature: 018EDE8B679D1B5FB4CE5AEF0111A482C66366B5
FILE: (03) [Stephen Kovacevich] Piano Sonata No.31 in A flat major, Op.110, 3. Adagio ma non troppo - Fuga.flac
Size: 41172205 Hash: 022F04223A21283EAD308DBDB8BC02FE Accuracy: -m0
Conclusion: CDDA 100%
Signature: B8F5CA930F3EB260C99EF61C70BC1CDE8041F57D
FILE: (02) [Stephen Kovacevich] Piano Sonata No.31 in A flat major, Op.110, 2. Allegro molto.flac
Size: 7541809 Hash: 209ED3683FE694F3C4784F6F37E81DE6 Accuracy: -m0
Conclusion: CDDA 100%
Signature: 66E71837FE86CC336C1287A8D2AD0D455DB7CDAA
FILE: (01) [Stephen Kovacevich] Piano Sonata No.31 in A flat major, Op.110, 1. Moderato cantabile molto espressivo.flac
Size: 23956802 Hash: 75ED2E814CAC8520A745F86E651AE080 Accuracy: -m0
Conclusion: CDDA 100%
Signature: 9FA33F25DD9ADB1C5B462DEC37652E8B6E7DA35D


–––––––––––-

DON'T MODIFY THIS FILE

–––––––––––-

PERFORMER: auCDtect Task Manager, ver. 1.6.0 RC1 build 1.6.0.1
Copyright © 2008-2010 y-soft. All rights reserved
http://y-soft.org

ANALYZER: auCDtect: CD records authenticity detector, version 0.8.2
Copyright © 2004 Oleg Berngardt. All rights reserved.
Copyright © 2004 Alexander Djourik. All rights reserved.


FILE: (07) [Stephen Kovacevich] Piano Sonata No.18 In E Flat, Op.31 No.3,'The Hunt', 4. Presto con fuoco.flac
Size: 21261420 Hash: B93F8A6B8821EA998EC134B3211C93A4 Accuracy: -m0
Conclusion: CDDA 100%
Signature: D81928F6083079775B05B2C204ECD640EE17013F
FILE: (06) [Stephen Kovacevich] Piano Sonata No.18 In E Flat, Op.31 No.3,'The Hunt', 3. Menuetto (Moderato e grazioso).flac
Size: 15148358 Hash: DF242D5C45D19ACDE44F0F458CBCD527 Accuracy: -m0
Conclusion: CDDA 100%
Signature: 9E0E5D8FF8E0D6D6713355BE01B990E981FD897D
FILE: (05) [Stephen Kovacevich] Piano Sonata No.18 In E Flat, Op.31 No.3,'The Hunt', 2. Scherzo (Allegretto vivace).flac
Size: 20944872 Hash: D21F3AD0AF9F8C7916F81EEA9CF1406F Accuracy: -m0
Conclusion: CDDA 100%
Signature: E8B692249E9292A3CB70168D5782CE92870BFDDE
FILE: (04) [Stephen Kovacevich] Piano Sonata No.18 In E Flat, Op.31 No.3,'The Hunt', 1. Allegro.flac
Size: 34091461 Hash: BB902E233859872B13D6344D5E448FE9 Accuracy: -m0
Conclusion: CDDA 100%
Signature: BE0F7BB7B8B35CF39E7E688161B3785647801BBB
FILE: (03) [Stephen Kovacevich] Piano Sonata No.17 In D Minor, Op.31 No.2,'Tempest', 3. Allegretto.flac
Size: 28897805 Hash: A280499D091D1E9B2CE7BF7F1987CADE Accuracy: -m0
Conclusion: CDDA 100%
Signature: 2C1DC10AA6FF7AC4D2050759FD87D1131827C7CB
FILE: (02) [Stephen Kovacevich] Piano Sonata No.17 In D Minor, Op.31 No.2,'Tempest', 2. Adagio.flac
Size: 33785566 Hash: A5F3712A8745F32F73D8A63FD50C100A Accuracy: -m0
Conclusion: CDDA 100%
Signature: 515E9177F64F469F10020D1C514EEF8841936AED
FILE: (01) [Stephen Kovacevich] Piano Sonata No.17 In D Minor, Op.31 No.2,'Tempest', 1. Largo - Allegro.flac
Size: 35939239 Hash: 43B32F3F139BD5C3623EEC2B6F4478F2 Accuracy: -m0
Conclusion: CDDA 100%
Signature: FD1AE0E83B06552BE9791CAA9C782960AE612C6E


–––––––––––-

DON'T MODIFY THIS FILE

–––––––––––-

PERFORMER: auCDtect Task Manager, ver. 1.6.0 RC1 build 1.6.0.1
Copyright © 2008-2010 y-soft. All rights reserved
http://y-soft.org

ANALYZER: auCDtect: CD records authenticity detector, version 0.8.2
Copyright © 2004 Oleg Berngardt. All rights reserved.
Copyright © 2004 Alexander Djourik. All rights reserved.


FILE: (24) [Stephen Kovacevich] 6 Bagatelles, Op.126, 6. Presto - Andante amabile e con moto.flac
Size: 16702167 Hash: 28C8047C9CD5304BA34B5BAD980EEC84 Accuracy: -m0
Conclusion: CDDA 100%
Signature: 5B2CB663C5552A35C6224A9EDFED67C641305C2D
FILE: (23) [Stephen Kovacevich] 6 Bagatelles, Op.126, 5. Quasi Allegretto.flac
Size: 11044453 Hash: DE4FCABF44419E4658D472E269D82CA4 Accuracy: -m0
Conclusion: CDDA 100%
Signature: F06607A361C9D2F361BDC1BD1A5F7D2F0291877F
FILE: (22) [Stephen Kovacevich] 6 Bagatelles, Op.126, 4. Presto.flac
Size: 16110924 Hash: 814376653BAE6C042A05C4EA2A77B11C Accuracy: -m0
Conclusion: CDDA 100%
Signature: 1BB0F750C61782FB0B8992A6592D179C0391D66F
FILE: (21) [Stephen Kovacevich] 6 Bagatelles, Op.126, 3. Andante.flac
Size: 10297344 Hash: F2951752E8D2E396F1C7084993B34D6E Accuracy: -m0
Conclusion: CDDA 100%
Signature: 5F8A50C6743D9BADD9A429A7C9F1EC372E62BF45
FILE: (20) [Stephen Kovacevich] 6 Bagatelles, Op.126, 2. Allegro.flac
Size: 11415905 Hash: E33F5BFF0668A56A5C880E112850ADD3 Accuracy: -m0
Conclusion: CDDA 100%
Signature: AB32D087241BBFEA88D66CB3B2C409584CD3AFCD
FILE: (19) [Stephen Kovacevich] 6 Bagatelles, Op.126, 1. Andante con moto.flac
Size: 13507417 Hash: EA07A1CCDCF4A771BCBE0568E2F97984 Accuracy: -m0
Conclusion: CDDA 100%
Signature: D25DB50A6B4CB1DDCAED6E94371E706E08FBE9A2
FILE: (18) [Stephen Kovacevich] 11 Bagatelles, Op.119, 11. Andante, ma non troppo.flac
Size: 6489192 Hash: C8128E151E26812A09D39EBEDCCD3A77 Accuracy: -m0
Conclusion: CDDA 100%
Signature: F8B2414E2892C58249ABA391B7A93D6F8DCBCF97
FILE: (17) [Stephen Kovacevich] 11 Bagatelles, Op.119, 10. Allegramente.flac
Size: 769964 Hash: 1E59960C84491AB0F4F67CEC92FD1A90 Accuracy: -m0
Conclusion: CDDA 100%
Signature: 717AE3E3E9B8D0CE3460B8B8F03CA7B04AEE8A96
FILE: (16) [Stephen Kovacevich] 11 Bagatelles, Op.119, 9. Vivace moderato.flac
Size: 2988993 Hash: 21DE809795B76CBDCBE1D473442DF091 Accuracy: -m0
Conclusion: CDDA 100%
Signature: 08E98524D940CB85DD3DEFE5A3E61DDB159A99A1
FILE: (15) [Stephen Kovacevich] 11 Bagatelles, Op.119, 8. Moderato cantabile.flac
Size: 6339546 Hash: 6189589C0AA9E9B7C51A15F688BD2837 Accuracy: -m0
Conclusion: CDDA 100%
Signature: 36912D7BDDEF65519A5BC1561B8FA75B5FD62517
FILE: (14) [Stephen Kovacevich] 11 Bagatelles, Op.119, 7. Allegro ma non troppo.flac
Size: 3667690 Hash: 48B8ED6EEB2BD35A6F5CDD50DB9C75C3 Accuracy: -m0
Conclusion: CDDA 100%
Signature: C7271D67ECD68DA74089F08740B9E623E21B2C47
FILE: (13) [Stephen Kovacevich] 11 Bagatelles, Op.119, 6. Andante - Allegretto leggiermente.flac
Size: 6041055 Hash: 3016403A526CDFA171AE81B87FD4F046 Accuracy: -m0
Conclusion: CDDA 100%
Signature: D4E406EA5EA70FD0CE91F77F6CBD5BC7779408A0
FILE: (12) [Stephen Kovacevich] 11 Bagatelles, Op.119, 5. Risoluto.flac
Size: 5693354 Hash: 96810CDF4AAF20112C7019700ABFEEF1 Accuracy: -m0
Conclusion: CDDA 99%
Signature: 909D5E2B17A8F9461D48BFE215AF7303E8A9D5A4
FILE: (11) [Stephen Kovacevich] 11 Bagatelles, Op.119, 4. Andante cantabile.flac
Size: 5503767 Hash: 713989DDFFE18A925E8EB71534B0A1EB Accuracy: -m0
Conclusion: CDDA 100%
Signature: A35981ED4429FBAE4AA89D10D724B6A7461357CF
FILE: (10) [Stephen Kovacevich] 11 Bagatelles, Op.119, 3. à l'Allemande.flac
Size: 5836387 Hash: 480B2FF969139B9866EE3421735166EE Accuracy: -m0
Conclusion: CDDA 100%
Signature: ABC8479A4507965F483E2E76D08D75ED1B6889EE
FILE: (09) [Stephen Kovacevich] 11 Bagatelles, Op.119, 2. Andante con moto.flac
Size: 3343415 Hash: DCD16381DA78FE4D21154ED66D047F66 Accuracy: -m0
Conclusion: CDDA 100%
Signature: 0046C0CE03F71C2C649D3E40EF08EB38E113388A
FILE: (08) [Stephen Kovacevich] 11 Bagatelles, Op.119, 1. Allegretto.flac
Size: 9504721 Hash: C6B95F13B479DFFE5FCFDC33D0A10D78 Accuracy: -m0
Conclusion: CDDA 100%
Signature: 89539A502999147D4C4EE1CBFCD81291550DD866
FILE: (07) [Stephen Kovacevich] 7 Bagatelles, Op.33, 7. Presto.flac
Size: 8149425 Hash: BD9ACAD14D401577615E54D9C558147F Accuracy: -m0
Conclusion: CDDA 100%
Signature: A865013168462AD244F2011652E421FCBF83A66B
FILE: (06) [Stephen Kovacevich] 7 Bagatelles, Op.33, 6. Allegretto quasi Andante.flac
Size: 8983740 Hash: A51761CF7B04067FBD50CDED7F5D8B90 Accuracy: -m0
Conclusion: CDDA 100%
Signature: E9946A35BA2FBBCE9E6F49C7BC9750E714E16176
FILE: (05) [Stephen Kovacevich] 7 Bagatelles, Op.33, 5. Allegro, ma non troppo.flac
Size: 13306843 Hash: 689DC62A8B1EB7A0CDD910A115DD7E14 Accuracy: -m0
Conclusion: CDDA 100%
Signature: C56B2495A925D82FBAA6EA32E6194C9D372D27E2
FILE: (04) [Stephen Kovacevich] 7 Bagatelles, Op.33, 4. Andante.flac
Size: 9843488 Hash: 0689EE0FEE01C0778C0F52B3D56360FA Accuracy: -m0
Conclusion: CDDA 100%
Signature: 7467CEC8F180AD9A94506AAD0404FF2CE5EF83F5
FILE: (03) [Stephen Kovacevich] 7 Bagatelles, Op.33, 3. Allegretto.flac
Size: 8249766 Hash: B2E1468343F6EE102D94BDDD0606B49F Accuracy: -m0
Conclusion: CDDA 100%
Signature: E871E6C0C5A3D843EE133E63CC85B4DEAD960D98
FILE: (02) [Stephen Kovacevich] 7 Bagatelles, Op.33, 2. Scherzo (Allegro).flac
Size: 11065814 Hash: 5BC51170265A2B8099139AB80EEDFD01 Accuracy: -m0
Conclusion: CDDA 100%
Signature: 1E3951A2E485D758436682C7A492437A3D95FA7C
FILE: (01) [Stephen Kovacevich] 7 Bagatelles, Op.33, 1. Bagatelle in E Flat, Andante grazioso, quasi Allegretto.flac
Size: 13179338 Hash: 7BF9BA6A0C41598859D6B251EA1CACC9 Accuracy: -m0
Conclusion: CDDA 100%
Signature: 9267C7185BBE29BB11ACB29C7C42929EF589FFD8


–––––––––––-

DON'T MODIFY THIS FILE

–––––––––––-

PERFORMER: auCDtect Task Manager, ver. 1.6.0 RC1 build 1.6.0.1
Copyright © 2008-2010 y-soft. All rights reserved
http://y-soft.org

ANALYZER: auCDtect: CD records authenticity detector, version 0.8.2
Copyright © 2004 Oleg Berngardt. All rights reserved.
Copyright © 2004 Alexander Djourik. All rights reserved.


FILE: (08) [Stephen Kovacevich] Nocturne No.18 in E, Op.62 No.2.flac
Size: 24838834 Hash: 9D76942B68E0EC62B2228E65F3566DE1 Accuracy: -m0
Conclusion: CDDA 100%
Signature: 27CE64FA3CA3D34ECD583691828374F6AD0AED92
FILE: (07) [Stephen Kovacevich] Nocturne No.17 in B, Op.62 No.1.flac
Size: 29966927 Hash: 3CED9C42D83AF2EC4E8E2DE69AC2CDC8 Accuracy: -m0
Conclusion: CDDA 100%
Signature: 101BCEAB88E5EE1AB10BA0F80225EB0BC078CF57
FILE: (06) [Stephen Kovacevich] Barcarolle in F Sharp, Op.60.flac
Size: 35823264 Hash: ECF14BEFDB9232B2BB1D02FE414381E6 Accuracy: -m0
Conclusion: CDDA 99%
Signature: 63C2FB642A4483DDB3A717146968F911A54F9737
FILE: (05) [Stephen Kovacevich] Mazurka No.41 in C sharp minor Op.63 No.3.flac
Size: 8685628 Hash: C7CB574B6A6E3BBD9F4970D811DCFE2B Accuracy: -m0
Conclusion: CDDA 100%
Signature: 6850C8A40C1D9CA790E095D4C358B5A7B63479F8
FILE: (04) [Stephen Kovacevich] Mazurka No.40 in F minor Op.63 No.2.flac
Size: 8757767 Hash: CF970CB46F8A8C92FC2302FFEFA28FE9 Accuracy: -m0
Conclusion: CDDA 100%
Signature: 299EE8838136A0FB697C3926E883FC17FF8BAE74
FILE: (03) [Stephen Kovacevich] Mazurka No.39 in B Op.63 No.1.flac
Size: 8376987 Hash: E957335EA5AA669B8014C0F7DD82AE5F Accuracy: -m0
Conclusion: CDDA 100%
Signature: 943A25BD61FB4E2958B7EF713C14003EC98D8F62
FILE: (02) [Stephen Kovacevich] Impromptu No.3 in G flat, Op.51.flac
Size: 18395917 Hash: F22E90ADB87932936A480B8D9A087237 Accuracy: -m0
Conclusion: CDDA 100%
Signature: 7DFDBCFB7EDEE615A8FC6FD0EBEAFC65CC91D094
FILE: (01) [Stephen Kovacevich] Polonaise No.7 in A flat, Op.61 Polonaise-Fantaisie.flac
Size: 53077676 Hash: 493B3E773EFD8F3F6454BDF7D010E900 Accuracy: -m0
Conclusion: CDDA 100%
Signature: 6BCE3BBFB7CA3A337CE1C4FC0613EC29FA151C6F



Thanks to original ripper.