Subcategories

Steve Swallow Quintet / Carla Bley - Into The Woodwork (2013) [HDTV 1080р]

Posted By: murena
Steve Swallow Quintet / Carla Bley - Into The Woodwork (2013) [HDTV 1080р]

Steve Swallow Quintet / Carla Bley - Into The Woodwork (2013) [HDTV 1080р]
HDTV 1080р | MP4 | MPEG-4 AVC, 1920x1080, 9547 Kbps, 25.00 fps
Audio: English, AAC, 128-384 Kbps kbps, 48 kHz, 2 ch
Genre: Jazz, Contemporary Jazz / Time: 01:09:53 min / 4,85 Gb

Praising a previous incarnation of Steve Swallows quintet, The Times of London described the band as near a perfect display of small-group jazz robust yet exquisitely poised.

The description holds true for the latest edition of the bassists quintet and its album Into the Woodwork. Swallow leads the group including his longtime partner in music and life, Carla Bley, on organ in multi-hued performances of a dozen original compositions from his pen.

Recorded in the south of France, the album accommodates atmospheric grace and loping grooves, wry humor and understated virtuosity. Hushed opener Sad Old Candle reveals the subtle beauties of this band, with Swallow and Bley joined in ensemble intimacy by saxophonist Chris Cheek, guitarist Steve Cardenas and drummer Jorge Rossy.

From Whom It May Concern sees Cheek sing a sad-eyed melody on his saxophone, with a limpid solo from Cardenas to follow. Its Rossy to the fore in Back in Action, with his funky solos defining the track. Exit Stage Left begins with the ever-distinctive fluidity of Swallows electric bass a sound that has propelled the veteran to the top of the critics and readers polls in DownBeat year in and year out.

Into the Woodwork is jazz of character, with ingrained melody and warmth.

Tracklist:
01. Into The Woodwork
02. Bite Your Grandmother
03. From Whom It May Concern
04. Grisly Business
05. Back on Action
06. Unnatural Causes
07. Bend Over Backwards
08. Let's Eat
09. Exit stage left
10. Name That Tune
11. William and Mary

Полное имя : G:\DVD\Steve Swallow Quintet - Woodwork\Steve Swallow Quintet feat. Carla Bley - InTo The Woodwork.mp4
Формат : MPEG-4
Профиль формата : Base Media / Version 2
Идентификатор кодека : mp42
Размер файла : 4,85 Гбайт
Продолжительность : 1 ч. 9 м.
Общий поток : 9935 Кбит/сек
Дата кодирования : UTC 2014-01-22 03:00:44
Дата пометки : UTC 2014-01-22 03:00:44

Видео
Идентификатор : 2
Формат : AVC
Формат/Информация : Advanced Video Codec
Профиль формата : Main@L4.1
Параметр CABAC формата : Да
Параметр ReFrames формата : 2 кадра
Идентификатор кодека : avc1
Идентификатор кодека/Информация : Advanced Video Coding
Продолжительность : 1 ч. 9 м.
Вид битрейта : Переменный
Битрейт : 9547 Кбит/сек
Максимальный битрейт : 10,0 Мбит/сек
Ширина : 1920 пикселей
Высота : 1088 пикселей
Высота оригинала : 1080 пикселей
Соотношение сторон : 16:9
Соотношение сторон в оригинале : 16:9
Режим частоты кадров : Постоянный
Частота кадров : 25,000 кадров/сек
Частота кадров в оригинале : 12,500 кадров/сек
Цветовое пространство : YUV
Субдискретизация насыщенности : 4:2:0
Битовая глубина : 8 бит
Тип развёртки : Прогрессивная
Бит/(Пиксели*Кадры) : 0.183
Размер потока : 4,66 Гбайт (96%)
Язык : English
Дата кодирования : UTC 2014-01-22 03:00:44
Дата пометки : UTC 2014-01-22 03:00:44

Аудио
Идентификатор : 1
Формат : AAC
Формат/Информация : Advanced Audio Codec
Профиль формата : LC
Идентификатор кодека : 40
Продолжительность : 1 ч. 9 м.
Вид битрейта : Постоянный
Битрейт : 384 Кбит/сек
Номинальный битрейт : 128 Кбит/сек
Каналы : 2 канала
Расположение каналов : Front: L R
Частота : 48,0 КГц
Метод сжатия : С потерями
Размер потока : 192 Мбайт (4%)
Язык : English
Дата кодирования : UTC 2014-01-22 03:00:44
Дата пометки : UTC 2014-01-22 03:00:44


Screenshots:
Steve Swallow Quintet / Carla Bley - Into The Woodwork (2013) [HDTV 1080р]

Steve Swallow Quintet / Carla Bley - Into The Woodwork (2013) [HDTV 1080р]

Steve Swallow Quintet / Carla Bley - Into The Woodwork (2013) [HDTV 1080р]

Steve Swallow Quintet / Carla Bley - Into The Woodwork (2013) [HDTV 1080р]


Thanks to the original ripper.