Subcategories

Steve Hackett - The Tokyo Tapes (1998) [SH Records, 2000] 2CD Repost

Posted By: Andi_Deris
Steve Hackett - The Tokyo Tapes (1998) [SH Records, 2000] 2CD Repost

Steve Hackett - The Tokyo Tapes (1998) [SH Records, 2000] 2CD
EAC Rip | FLAC: Image+Cue+Log | 783 Mb | MP3 CBR 320 kbps | 291 Mb | Scans | TTime: 01:59:27
Genre: Progressive Rock, Eclectic Prog | Label: SH Records | Cat.: SHCD 06001904/5

The Tokyo Tapes is ex-Genesis guitarist Steve Hackett's live album featuring a progressive rock supergroup line-up of John Wetton (from King Crimson, UK, Asia), Chester Thompson (from Weather Report, Frank Zappa, Genesis live), Ian McDonald (from King Crimson, Foreigner) and rounded out by keyboardist Julian Colbeck (worked with Yes spin-off Anderson Bruford Wakeman Howe). The album was compiled from two concerts at Koseinenkin Hall in Tokyo, Japan on 16 & 17 December 1996.

Steve Hackett - The Tokyo Tapes (1998) [SH Records, 2000] 2CD Repost




Steve Hackett - The Tokyo Tapes (1998) [SH Records, 2000] 2CD Repost


Disc 1

01. Watcher Of The Skies (08:59)
02. Riding The Colossus (03:32)
03. Firth Of Fifth (09:31)
04. Battlelines (06:43)
05. Camino Royale (09:05)
06. The Court Of The Crimson King (07:39)
07. Horizons (01:53)
08. Walking Away From Rainbows (03:46)
09. Heat Of The Moment (04:06)

Steve Hackett - The Tokyo Tapes (1998) [SH Records, 2000] 2CD Repost


Disc 2

01. In That Quiet Earth (04:02)
02. Vampyre With A Healthy Appetite (07:26)
03. I Talk To The Wind (05:27)
04. Shadow Of The Hierophant (07:14)
05. Los Endos (06:54)
06. Black Light (02:29)
07. The Steppes (06:47)
08. I Know What I Like (05:51)
09. Firewall (Studio Track) (04:40)
10. The Dealer (Studio Track) (04:22)
11. Los Endos ('Revisited' Studio Version) (08:52)

Produced by Steve Hackett

Musicians

• Steve Hackett: Guitar, Harmonica, Vocals
• John Wetton: Bass, Guitar, Vocals
• Ian McDonald: Flute, Sax, Guitar, Keyboards, Vocals
• Chester Thompson: Drums
• Julian Colbeck: Keyboards, Vocals

studio tracks on 'Firewall', 'The Dealer'
• Steve Hackett: Guitar, Percussion
• Aron Friedman: Keyboards, Programming

Exact Audio Copy V0.99 prebeta 4 from 23. January 2008

Отчёт EAC об извлечении, выполненном 21. марта 2010, 15:06

Steve Hackett / The Tokyo Tapes (Disc 1)

Дисковод: ASUS DRW-1814BLT Adapter: 2 ID: 0

Режим чтения : Достоверность
Использование точного потока : Да
Отключение кэша аудио : Да
Использование указателей C2 : Нет

Коррекция смещения при чтении : 6
Способность читать области Lead-in и Lead-out : Нет
Заполнение пропущенных сэмплов тишиной : Да
Удаление блоков с тишиной в начале и конце : Нет
При вычислениях CRC использовались нулевые сэмплы : Да
Интерфейс : Встроенный Win32-интерфейс для Win NT/2000

Выходной формат : Пользовательский кодировщик
Выбранный битрейт : 768 kBit/s
Качество : Высокий
Добавление ID3-тэга : Нет
Утилита сжатия : D:\Program Files\Exact Audio Copy\Flac\Flac.exe
Дополнительные параметры : -8 –delete-input-file -o "D:\CDImage.flac" -V %s


TOC извлечённого CD

Трек | Старт | Длительность | Начальный сектор | Конечный сектор
––––––––––––––––––––––––––––––––––-
1 | 0:00.00 | 8:59.20 | 0 | 40444
2 | 8:59.20 | 3:32.25 | 40445 | 56369
3 | 12:31.45 | 9:31.12 | 56370 | 99206
4 | 22:02.57 | 6:43.38 | 99207 | 129469
5 | 28:46.20 | 9:05.55 | 129470 | 170399
6 | 37:52.00 | 7:39.34 | 170400 | 204858
7 | 45:31.34 | 1:53.08 | 204859 | 213341
8 | 47:24.42 | 3:46.33 | 213342 | 230324
9 | 51:11.00 | 4:06.60 | 230325 | 248834


Характеристики диапазона извлечения и сообщения об ошибках

Выбранный диапазон

Имя файла D:\Steve Hackett - The Tokyo Tapes (Disc 1).wav

Пиковый уровень 100.0 %
Качество диапазона 100.0 %
CRC теста 2C2C6168
CRC копии 2C2C6168
Копирование… OK

Ошибок не произошло


AccurateRip: сводка

Трек 1 точность не определена (достоверность 2) [73CEAE6B], AccurateRip вернул [0B24B651]
Трек 2 точность не определена (достоверность 2) [F5527542], AccurateRip вернул [4C58C151]
Трек 3 точность не определена (достоверность 2) [53FE5C94], AccurateRip вернул [E1172AED]
Трек 4 точность не определена (достоверность 2) [7A7E4D48], AccurateRip вернул [0670708D]
Трек 5 точность не определена (достоверность 2) [1A79273A], AccurateRip вернул [BF8EB9AF]
Трек 6 точность не определена (достоверность 2) [FAB811CD], AccurateRip вернул [6A0181C2]
Трек 7 нет в базе данных
Трек 8 нет в базе данных
Трек 9 точность не определена (достоверность 2) [00E4A1F5], AccurateRip вернул [3B0474EB]

7 трек(и) не удалось проверить на точность
2 трек(и) не содержатся в базе AccurateRip

Ни один трек не прошёл проверки на точность
В вашей базе может быть иной вариант штамповки диска

Конец отчёта

Exact Audio Copy V0.99 prebeta 4 from 23. January 2008

Отчёт EAC об извлечении, выполненном 21. марта 2010, 15:29

Steve Hackett / The Tokyo Tapes (Disc 2)

Дисковод: ASUS DRW-1814BLT Adapter: 2 ID: 0

Режим чтения : Достоверность
Использование точного потока : Да
Отключение кэша аудио : Да
Использование указателей C2 : Нет

Коррекция смещения при чтении : 6
Способность читать области Lead-in и Lead-out : Нет
Заполнение пропущенных сэмплов тишиной : Да
Удаление блоков с тишиной в начале и конце : Нет
При вычислениях CRC использовались нулевые сэмплы : Да
Интерфейс : Встроенный Win32-интерфейс для Win NT/2000

Выходной формат : Пользовательский кодировщик
Выбранный битрейт : 768 kBit/s
Качество : Высокий
Добавление ID3-тэга : Нет
Утилита сжатия : D:\Program Files\Exact Audio Copy\Flac\Flac.exe
Дополнительные параметры : -8 –delete-input-file -o "D:\CDImage.flac" -V %s


TOC извлечённого CD

Трек | Старт | Длительность | Начальный сектор | Конечный сектор
––––––––––––––––––––––––––––––––––-
1 | 0:00.00 | 4:02.37 | 0 | 18186
2 | 4:02.37 | 7:26.18 | 18187 | 51654
3 | 11:28.55 | 5:27.42 | 51655 | 76221
4 | 16:56.22 | 7:14.05 | 76222 | 108776
5 | 24:10.27 | 6:54.03 | 108777 | 139829
6 | 31:04.30 | 2:29.60 | 139830 | 151064
7 | 33:34.15 | 6:47.62 | 151065 | 181651
8 | 40:22.02 | 5:51.50 | 181652 | 208026
9 | 46:13.52 | 4:40.70 | 208027 | 229096
10 | 50:54.47 | 4:22.40 | 229097 | 248786
11 | 55:17.12 | 8:52.25 | 248787 | 288711


Характеристики диапазона извлечения и сообщения об ошибках

Выбранный диапазон

Имя файла D:\Steve Hackett - The Tokyo Tapes (Disc 2).wav

Пиковый уровень 100.0 %
Качество диапазона 100.0 %
CRC теста C32A1048
CRC копии C32A1048
Копирование… OK

Ошибок не произошло


AccurateRip: сводка

Трек 1 точность не определена (достоверность 2) [7D6895D0], AccurateRip вернул [D67F082D]
Трек 2 точность не определена (достоверность 2) [A1A76C2B], AccurateRip вернул [0A62728C]
Трек 3 точность не определена (достоверность 2) [7378C4EA], AccurateRip вернул [25CA6871]
Трек 4 точность не определена (достоверность 2) [40CB2ECD], AccurateRip вернул [478A4853]
Трек 5 точность не определена (достоверность 2) [BAC22599], AccurateRip вернул [A6E4DF84]
Трек 6 точность не определена (достоверность 2) [512C4F78], AccurateRip вернул [EB3695C0]
Трек 7 точность не определена (достоверность 2) [7C9E93BB], AccurateRip вернул [4CE79F31]
Трек 8 точность не определена (достоверность 2) [BFCB9DCB], AccurateRip вернул [55EE15E9]
Трек 9 точность не определена (достоверность 2) [98D79D22], AccurateRip вернул [7956483B]
Трек 10 точность не определена (достоверность 2) [113472D0], AccurateRip вернул [1AA18C53]
Трек 11 точность не определена (достоверность 2) [A9BF6BE5], AccurateRip вернул [CBB921F5]

Ни один трек не прошёл проверки на точность
В вашей базе может быть иной вариант штамповки диска

Конец отчёта


Many thanks to the original uploader: orbster


Genesis 1969 From Genesis To Revelation (Japan, 2004)
Genesis 2004 Platinum Collection [3CD-Box]

GTR 1986 GTR

Phil Collins 1985 No Jacket Required [Deluxe Edition, 2016] 2CD
Phil Collins 2002 Testify [Deluxe Edition, 2016] 2CD
Phil Collins 2004 Finally…The First Farewell Tour [2xDVD]

Steve Hackett 1975 Voyage Of The Acolyte [Remastered 2005]
Steve Hackett 1975 Voyage Of The Acolyte [Japan Mini-LP CD 2006]
Steve Hackett 1978 Please Don't Touch! [UK 1st Press, 1989]
Steve Hackett 1978 Please Don't Touch! [Remastered 2005]
Steve Hackett 1978 Please Don't Touch! [Japan Mini-LP CD 2006]
Steve Hackett 1979 Spectral Mornings [UK 1st Press, 1989]
Steve Hackett 1979 Spectral Mornings [Remastered 2005]
Steve Hackett 1979 Spectral Mornings [Japan Mini-LP CD 2006]
Steve Hackett 1980 Defector [UK 1st Press, 1989]
Steve Hackett 1980 Defector [Japan Mini-LP CD 2006]
Steve Hackett 1981 Cured [Remastered 2007]
Steve Hackett 1983 Highly Strung [Reissue 1989]
Steve Hackett 1983 Bay Of Kings [Japanese Ed. 2007]
Steve Hackett 1984 Till We Have Faces
Steve Hackett 1997 A Midsummer Night's Dream
Steve Hackett 1999 Darktown
Steve Hackett 2000 Feedback 86
Steve Hackett 2001 The Tokyo Tapes: Live In Japan [DVD9]
Steve Hackett 2005 Metamorpheus
Steve Hackett 2005 Spectral Mornings [DVD5]
Steve Hackett 2006 Wild Orchids
Steve Hackett 2006 Wild Orchids [Special Ed.]
Steve Hackett 2008 Tribute
Steve Hackett 2009 Out Of The Tunnel's Mouth
Steve Hackett 2010 Out Of The Tunnel's Mouth [Special Ed.] 2CD
Steve Hackett 2011 Fire And Ice [DVD9]
Steve Hackett 2013 Genesis Revisited II: Selection
Steve Hackett 2015 Wolflight [Special Ed.]
––––––––––
Nitroflare