Steve Hackett - Darktown (1999)

Posted By: Andi_Deris
Steve Hackett - Darktown (1999)

Steve Hackett - Darktown (1999)
EAC Rip | FLAC: Image+Cue+Log | 370 Mb | MP3 CBR 320 kbps | 178 Mb | Scans | Time: 56:38
Genre: Progressive Rock, Eclectic Prog | Label: Camino Records | Cat.: CAMCD17

Darktown is the 17th album of his solo career and the first since Guitar Noir (1993). Darktown was Hackett's first completely original rock album in five years and is, without question, the darkest and most ominous album of his career. The album is full of contrasts and this adds to the special flavor: There are light moments in the dark, fast and slow parts, rhythmic and floating music, warm-hearted and cold-blooded bits – let’s take a closer look.

Steve Hackett - Darktown (1999)




Track Listing

01. Omega Metallicus (03:48)
02. Darktown (04:59)
03. Man Overboard (04:17)
04. The Golden Age Of Steam (04:09)
05. Days Of Long Ago (03:23)
06. Dreaming With Open Eyes (06:54)
07. Twice Around The Sun (07:15)
08. Rise Again (04:26)
09. Jane Austen's Door (06:13)
10. Darktown Riot (03:10)
11. In Memoriam (07:59)

Produced by Steve Hackett

Musicians

• Steve Hackett - guitar, harmonica, piano, strings, violin, vocals, choir, chorus, 12 string guitar, woodwind, rainstick, sequencing, orchestration, 12-string bass guitar, nylon string guitar, voiceover
• Billy Budis - cello
• Julian Colbeck - keyboards
• Hugo Degenhardt - drums
• Jim Diamond - vocals
• Ben Fenner - mellotron
• Bob Fenner - guitar, recorder
• Aron Friedman - piano, keyboards
• John Hackett - flute, pan pipes
• Roger King - bass, drums, flageolet, keyboards, woodwind, wood
• Ian McDonald - saxophone
• Jerry Peal - strings, bells, woodwind
• Doug Sinclair - bass, fretless bass
• John Wetton - bass samples

Notes

It was reissued in 2013 with 3 bonus tracks.

Exact Audio Copy V0.99 prebeta 5 from 4. May 2009

Отчёт EAC об извлечении, выполненном 6. мая 2011, 19:12

Steve Hackett / Darktown

Дисковод: PIONEER DVD-RW DVR-115D Adapter: 1 ID: 0

Режим чтения : Достоверность
Использование точного потока : Да
Отключение кэша аудио : Да
Использование указателей C2 : Нет

Коррекция смещения при чтении : 48
Способность читать области Lead-in и Lead-out : Нет
Заполнение пропущенных сэмплов тишиной : Да
Удаление блоков с тишиной в начале и конце : Нет
При вычислениях CRC использовались нулевые сэмплы : Да
Интерфейс : Установленный внешний ASPI-интерфейс

Выходной формат : Внутренние WAV-операции
Формат сэмплов : 44.100 Гц; 16 бит; стерео


TOC извлечённого CD

Трек | Старт | Длительность | Начальный сектор | Конечный сектор
––––––––––––––––––––––––––––––––––-
1 | 0:00.00 | 3:48.21 | 0 | 17120
2 | 3:48.21 | 4:59.44 | 17121 | 39589
3 | 8:47.65 | 4:17.36 | 39590 | 58900
4 | 13:05.26 | 4:09.19 | 58901 | 77594
5 | 17:14.45 | 3:23.15 | 77595 | 92834
6 | 20:37.60 | 6:54.59 | 92835 | 123943
7 | 27:32.44 | 7:15.17 | 123944 | 156585
8 | 34:47.61 | 4:26.30 | 156586 | 176565
9 | 39:14.16 | 6:13.04 | 176566 | 204544
10 | 45:27.20 | 3:10.33 | 204545 | 218827
11 | 48:37.53 | 7:59.65 | 218828 | 254817


Характеристики диапазона извлечения и сообщения об ошибках

Выбранный диапазон

Имя файла K:\Lossless MUSIC Archive\Art Rock\England\Steve Hackett\14 - Steve Hackett - Darktown - 1999 (Camino Records 1999, CAMCD17)\Steve Hackett - Darktown.wav

Пиковый уровень 94.4 %
Качество диапазона 100.0 %
CRC теста 62D76E31
CRC копии 62D76E31
Копирование… OK

Ошибок не произошло


AccurateRip: сводка

Трек 1 точное извлечение (доверие 39) [0E2EAAD4]
Трек 2 точное извлечение (доверие 39) [75EE058C]
Трек 3 точное извлечение (доверие 39) [D3E505FD]
Трек 4 точное извлечение (доверие 39) [30DE2A4C]
Трек 5 точное извлечение (доверие 39) [2FF8BFA1]
Трек 6 точное извлечение (доверие 39) [3661C5C0]
Трек 7 точное извлечение (доверие 39) [1AC45CFB]
Трек 8 точное извлечение (доверие 39) [8BA09813]
Трек 9 точное извлечение (доверие 39) [EF047ED9]
Трек 10 точное извлечение (доверие 39) [AA2C8834]
Трек 11 точное извлечение (доверие 39) [132A23A3]

Все треки извлечены точно

Конец отчёта


Many thanks to the original uploader: Swamp Fox


Genesis 1969 From Genesis To Revelation (Japan, 2004)
Genesis 2004 Platinum Collection [3CD-Box]

GTR 1986 GTR

Phil Collins 1985 No Jacket Required [Deluxe Edition, 2016] 2CD
Phil Collins 2002 Testify [Deluxe Edition, 2016] 2CD
Phil Collins 2004 Finally…The First Farewell Tour [2xDVD]

Steve Hackett 1975 Voyage Of The Acolyte [Remastered 2005]
Steve Hackett 1975 Voyage Of The Acolyte [Japan Mini-LP CD 2006]
Steve Hackett 1978 Please Don't Touch! [UK 1st Press, 1989]
Steve Hackett 1978 Please Don't Touch! [Remastered 2005]
Steve Hackett 1978 Please Don't Touch! [Japan Mini-LP CD 2006]
Steve Hackett 1979 Spectral Mornings [UK 1st Press, 1989]
Steve Hackett 1979 Spectral Mornings [Remastered 2005]
Steve Hackett 1979 Spectral Mornings [Japan Mini-LP CD 2006]
Steve Hackett 1980 Defector [UK 1st Press, 1989]
Steve Hackett 1980 Defector [Japan Mini-LP CD 2006]
Steve Hackett 1981 Cured [Remastered 2007]
Steve Hackett 1983 Highly Strung [Reissue 1989]
Steve Hackett 1983 Bay Of Kings [Japanese Ed. 2007]
Steve Hackett 1984 Till We Have Faces
Steve Hackett 1997 A Midsummer Night's Dream
Steve Hackett 1998 The Tokyo Tapes [SH Records, 2000] 2CD
Steve Hackett 2000 Feedback 86
Steve Hackett 2001 The Tokyo Tapes: Live In Japan [DVD9]
Steve Hackett 2005 Metamorpheus
Steve Hackett 2005 Spectral Mornings [DVD5]
Steve Hackett 2006 Wild Orchids
Steve Hackett 2006 Wild Orchids [Special Ed.]
Steve Hackett 2008 Tribute
Steve Hackett 2009 Out Of The Tunnel's Mouth
Steve Hackett 2010 Out Of The Tunnel's Mouth [Special Ed.] 2CD
Steve Hackett 2011 Fire And Ice [DVD9]
Steve Hackett 2013 Genesis Revisited II: Selection
Steve Hackett 2015 Wolflight [Special Ed.]
––––––––––
Nitroflare