Steve Hackett - Wild Orchids (2006)

Posted By: Andi_Deris
Steve Hackett - Wild Orchids (2006)

Steve Hackett - Wild Orchids (2006)
EAC Rip | FLAC: Image+Cue+Log | 349 Mb | MP3 CBR 320 kbps | 156 Mb | Scans | 68 Mb | Time: 57:28
Genre: Progressive Rock, Art Rock, Symphonic Rock | Label: InsideOut Music | Cat.: SPV 79172 CD

Wild Orchids is an art rock album released by Steve Hackett in 2006. It follows on from the success of the previous studio outings To Watch The Storms in 2003 and Metamorpheus in 2005. Steve Hackett proves once more that it is possible to flirt and experiment with new musical directions without losing one’s own profile. Some listeners may feel cowed by the plenty of styles and sounds on offer, while others may appreciate this boundlessness. With the oscillations between band and orchestral sounds and electronic and production experiments Wild Orchids may be the closest thing to realization of Hackett’s musical visions. When one listens to this album one feels that this is not just another album but perhaps the most ambitious offering of Hackett’s whole career. One has to listen carefully and closely.

Steve Hackett - Wild Orchids (2006)




Steve Hackett - Wild Orchids (2006)


Track Listing

01. A Dark Night In Toytown (03:39)
02. Waters Of The Wild (05:36)
03. Set Your Compass (03:38)
04. Down Street (07:34)
05. A Girl Called Linda (04:47)
06. To A Close (04:49)
07. Ego And Id (04:09)
08. Man In The Long Black Coat (05:10)
09. Wolfwork (04:50)
10. Why (00:47)
11. She Moves In Memories (05:00)
12. The Fundamentals Of Brainwashing (03:01)
13. Howl (04:32)

Produced by Steve Hackett

Musicians

• Steve Hackett - Guitars, Electric Sitar, Harmonica, Psaltery, Optigan & Voices
• Roger King - Keyboards and Programming, and Rhythm Guitar on "Down Street"
• John Hackett - Principal Flute on "To A Close", "She Moves in Memories", "Cedars of Lebanon" & Riff Guitar on "Ego & Id"
• Rob Townsend - Saxes, Principal Flute on "Linda", Alto Flute on "She Moves in Memories", Tin Whistle and Bass Clarinet
• Gary O'Toole - Drums and Harmony Voices
• Nick Magnus - Keyboards on "Ego & Id"

• The Underworld Orchestra: Christine Townsend - Principal Violin, Viola; Richard Stewart - Cello; Dick Driver - Double Bass; Colin Clague - Trumpet; Chris Redgate - Oboe, Cor Anglais

Exact Audio Copy V0.99 prebeta 5 from 4. May 2009

Отчёт EAC об извлечении, выполненном 7. сентября 2011, 16:14

Steve Hackett / Wild Orchids

Дисковод: PIONEER DVD-RW DVR-115D Adapter: 1 ID: 0

Режим чтения : Достоверность
Использование точного потока : Да
Отключение кэша аудио : Да
Использование указателей C2 : Нет

Коррекция смещения при чтении : 48
Способность читать области Lead-in и Lead-out : Нет
Заполнение пропущенных сэмплов тишиной : Да
Удаление блоков с тишиной в начале и конце : Нет
При вычислениях CRC использовались нулевые сэмплы : Да
Интерфейс : Установленный внешний ASPI-интерфейс

Выходной формат : Внутренние WAV-операции
Формат сэмплов : 44.100 Гц; 16 бит; стерео


TOC извлечённого CD

Трек | Старт | Длительность | Начальный сектор | Конечный сектор
––––––––––––––––––––––––––––––––––-
1 | 0:00.00 | 3:38.63 | 0 | 16412
2 | 3:38.63 | 5:35.29 | 16413 | 41566
3 | 9:14.17 | 3:37.48 | 41567 | 57889
4 | 12:51.65 | 7:33.66 | 57890 | 91930
5 | 20:25.56 | 4:46.35 | 91931 | 113415
6 | 25:12.16 | 4:48.47 | 113416 | 135062
7 | 30:00.63 | 4:07.73 | 135063 | 153660
8 | 34:08.61 | 5:09.37 | 153661 | 176872
9 | 39:18.23 | 4:49.22 | 176873 | 198569
10 | 44:07.45 | 0:46.70 | 198570 | 202089
11 | 44:54.40 | 4:59.50 | 202090 | 224564
12 | 49:54.15 | 3:00.66 | 224565 | 238130
13 | 52:55.06 | 4:31.59 | 238131 | 258514


Характеристики диапазона извлечения и сообщения об ошибках

Выбранный диапазон

Имя файла M:\Lossless Temp\Steve Hackett\17 - Steve Hackett - Wild Orchids - 2006 (Inside Out Music 2006, SPV 79172 CD)\Steve Hackett - Wild Orchids.wav

Пиковый уровень 92.1 %
Качество диапазона 100.0 %
CRC теста F429B1DD
CRC копии F429B1DD
Копирование… OK

Ошибок не произошло


AccurateRip: сводка

Трек 1 точное извлечение (доверие 4) [3664FA50]
Трек 2 точное извлечение (доверие 4) [7ED70E64]
Трек 3 точное извлечение (доверие 4) [E6FAAEFD]
Трек 4 точное извлечение (доверие 4) [8A9D63F9]
Трек 5 точное извлечение (доверие 4) [F6C16AEA]
Трек 6 точное извлечение (доверие 4) [6120152C]
Трек 7 точное извлечение (доверие 4) [188099B7]
Трек 8 точное извлечение (доверие 4) [2B7EFC5D]
Трек 9 точное извлечение (доверие 4) [FF6ED75D]
Трек 10 точное извлечение (доверие 4) [D4A00F5E]
Трек 11 точное извлечение (доверие 4) [C898C158]
Трек 12 точное извлечение (доверие 4) [711DFEE3]
Трек 13 точное извлечение (доверие 4) [22154ACA]

Все треки извлечены точно

Конец отчёта


Many thanks to the original uploader: Swamp Fox


Genesis 1969 From Genesis To Revelation (Japan, 2004)
Genesis 2004 Platinum Collection [3CD-Box]

GTR 1986 GTR

Phil Collins 1985 No Jacket Required [Deluxe Edition, 2016] 2CD
Phil Collins 2002 Testify [Deluxe Edition, 2016] 2CD
Phil Collins 2004 Finally…The First Farewell Tour [2xDVD]

Steve Hackett 1975 Voyage Of The Acolyte [Remastered 2005]
Steve Hackett 1975 Voyage Of The Acolyte [Japan Mini-LP CD 2006]
Steve Hackett 1978 Please Don't Touch! [UK 1st Press, 1989]
Steve Hackett 1978 Please Don't Touch! [Remastered 2005]
Steve Hackett 1978 Please Don't Touch! [Japan Mini-LP CD 2006]
Steve Hackett 1979 Spectral Mornings [UK 1st Press, 1989]
Steve Hackett 1979 Spectral Mornings [Remastered 2005]
Steve Hackett 1979 Spectral Mornings [Japan Mini-LP CD 2006]
Steve Hackett 1980 Defector [UK 1st Press, 1989]
Steve Hackett 1980 Defector [Japan Mini-LP CD 2006]
Steve Hackett 1981 Cured [Remastered 2007]
Steve Hackett 1983 Highly Strung [Reissue 1989]
Steve Hackett 1983 Bay Of Kings [Japanese Ed. 2007]
Steve Hackett 1984 Till We Have Faces
Steve Hackett 1997 A Midsummer Night's Dream
Steve Hackett 1998 The Tokyo Tapes [SH Records, 2000] 2CD
Steve Hackett 1999 Darktown
Steve Hackett 2000 Feedback 86
Steve Hackett 2001 The Tokyo Tapes: Live In Japan [DVD9]
Steve Hackett 2005 Metamorpheus
Steve Hackett 2005 Spectral Mornings [DVD5]
Steve Hackett 2006 Wild Orchids [Special Ed.]
Steve Hackett 2008 Tribute
Steve Hackett 2009 Out Of The Tunnel's Mouth
Steve Hackett 2010 Out Of The Tunnel's Mouth [Special Ed.] 2CD
Steve Hackett 2011 Fire And Ice [DVD9]
Steve Hackett 2013 Genesis Revisited II: Selection
Steve Hackett 2015 Wolflight [Special Ed.]
––––––––––
Nitroflare