Subcategories

Steve Lukather ‎– Candyman (1994) [Japanese Edition]

Posted By: hill0
Steve Lukather ‎– Candyman (1994) [Japanese Edition]

Steve Lukather ‎– Candyman (1994) [Japanese Edition]
EAC Rip | FLAC (image & cue & log) | 492 MB | MP3 CBR 320 kbps | 167 MB | Scans (JPG) | 57 MB | 01:12:59
Genre: Progressive Rock | Country: USA | Label: Sony Records | SRCS 7320

Candyman is the second solo album from Steve Lukather. It was a collaboration of musicians who were for the most part also in Lukather's band Los Lobotomys. Toto familiars Simon Phillips and David Paich participated as well as David Garfield, John Pêna, Chris Trujillo, Lenny Castro, Larry Klimas, Fee Waybill, Richard Page and Paul Rodgers. Lukather recorded the album in mostly live takes with little overdubbing.There was some confusion about whether Candyman was a Steve Lukather album or a Los Lobotomys album. The Japanese and US releases of Candyman were under the Los Lobotomys name rather than Lukather's; the Japanese release also featured a version of the Hendrix song "Red House." The European release of Candyman was credited to Lukather alone. Additionally, the touring band for the album was sometimes introduced as "Steve Lukather and Los Lobotomys" and sometimes as just "Los Lobotomys."

The song "Borrowed Time" was released as a single in Europe and included "Red House" as a B-side.
wikipedia
Steve Lukather ‎– Candyman (1994) [Japanese Edition]



Tracklist :

1. Hero With A 1000 Eyes
2. Freedom
3. Extinction Blues
4. Born Yesterday
5. Never Walk Alone
6. Party In Simon's Pants
7. Borrowed Time
8. Never Let Them See You Cry
9. Froth
10.The Bomber
11.Song For Jeff

Exact Audio Copy V1.0 beta 3 from 29. August 2011

EAC extraction logfile from 23. December 2013, 0:16

Steve Lukather / Candyman

Used drive : PIONEER DVDRW DVR-K17B Adapter: 0 ID: 0

Read mode : Secure
Utilize accurate stream : Yes
Defeat audio cache : Yes
Make use of C2 pointers : No

Read offset correction : 48
Overread into Lead-In and Lead-Out : No
Fill up missing offset samples with silence : Yes
Delete leading and trailing silent blocks : No
Null samples used in CRC calculations : Yes
Used interface : Native Win32 interface for Win NT & 2000
Gap handling : Appended to previous track

Used output format : User Defined Encoder
Selected bitrate : 512 kBit/s
Quality : High
Add ID3 tag : No
Command line compressor : C:\Program Files\Exact Audio Copy\Flac\flac.exe
Additional command line options : -8 -V -T "ARTIST=%artist%" -T "TITLE=%title%" -T "ALBUM=%albumtitle%" -T "DATE=%year%" -T "TRACKNUMBER=%tracknr%" -T "TOTALTRACKS=%numtracks%" -T "GENRE=%genre%" -T "ALBUMARTIST=%albumartist%" -T "ALBUM ARTIST=%albumartist%" -T "COMMENT=EAC Secure Mode, Test & Copy, AccurateRip, FLAC -8" %source%


TOC of the extracted CD

Track | Start | Length | Start sector | End sector
––––––––––––––––––––––––––––-
1 | 0:00.00 | 6:31.37 | 0 | 29361
2 | 6:31.37 | 4:07.60 | 29362 | 47946
3 | 10:39.22 | 4:59.25 | 47947 | 70396
4 | 15:38.47 | 7:07.68 | 70397 | 102489
5 | 22:46.40 | 9:42.05 | 102490 | 146144
6 | 32:28.45 | 5:45.12 | 146145 | 172031
7 | 38:13.57 | 7:20.20 | 172032 | 205051
8 | 45:34.02 | 5:03.35 | 205052 | 227811
9 | 50:37.37 | 9:40.55 | 227812 | 271366
10 | 60:18.17 | 5:32.10 | 271367 | 296276
11 | 65:50.27 | 7:08.68 | 296277 | 328444


Track 1

Filename D:\Georgi My RIPS\Steve Lukather - Candyman\01 - Hero With A 1,000 Eyes.wav

Pre-gap length 0:00:02.00

Peak level 100.0 %
Extraction speed 2.0 X
Track quality 100.0 %
Test CRC C1D2F880
Copy CRC C1D2F880
Accurately ripped (confidence 6) [53D95596] (AR v2)
Copy OK

Track 2

Filename D:\Georgi My RIPS\Steve Lukather - Candyman\02 - Freedom.wav

Peak level 100.0 %
Extraction speed 2.2 X
Track quality 100.0 %
Test CRC 49E23E56
Copy CRC 49E23E56
Accurately ripped (confidence 6) [B527234A] (AR v2)
Copy OK

Track 3

Filename D:\Georgi My RIPS\Steve Lukather - Candyman\03 - Extinction Blues.wav

Peak level 100.0 %
Extraction speed 2.4 X
Track quality 100.0 %
Test CRC BCCB844B
Copy CRC BCCB844B
Accurately ripped (confidence 6) [69D2A689] (AR v2)
Copy OK

Track 4

Filename D:\Georgi My RIPS\Steve Lukather - Candyman\04 - Born Yesterday.wav

Peak level 100.0 %
Extraction speed 2.6 X
Track quality 99.9 %
Test CRC E7AF89C6
Copy CRC E7AF89C6
Accurately ripped (confidence 6) [360B083E] (AR v2)
Copy OK

Track 5

Filename D:\Georgi My RIPS\Steve Lukather - Candyman\05 - Never Walk Alone.wav

Peak level 100.0 %
Extraction speed 3.1 X
Track quality 100.0 %
Test CRC 81E9EB64
Copy CRC 81E9EB64
Accurately ripped (confidence 6) [8F32E716] (AR v2)
Copy OK

Track 6

Filename D:\Georgi My RIPS\Steve Lukather - Candyman\06 - Party In Simon's Pants.wav

Peak level 100.0 %
Extraction speed 3.2 X
Track quality 100.0 %
Test CRC 8CD05FA2
Copy CRC 8CD05FA2
Accurately ripped (confidence 6) [4E3220CE] (AR v2)
Copy OK

Track 7

Filename D:\Georgi My RIPS\Steve Lukather - Candyman\07 - Borrowed Time.wav

Peak level 100.0 %
Extraction speed 3.5 X
Track quality 100.0 %
Test CRC 3B7B81F8
Copy CRC 3B7B81F8
Accurately ripped (confidence 6) [6940D555] (AR v2)
Copy OK

Track 8

Filename D:\Georgi My RIPS\Steve Lukather - Candyman\08 - Never Let Them See You Cry.wav

Peak level 100.0 %
Extraction speed 3.2 X
Track quality 99.9 %
Test CRC 778C3604
Copy CRC 778C3604
Accurately ripped (confidence 6) [72591037] (AR v2)
Copy OK

Track 9

Filename D:\Georgi My RIPS\Steve Lukather - Candyman\09 - Froth.wav

Peak level 100.0 %
Extraction speed 3.9 X
Track quality 100.0 %
Test CRC 5D5FCF20
Copy CRC 5D5FCF20
Accurately ripped (confidence 6) [00E8809F] (AR v2)
Copy OK

Track 10

Filename D:\Georgi My RIPS\Steve Lukather - Candyman\10 - The Bomber.wav

Peak level 100.0 %
Extraction speed 3.9 X
Track quality 100.0 %
Test CRC E5566A55
Copy CRC E5566A55
Accurately ripped (confidence 6) [0EDF0613] (AR v2)
Copy OK

Track 11

Filename D:\Georgi My RIPS\Steve Lukather - Candyman\11 - Song For Jeff.wav

Peak level 100.0 %
Extraction speed 4.1 X
Track quality 100.0 %
Test CRC 0C98DB0F
Copy CRC 0C98DB0F
Accurately ripped (confidence 6) [D161B447] (AR v2)
Copy OK


All tracks accurately ripped

No errors occurred

End of status report

–– CUETools DB Plugin V2.1.3

[CTDB TOCID: mF7s2HKN08esvMYECBjCewuszqo-] disk not present in database, Submit result: mF7s2HKN08esvMYECBjCewuszqo- has been uploaded


==== Log checksum 3504D7DA5284DAE32BF7F74FA0BEB770FB66AE31231250E2780F09ACECDB9C4B ====

[CUETools log; Date: 27.07.2016 12:33:38; Version: 2.1.5]
[CTDB TOCID: mF7s2HKN08esvMYECBjCewuszqo-] found.
Track | CTDB Status
1 | (8/8) Accurately ripped
2 | (8/8) Accurately ripped
3 | (8/8) Accurately ripped
4 | (8/8) Accurately ripped
5 | (8/8) Accurately ripped
6 | (8/8) Accurately ripped
7 | (8/8) Accurately ripped
8 | (8/8) Accurately ripped
9 | (8/8) Accurately ripped
10 | (8/8) Accurately ripped
11 | (8/8) Accurately ripped
[AccurateRip ID: 001cf36e-00fe8def-9b111b0b] found.
Track [ CRC | V2 ] Status
01 [1128a430|53d95596] (04+10/14) Accurately ripped
02 [be6f7df6|b527234a] (04+10/14) Accurately ripped
03 [aeedcecb|69d2a689] (04+10/14) Accurately ripped
04 [f38cd26c|360b083e] (04+10/14) Accurately ripped
05 [23a12ef6|8f32e716] (04+10/14) Accurately ripped
06 [ef296ae4|4e3220ce] (04+10/14) Accurately ripped
07 [8ee7083f|6940d555] (04+10/14) Accurately ripped
08 [b2e699d3|72591037] (04+10/14) Accurately ripped
09 [034470a4|00e8809f] (04+10/14) Accurately ripped
10 [e805694f|0edf0613] (04+10/14) Accurately ripped
11 [1894dcf1|d161b447] (04+10/14) Accurately ripped

Track Peak [ CRC32 ] [W/O NULL] [ LOG ]
– 100,0 [C2E689C2] [06B17AB3]
01 100,0 [C1D2F880] [C676460A] CRC32
02 100,0 [49E23E56] [72DBDD7D] CRC32
03 100,0 [BCCB844B] [4F6FB290] CRC32
04 100,0 [E7AF89C6] [3BBA21B7] CRC32
05 100,0 [81E9EB64] [CDBF462B] CRC32
06 100,0 [8CD05FA2] [4B441C6A] CRC32
07 100,0 [3B7B81F8] [78445CC3] CRC32
08 100,0 [778C3604] [F03D71F1] CRC32
09 100,0 [5D5FCF20] [EF371BB9] CRC32
10 100,0 [E5566A55] [E977BA81] CRC32
11 100,0 [0C98DB0F] [11CB4909] CRC32


Musicians

Backing Vocals – Fee Waybill, Kevin Curry (2), Richard Page
Bass – John Peña
Drums – Simon Phillips
Keyboards – David Garfield
Lead Vocals, Backing Vocals, Guitar, Producer – Steve Lukather
Organ – David Paich
Percussion – Chris Trujillo, Lenny Castro
Saxophone – Larry Klimas

Steve Lukather ‎– Candyman (1994) [Japanese Edition]

All thanks goes to ggeorgi59
=====