Subcategories

Steve Morse Band - Out Standing In Their Field (2009)

Posted By: hill0
Steve Morse Band - Out Standing In Their Field (2009)

Steve Morse Band - Out Standing In Their Field (2009)
EAC Rip | FLAC (tracks & cue & log) | 384 MB | MP3 CBR 320 kbps | 129 MB | Scans | 54:52
Genre: Guitar Virtuoso / Instrumental Rock | Country: USA | Label: Ear Music | 0199152ERE

Out Standing in Their Field is the eleventh studio album by guitarist Steve Morse, released on September 29, 2009 through Eagle Rock Entertainment.
Steve Morse Band - Out Standing In Their Field (2009)

Although Steve Vai and Joe Satriani get the lion's share of the credit for popularizing "instrumental guitar-driven rock" for metalheads in the late '80s, another gentleman was merrily shredding on the six-string around this same era (and issuing all-instrumental recordings, as well) – Steve Morse. And despite a full-time gig as Ritchie Blackmore's replacement in Deep Purple since 1994, Morse has managed to find the time along the way to reunite with his trusty rhythm section of bassist Dave LaRue and drummer Van Romaine, and issue albums credited solely to the Steve Morse Band. Case in point, the trio's 2009 offering, Out Standing in Their Field. Times and tastes may change in the rock world on a seemingly moment to moment basis, but you always know what's in store with a new Morse Band release – tunes that include unmistakable Zeppelin-esque grooves ("Name Dropping"), mellow detours ("Here and Now and Then"), and of course, chicken-pickin' country ditties ("John Deere Letter"). As far as technique goes, Morse can shred and pluck with the most dexterous of six-string slingers – further proven with the arrival of Out Standing in Their Field.
Review by Greg Prato



Tracklist:

1. Name Dropping (5:02)
2. Brink Of The Edge (4:46)
3. Here And Now And Then (5:10)
4. Relentless Encroachment (4:58)
5. John Deere Letter (4:45)
6. More To The Point (4:31)
7. Time Junction (5:18)
8. Unnamed Sources (4:33)
9. Flight Of The Osprey (3:23)
10. Baroque 'N Dreams (3:18)
11. Rising Power (Live) (9:28)

Exact Audio Copy V0.99 prebeta 4 from 23. January 2008

EAC extraction logfile from 14. October 2009, 22:34

Steve Morse Band / Out Standing In Their Field

Used drive : ASUS DRW-20B1LT Adapter: 2 ID: 0

Read mode : Secure
Utilize accurate stream : Yes
Defeat audio cache : Yes
Make use of C2 pointers : No

Read offset correction : 6
Overread into Lead-In and Lead-Out : No
Fill up missing offset samples with silence : Yes
Delete leading and trailing silent blocks : No
Null samples used in CRC calculations : Yes
Used interface : Native Win32 interface for Win NT & 2000
Gap handling : Appended to previous track

Used output format : User Defined Encoder
Selected bitrate : 768 kBit/s
Quality : High
Add ID3 tag : No
Command line compressor : C:\Program Files\Exact Audio Copy\Flac\flac.exe
Additional command line options : -8 -V -T "ARTIST=%a" -T "TITLE=%t" -T "ALBUM=%g" -T "DATE=%y" -T "TRACKNUMBER=%n" -T "GENRE=%m" -T "COMMENT=EAC FLAC -8" %s

TOC of the extracted CD

Track | Start | Length | Start sector | End sector
––––––––––––––––––––––––––––-
1 | 0:00.00 | 4:59.71 | 0 | 22495
2 | 4:59.71 | 4:43.42 | 22496 | 43762
3 | 9:43.38 | 5:07.43 | 43763 | 66830
4 | 14:51.06 | 4:55.54 | 66831 | 89009
5 | 19:46.60 | 4:43.37 | 89010 | 110271
6 | 24:30.22 | 4:29.10 | 110272 | 130456
7 | 28:59.32 | 5:16.04 | 130457 | 154160
8 | 34:15.36 | 4:31.21 | 154161 | 174506
9 | 38:46.57 | 3:21.29 | 174507 | 189610
10 | 42:08.11 | 3:16.29 | 189611 | 204339
11 | 45:24.40 | 9:27.68 | 204340 | 246932

Track 1

Filename D:\01 - Name Dropping.wav

Pre-gap length 0:00:02.00

Peak level 100.0 %
Track quality 100.0 %
Test CRC B9595F21
Copy CRC B9595F21
Copy OK

Track 2

Filename D:\02 - Brink Of The Edge.wav

Peak level 100.0 %
Track quality 99.9 %
Test CRC 34D198C3
Copy CRC 34D198C3
Copy OK

Track 3

Filename D:\03 - Here And Now And Then.wav

Peak level 100.0 %
Track quality 100.0 %
Test CRC 54C1802B
Copy CRC 54C1802B
Copy OK

Track 4

Filename D:\04 - Relentless Encroachment.wav

Peak level 100.0 %
Track quality 100.0 %
Test CRC 075261DA
Copy CRC 075261DA
Copy OK

Track 5

Filename D:\05 - John Deere Leter.wav

Peak level 100.0 %
Track quality 100.0 %
Test CRC C7FE1FA8
Copy CRC C7FE1FA8
Copy OK

Track 6

Filename D:\06 - More To The Point.wav

Peak level 100.0 %
Track quality 100.0 %
Test CRC AD16F40A
Copy CRC AD16F40A
Copy OK

Track 7

Filename D:\07 - Time Junction.wav

Peak level 100.0 %
Track quality 100.0 %
Test CRC D5EDB410
Copy CRC D5EDB410
Copy OK

Track 8

Filename D:\08 - Unnamed Sources.wav

Peak level 100.0 %
Track quality 99.9 %
Test CRC 7747381D
Copy CRC 7747381D
Copy OK

Track 9

Filename D:\09 - Flight Of The Osprey.wav

Peak level 100.0 %
Track quality 100.0 %
Test CRC C5648144
Copy CRC C5648144
Copy OK

Track 10

Filename D:\10 - Baroque 'N Dreams.wav

Peak level 100.0 %
Track quality 100.0 %
Test CRC 0B9C540A
Copy CRC 0B9C540A
Copy OK

Track 11

Filename D:\11 - Rising Power (Live).wav

Pre-gap length 0:00:03.33

Peak level 100.0 %
Track quality 100.0 %
Test CRC 429CDDF0
Copy CRC 429CDDF0
Copy OK

No errors occurred

End of status report


Personnel

- Steve Morse / all guitars except
- Dave La Rue / bass guitars
- Van Romaine / drums and percussion
Featured Guest:
- Kevin Morse / guitar

All thanks to J Jesus

Steve Morse Band - Out Standing In Their Field (2009)