Subcategories

Steve Tibbetts & Choying Drolma - Selwa (2004) {Six Degrees}

Posted By: tiburon
Steve Tibbetts & Choying Drolma - Selwa (2004) {Six Degrees}

Steve Tibbetts & Choying Drolma - Selwa (2004) {Six Degrees}
EAC 1.0b3 | FLAC Image level 6 | Cue+Log | Full Scans 300dpi | 241MB + 5% Recovery
Genre: Ethnic, Ambient, Ethnic Fusion
Steve Tibbetts & Choying Drolma - Selwa (2004) {Six Degrees}

SELWA marks the second pairing of fusion guitarist Steve Tibbetts with Tibetan Buddhist nun Choying Drolma. Like 1997's CHO, SELWA is a deeply atmospheric, musically adventurous journey that remains true to the spiritual underpinnings of Drolma's practice. A monk whose resonant, mellifluous vocals evoke both the solemnity and the serenity of her chants and prayers, Drolma's singing gifts strike the listener immediately. Even more striking is how perfectly Tibbetts's percussion, effects-drenched guitar work, and production flourishes suit Drolma's voice. Tibbetts's accompaniment is supremely sensitive, supporting and echoing Drolma's phrases and inflections with a variety of suitable instrumentation.
Track List
01. Padmakara 1:19
02. Palden Rangjung 2:55
03. Vakritunda 4:14
04. Kyamdro Semkye 1:49
05. Gayatri 4:10
06. Song Of Realization 8:56
07. Yumchen Tukar 5:39
08. Mandala Offering 6:24
09. Chenrezi 3:24
10. Chendren 5:29
11. Je Lama 2:10

musicians
Choying Drolma - vocals
Steve Tibbetts - all instruments and engineering
Marc Anderson - instruments and engineering
Lodro Sangmo - additional vocals
Sherab Palmo - additional vocals

Produced by Lee Townsend


Exact Audio Copy V1.0 beta 3 from 29. August 2011

EAC extraction logfile from 30. May 2014, 16:45

Choying Drolma & Steve Tibbetts / Selwa

Used drive : Optiarc DVD RW AD-7250H Adapter: 1 ID: 0

Read mode : Secure
Utilize accurate stream : Yes
Defeat audio cache : No
Make use of C2 pointers : No

Read offset correction : 48
Overread into Lead-In and Lead-Out : No
Fill up missing offset samples with silence : Yes
Delete leading and trailing silent blocks : No
Null samples used in CRC calculations : Yes
Used interface : Native Win32 interface for Win NT & 2000

Used output format : User Defined Encoder
Selected bitrate : 768 kBit/s
Quality : High
Add ID3 tag : No
Command line compressor : C:\Program Files (x86)\Exact Audio Copy\FLAC\FLAC.EXE
Additional command line options : -6 -V -T "ARTIST=%artist%" -T "TITLE=%title%" -T "ALBUM=%albumtitle%" -T "DATE=%year%" -T "TRACKNUMBER=%tracknr%" -T "GENRE=%genre%" -T "COMMENT=%comment%" -T "BAND=%albuminterpret%" -T "ALBUMARTIST=%albuminterpret%" -T "COMPOSER=%composer%" %haslyrics%–tag-from-file=LYRICS="%lyricsfile%"%haslyrics% -T "DISCNUMBER=%cdnumber%" -T "TOTALDISCS=%totalcds%" -T "TOTALTRACKS=%numtracks%" %hascover%–picture="%coverfile%"%hascover% %source% -o %dest%


TOC of the extracted CD

Track | Start | Length | Start sector | End sector
––––––––––––––––––––––––––––-
1 | 0:00.00 | 1:19.65 | 0 | 5989
2 | 1:19.65 | 2:55.06 | 5990 | 19120
3 | 4:14.71 | 4:14.38 | 19121 | 38208
4 | 8:29.34 | 1:49.69 | 38209 | 46452
5 | 10:19.28 | 4:10.21 | 46453 | 65223
6 | 14:29.49 | 8:56.42 | 65224 | 105465
7 | 23:26.16 | 5:39.64 | 105466 | 130954
8 | 29:06.05 | 6:24.74 | 130955 | 159828
9 | 35:31.04 | 3:24.34 | 159829 | 175162
10 | 38:55.38 | 5:29.43 | 175163 | 199880
11 | 44:25.06 | 2:10.49 | 199881 | 209679


Range status and errors

Selected range

Filename C:\Users\Zoli\Music\Rip\Choying Drolma & Steve Tibbetts - Selwa\Choying Drolma & Steve Tibbetts - Selwa.wav

Peak level 100.0 %
Extraction speed 5.9 X
Range quality 100.0 %
Copy CRC 6240E41E
Copy OK

No errors occurred


AccurateRip summary

Track 1 accurately ripped (confidence 11) [1A08E15C] (AR v2)
Track 2 accurately ripped (confidence 11) [59DB7E5F] (AR v2)
Track 3 accurately ripped (confidence 11) [12D7DBD9] (AR v2)
Track 4 accurately ripped (confidence 11) [3E8A7306] (AR v2)
Track 5 accurately ripped (confidence 11) [7110620A] (AR v2)
Track 6 accurately ripped (confidence 11) [437C3EF8] (AR v2)
Track 7 accurately ripped (confidence 11) [3DFFFD52] (AR v2)
Track 8 accurately ripped (confidence 11) [AFF5E39D] (AR v2)
Track 9 accurately ripped (confidence 10) [67A24107] (AR v2)
Track 10 accurately ripped (confidence 10) [B97D28B0] (AR v2)
Track 11 accurately ripped (confidence 10) [8457BDC7] (AR v2)

All tracks accurately ripped

End of status report


––––––––––––––––––––––––––––––––––––––––
Analyzed: Choying Drolma & Steve Tibbetts / Selwa
––––––––––––––––––––––––––––––––––––––––

DR Peak RMS Duration Track
––––––––––––––––––––––––––––––––––––––––
DR11 -5.73 dB -22.15 dB 1:20 01-Padmakara
DR11 -0.03 dB -14.27 dB 2:55 02-Palden Rangjung
DR11 0.00 dB -14.48 dB 4:15 03-Vakritunda
DR11 -0.06 dB -18.01 dB 1:50 04-Kyamdro Semkye
DR13 -1.06 dB -18.68 dB 4:10 05-Gayatri
DR12 -0.04 dB -16.79 dB 8:57 06-Song of Realization
DR13 -1.24 dB -18.69 dB 5:40 07-Yumcehn Tukar
DR12 -0.25 dB -17.21 dB 6:25 08-Mandala Offering
DR11 -3.42 dB -18.73 dB 3:24 09-Chenrezi
DR13 -3.95 dB -21.00 dB 5:30 10-Chendren
DR11 -12.33 dB -27.84 dB 2:11 11-Je Lama
––––––––––––––––––––––––––––––––––––––––

Number of tracks: 11
Official DR value: DR12

Samplerate: 44100 Hz
Channels: 2
Bits per sample: 16
Bitrate: 647 kbps
Codec: FLAC
================================================================================

Steve Tibbetts & Choying Drolma - Selwa (2004) {Six Degrees}
Steve Tibbetts & Choying Drolma - Selwa (2004) {Six Degrees}
Steve Tibbetts & Choying Drolma - Selwa (2004) {Six Degrees}


Rip by itr