Subcategories

Sting - My Songs (2019) {Special Edition, Japan}

Posted By: popsakov
Sting - My Songs (2019) {Special Edition, Japan}

Sting - My Songs (2019) {Special Edition, Japan}
EAC Rip | FLAC (Img) + Cue + Log ~ 947 Mb | MP3 CBR320 ~ 324 Mb
Full Scans ~ 147 Mb | 01:22:02 + 00:52:32 | RAR 5% Recovery
A&M Records / Interscope Records / CherryTree Records / Universal Music #UICA-1072/3
Pop Rock / Soft Rock

They're his songs, so he can do whatever he wants with them. That seems to be the idea behind My Songs, a 2019 collection where Sting decides to revisit 15 of his most famous songs and tweak them for modern audiences. The inspiration behind the project was an updated version of "Brand New Day," which he reworked at the end of 2018 not only so it'd have a shiny new arrangement for a New Year's Eve gig, but so the track could slide between Ariana Grande hits on a playlist. Happy with the results, he turned his attention to Sting and Police songs you know by heart, re-recording a few chestnuts outright, but usually satisfying his muse by stripping away old studio effects, swapping out lead vocals, and adding instruments and vocal harmonies along with numerous other minute but discernable changes. Apart from perhaps "Demolition Man," which is now awash with Hendrixian waves of guitar, none of the songs are turned inside-out: not only does the overall feel remain the same, but so do the basic arrangements. That doesn't mean the alterations on My Songs are unnoticeable; far from it, in fact. Sting's heavy hand is evident throughout My Songs. When he revisits the Police, it's hard to ignore how the contributions of Andy Summers and Stewart Copeland are either absent or muted, just like how it's impossible not to notice that the new vocals sound scraggly and weathered, not spry. Whether it's the early "If You Love Somebody Set Them Free," "If I Ever Lose My Faith in You," or the relatively recent "Brand New Day," the solo hits are awash with funk guitars and electronic rhythms suitable for an upscale mall. Of the two approaches, the latter could conceivably be called modern, but it can't be called fresh, which highlights the mystery at the core of My Songs. Despite the sometimes-jarring changes, the versions on My Songs still sound like the old tunes, raising the question of why Sting even bothered with this project.

~ Stephen Thomas Erlewine, All Music

***************

Track List CD1:

01. Brand New Day [3:57]
02. Desert Rose [3:57]
03. If You Love Somebody Set Them Free [4:35]
04. Every Breath You Take [4:16]
05. Demolition Man [4:18]
06. Can't Stand Losing You [2:49]
07. Fields Of Gold [3:47]
08. So Lonely [4:09]
09. Shape Of My Heart [4:43]
10. Message In A Bottle [4:46]
11. Fragile [3:53]
12. Walking On The Moon [4:16]
13. Englishman In New York [4:28]
14. If I Ever Lose My Faith In You [4:09]
15. Roxanne [Live] [2:57]
16. Synchronicity II [Live] [5:00]
17. Next To You [Live] [4:19]
18. Spirits In The Material World [Live] [3:58]
19. Fragile [Live] [4:00]
20. I Can't Stop Thinking About You [Live] [3:44]

Exact Audio Copy V1.3 from 2. September 2016

Отчёт EAC об извлечении, выполненном 17. ноября 2019, 16:29

Sting / My Songs [Bonus Tracks]

Дисковод: PLEXTOR DVDR PX-755A Adapter: 1 ID: 1

Режим чтения : Достоверность
Использование точного потока : Да
Отключение кэша аудио : Да
Использование указателей C2 : Нет

Коррекция смещения при чтении : 30
Способность читать области Lead-in и Lead-out : Нет
Заполнение пропущенных сэмплов тишиной : Да
Удаление блоков с тишиной в начале и конце : Нет
При вычислениях CRC использовались нулевые сэмплы : Да
Интерфейс : Встроенный Win32-интерфейс для Win NT/2000

Выходной формат : Пользовательский кодировщик
Выбранный битрейт : 128 kBit/s
Качество : Высокий
Добавление ID3-тега : Нет
Утилита сжатия : C:\Program Files (x86)\Exact Audio Copy\Flac\flac.exe
Дополнительные параметры : -V -8 -T "Date=%year%" -T "Genre=%genre%" %source%


TOC извлечённого CD

Трек | Старт | Длительность | Начальный сектор | Конечный сектор
––––––––––––––––––––––––––––––––––-
1 | 0:00.00 | 3:56.63 | 0 | 17762
2 | 3:56.63 | 3:56.43 | 17763 | 35505
3 | 7:53.31 | 4:35.29 | 35506 | 56159
4 | 12:28.60 | 4:16.35 | 56160 | 75394
5 | 16:45.20 | 4:17.63 | 75395 | 94732
6 | 21:03.08 | 2:49.26 | 94733 | 107433
7 | 23:52.34 | 3:46.54 | 107434 | 124437
8 | 27:39.13 | 4:09.11 | 124438 | 143123
9 | 31:48.24 | 4:43.34 | 143124 | 164382
10 | 36:31.58 | 4:46.23 | 164383 | 185855
11 | 41:18.06 | 3:52.51 | 185856 | 203306
12 | 45:10.57 | 4:16.01 | 203307 | 222507
13 | 49:26.58 | 4:28.17 | 222508 | 242624
14 | 53:55.00 | 4:09.36 | 242625 | 261335
15 | 58:04.36 | 2:57.30 | 261336 | 274640
16 | 61:01.66 | 4:59.60 | 274641 | 297125
17 | 66:01.51 | 4:18.62 | 297126 | 316537
18 | 70:20.38 | 3:57.41 | 316538 | 334353
19 | 74:18.04 | 3:59.65 | 334354 | 352343
20 | 78:17.69 | 3:43.59 | 352344 | 369127


Характеристики диапазона извлечения и сообщения об ошибках

Выбранный диапазон

Имя файла D:\РАЗДАЧА\Sting - My Songs - 2019 (2CD-Japan)\CD-1\Sting - My Songs [Bonus Tracks].wav

Пиковый уровень 100.0 %
Скорость извлечения 9.3 X
Качество диапазона 100.0 %
CRC теста BD26F292
CRC копии BD26F292
Копирование… OK

Ошибок не произошло


AccurateRip: сводка

Трек 1 точность не определена (достоверность 9) [B763C911], AccurateRip вернул [27025366] (AR v2)
Трек 2 точность не определена (достоверность 9) [DC2BE8B2], AccurateRip вернул [F734D620] (AR v2)
Трек 3 точность не определена (достоверность 9) [0DA13137], AccurateRip вернул [8F3B2A82] (AR v2)
Трек 4 точность не определена (достоверность 9) [D325FEA3], AccurateRip вернул [B4A2025D] (AR v2)
Трек 5 точность не определена (достоверность 9) [6E7CFF7D], AccurateRip вернул [F54F82F9] (AR v2)
Трек 6 точность не определена (достоверность 9) [CBC3AC13], AccurateRip вернул [A75A2574] (AR v2)
Трек 7 точность не определена (достоверность 9) [77E49B59], AccurateRip вернул [FA2EA73B] (AR v2)
Трек 8 точность не определена (достоверность 9) [2615914B], AccurateRip вернул [F3132F53] (AR v2)
Трек 9 точность не определена (достоверность 9) [F43E616B], AccurateRip вернул [5A034D8F] (AR v2)
Трек 10 точность не определена (достоверность 9) [08E49F11], AccurateRip вернул [1F6097A8] (AR v2)
Трек 11 точность не определена (достоверность 9) [2876154E], AccurateRip вернул [251DBE9F] (AR v2)
Трек 12 точность не определена (достоверность 9) [358B5923], AccurateRip вернул [95C8A27E] (AR v2)
Трек 13 точность не определена (достоверность 9) [823A9000], AccurateRip вернул [705A0F78] (AR v2)
Трек 14 точность не определена (достоверность 9) [3BF09E7F], AccurateRip вернул [1D2C53CC] (AR v2)
Трек 15 точность не определена (достоверность 9) [8CE8270A], AccurateRip вернул [5A225B62] (AR v2)
Трек 16 точность не определена (достоверность 9) [6F57FAFE], AccurateRip вернул [6DDBCF25] (AR v2)
Трек 17 точность не определена (достоверность 9) [B0E460AC], AccurateRip вернул [FE1B8514] (AR v2)
Трек 18 точность не определена (достоверность 9) [EC97FE8C], AccurateRip вернул [0599AD2E] (AR v2)
Трек 19 точность не определена (достоверность 9) [256BE9A5], AccurateRip вернул [48DB2050] (AR v2)
Трек 20 точность не определена (достоверность 9) [44B0AC03], AccurateRip вернул [BC09C953] (AR v2)

Ни один трек не прошёл проверки на точность
В вашей базе может быть иной вариант штамповки диска

Конец отчёта

–– CUETools DB Plugin V2.1.6

[CTDB TOCID: 6Uj0Q7ivSIoOxmcHxPZkktL3PUI-] found
Submit result: 6Uj0Q7ivSIoOxmcHxPZkktL3PUI- has been confirmed
Track | CTDB Status
1 | (64/64) Accurately ripped
2 | (64/64) Accurately ripped
3 | (64/64) Accurately ripped
4 | (64/64) Accurately ripped
5 | (64/64) Accurately ripped
6 | (64/64) Accurately ripped
7 | (64/64) Accurately ripped
8 | (64/64) Accurately ripped
9 | (64/64) Accurately ripped
10 | (64/64) Accurately ripped
11 | (64/64) Accurately ripped
12 | (64/64) Accurately ripped
13 | (64/64) Accurately ripped
14 | (64/64) Accurately ripped
15 | (64/64) Accurately ripped
16 | (64/64) Accurately ripped
17 | (64/64) Accurately ripped
18 | (64/64) Accurately ripped
19 | (61/64) Accurately ripped
20 | (64/64) Accurately ripped


==== Контрольная сумма отчёта F5FCD3D1BE5102510256B1C30F67E3C8712F69E3463E47BA740740DCED488B5C ====

Track List CD2:

01. Introduction - Message In A Bottle [Live] [5:21]
02. Englishman In New York [Live] [4:22]
03. Brand New Day [Live] [5:43]
04. Wrapped Around Your Finger [Live] [5:48]
05. Seven Days [Live] [4:36]
06. King Of Pain [Live] [5:43]
07. So Lonely [Live] [4:45]
08. Desert Rose [Live] [5:23]
09. Every Breath You Take [Live] [5:11]
10. Russians [Live] [2:05]
11. Fragile [Live] [3:33]

Exact Audio Copy V1.3 from 2. September 2016

Отчёт EAC об извлечении, выполненном 17. ноября 2019, 18:24

Sting / My Songs [Live]

Дисковод: PLEXTOR DVDR PX-755A Adapter: 1 ID: 1

Режим чтения : Достоверность
Использование точного потока : Да
Отключение кэша аудио : Да
Использование указателей C2 : Нет

Коррекция смещения при чтении : 30
Способность читать области Lead-in и Lead-out : Нет
Заполнение пропущенных сэмплов тишиной : Да
Удаление блоков с тишиной в начале и конце : Нет
При вычислениях CRC использовались нулевые сэмплы : Да
Интерфейс : Встроенный Win32-интерфейс для Win NT/2000

Выходной формат : Пользовательский кодировщик
Выбранный битрейт : 128 kBit/s
Качество : Высокий
Добавление ID3-тега : Нет
Утилита сжатия : C:\Program Files (x86)\Exact Audio Copy\Flac\flac.exe
Дополнительные параметры : -V -8 -T "Date=%year%" -T "Genre=%genre%" %source%


TOC извлечённого CD

Трек | Старт | Длительность | Начальный сектор | Конечный сектор
––––––––––––––––––––––––––––––––––-
1 | 0:00.00 | 5:20.60 | 0 | 24059
2 | 5:20.60 | 4:22.19 | 24060 | 43728
3 | 9:43.04 | 5:43.22 | 43729 | 69475
4 | 15:26.26 | 5:48.20 | 69476 | 95595
5 | 21:14.46 | 4:36.06 | 95596 | 116301
6 | 25:50.52 | 5:43.35 | 116302 | 142061
7 | 31:34.12 | 4:45.15 | 142062 | 163451
8 | 36:19.27 | 5:22.54 | 163452 | 187655
9 | 41:42.06 | 5:11.18 | 187656 | 210998
10 | 46:53.24 | 2:05.16 | 210999 | 220389
11 | 48:58.40 | 3:33.28 | 220390 | 236392


Характеристики диапазона извлечения и сообщения об ошибках

Выбранный диапазон

Имя файла D:\РАЗДАЧА\Sting - My Songs - 2019 (2CD-Japan)\CD-2\Sting - My Songs [Live].wav

Пиковый уровень 100.0 %
Скорость извлечения 8.1 X
Качество диапазона 100.0 %
CRC теста 8FD8563E
CRC копии 8FD8563E
Копирование… OK

Ошибок не произошло


AccurateRip: сводка

Трек 1 отсутствует в базе данных
Трек 2 отсутствует в базе данных
Трек 3 отсутствует в базе данных
Трек 4 отсутствует в базе данных
Трек 5 отсутствует в базе данных
Трек 6 отсутствует в базе данных
Трек 7 отсутствует в базе данных
Трек 8 отсутствует в базе данных
Трек 9 отсутствует в базе данных
Трек 10 отсутствует в базе данных
Трек 11 отсутствует в базе данных

Ни одного трека нет в базе AccurateRip

Конец отчёта

–– CUETools DB Plugin V2.1.6

[CTDB TOCID: gx7BhOPr0B5.OSwYIfhsgmmSWdU-] found
Submit result: gx7BhOPr0B5.OSwYIfhsgmmSWdU- has been confirmed
Track | CTDB Status
1 | (10/10) Accurately ripped
2 | (10/10) Accurately ripped
3 | (10/10) Accurately ripped
4 | (10/10) Accurately ripped
5 | (10/10) Accurately ripped
6 | (10/10) Accurately ripped
7 | (10/10) Accurately ripped
8 | (10/10) Accurately ripped
9 | (10/10) Accurately ripped
10 | (10/10) Accurately ripped
11 | (10/10) Accurately ripped


==== Контрольная сумма отчёта 94DDB418D62DC883144EA0729C19D3D0225D5F32BC7AB4C34E3C6052572580A7 ====

Sting - My Songs (2019) {Special Edition, Japan}


All thanks go to pishin

>>> Sting in my Blog <<<

DOWNLOAD: