Stone Temple Pilots - Albums Collection 1992-2010 (7CD) [Re-Up]

Posted By: Designol
Stone Temple Pilots - Albums Collection 1992-2010 (7CD) [Re-Up]

Stone Temple Pilots - Albums Collection 1992-2010 (7CD)
EAC | FLAC | Image (Cue&Log) ~ 2.47 Gb | Mp3 (CBR320) ~ 845 Mb | Scans included
Alternative Rock, Hard Rock, Grunge, Post-Grunge | Label: Atlantic | Time: 05:45:04

Collection includes all six studio albums and one compilation by American rock band Stone Temple Pilots. STP went on to become one of the most commercially successful rock bands of the 1990s, selling nearly 40 million records worldwide, including 17.5 million units in the United States, before their dissolution in 2003. The band has had 16 top ten singles on the Billboard rock charts, eight of which peaked at #1, and one #1 album for Purple in 1994. That same year, the band won a Grammy for "Best Hard Rock Performance" for the song "Plush" from the album Core. Stone Temple Pilots were also ranked #40 on VH1's The 100 Greatest Artists of Hard Rock.

Stone Temple Pilots were able to turn alternative rock into stadium rock; naturally, they became the most critically despised band of their era. Accused by many critics of being nothing more than ripoff artists who pilfered from Pearl Jam, Soundgarden, and Alice in Chains, the bandmates nevertheless became major stars in 1993. And the influence of those bands was apparent in their music, although Stone Temple Pilots did manage to change things around a bit. STP were more concerned with tight song structure and riffs than punk rage. Their closest antecedents were not the Sex Pistols or Hüsker Dü; instead the band resembled arena rock acts from the '70s – they made popular hard rock that sounded good on the radio and in concert. No matter what the critics said, Stone Temple Pilots had undeniably catchy riffs and production; there's a reason why over three million people bought their debut album, Core, and why their second album, Purple, shot to number one when it was released.

Following the success of Purple and its accompanying tour, the band took some time off, during which the group's lead singer, Scott Weiland, developed a heroin addiction. In the spring of 1995, he was arrested for possession of heroin and cocaine, and was sentenced to a rehabilitation program. Following his completion of the program, Stone Temple Pilots recorded their third album. Released in the spring of 1996, Tiny Music…Songs from the Vatican Gift Shop, entered the charts at number four. Shortly after its release, Stone Temple Pilots announced that Weiland had relapsed and entered a drug rehabilitation facility, thereby canceling the group's plans for a summer tour. Weiland's drug problems and the group's inability to support Tiny Music with a tour meant that the album couldn't replicate the success of its predecessors – by the end of the summer, it had fallen out of the Top 50 and stalled at platinum, which was considerably less than what the group's two previous albums achieved.

Still battling his personal demons, Weiland recorded a 1998 solo album, 12 Bar Blues, while the remaining members of STP recruited vocalist Dave Coutts to record a self-titled LP under the band name Talk Show. To the surprise of many, Stone Temple Pilots then reunited, although shortly after completing 1999's No. 4, Weiland was sentenced to a year in a Los Angeles county jail for violating his probation, which stemmed from an earlier conviction for heroin possession. Even so, a newly rejuvenated Stone Temple Pilots and a sober Weiland emerged stronger than ever during the new millennium. The band got back to basics with Shangri-La Dee Da, released in summer 2001. Two years later, STP issued the ambitious greatest-hits package Thank You. The audio-only edition featured 15 tracks – 13 hits spanning the group's entire career, an acoustic version of "Plush" dating from 1992, and the new track "All in the Suit That You Wear" – while a special CD/DVD format included three hours of videos, live performances, and behind-the-scenes footage.

Stone Temple Pilots took another break between 2003 and 2008, during which time Weiland found renewed success as the frontman of Velvet Revolver. After clashes with his bandmates resulted in his exit from the group, Weiland reunited with STP and embarked on a successful reunion tour in 2008, with ticket sales reportedly totaling $230,000 per show. The band returned to the studio one year later, emerging in 2010 with the release of Stone Temple Pilots, its self-titled sixth album. It reached number two on the U.S. album charts, and the band embarked on a worldwide tour that wound up being documented on the 2011 live video Alive in the Windy City. STP were planning to continue a tour in 2012, possibly playing their Core debut in its entirety, but these plans fell apart, and on February 27, 2013 the group announced they had fired Weiland.

On the following day, the singer countered that this was all a ruse to boost ticket sales and that lawyers would straighten out the situation, but the remaining members of Stone Temple Pilots soldiered on without him, appearing as a surprise guest on KROQ's annual Weenie Roast on May 18, 2013. Their new vocalist was Chester Bennington from Linkin Park; he not only performed with the band on May 18 and 19 (the latter was in San Francisco), but he sang lead on the group's new single, "Out of Time," which was available for download on May 19, 2013. Bennington toured with the band until 2015, when he returned to his efforts with Linkin Park. Later that year, on December 3, Weiland was found dead in Bloomington, Minnesota while on tour with his band the Wildabouts. Following Bennington's departure, Stone Temple Pilots set out to find his replacement by holding auditions online. Before they could announce a new singer, Bennington committed suicide on July 20, 2017.

Biography by Stephen Thomas Erlewine, Allmusic.com

Stone Temple Pilots - Albums Collection 1992-2010 (7CD) [Re-Up]





Stone Temple Pilots - Albums Collection 1992-2010 (7CD) [Re-Up]

Stone Temple Pilots - Core (1992)
EAC | FLAC | Image (Cue&Log) ~ 397 Mb | Mp3 (CBR320) ~ 130 Mb
Label: Atlantic | # 7 82418-2 | Time: 00:53:37 | Scans included

Stone Temple Pilots were positively vilified once their 1992 debut, Core, started scaling the charts in 1993, pegged as fifth-rate Pearl Jam copyists. It is true that the worst moments of Core play like a parody of the Seattle scene – titles like "Dead and Bloated" and "Crackerman" tell you that much, playing like really bad Alice in Chains parodies, and the entire record tends to sink into gormless post-grunge sludge. Furthermore, even if it rocks pretty hard, it's usually without much character, sounding like cut-rate grunge. To be fair, it's more that they share the same influences as their peers than being overt copycats, but it's still a little disheartening all the same. If that's all that Core was, it'd be as forgettable as Seven Mary Three, but there are the hits that propelled it up the charts, songs that have remarkably stood the test of time to be highlights of their era. "Sex Type Thing" may have a clumsy anti-rape lyric that comes across as misogynist, but it survives on its terrifically lunk-headed riff, while "Wicked Garden" is a surprisingly effective piece of revivalist acid rock. Then, there's the slow acoustic crawl of "Creep" that works as well as anything on AIC's Sap and, finally, "Plush," a majestic album rock revival more melodic and stylish than anything grunge produced outside of Nirvana itself. These four songs aren't enough to salvage a fairly pedestrian debut, but they do find STP to be nimble rock craftsmen when inspiration hits.

Review by Stephen Thomas Erlewine, Allmusic.com

Tracklist:

01. Dead & Bloated (05:10)
02. Sex Type Thing (03:38)
03. Wicked Garden (04:05)
04. No Memory (01:20)
05. Sin (06:05)
06. Naked Sunday (03:49)
07. Creep (05:33)
08. Piece Of Pie (05:24)
09. Plush (05:14)
10. Wet My Bed (01:36)
11. Crackerman (03:14)
12. Where The River Goes (08:25)


Exact Audio Copy V0.99 prebeta 5 from 4. May 2009

Отчёт EAC об извлечении, выполненном 10. сентября 2009, 13:38

Stone Temple Pilots / Core

Дисковод: TEAC DV-W516GA Adapter: 0 ID: 0

Режим чтения : Достоверность
Использование точного потока : Да
Отключение кэша аудио : Да
Использование указателей C2 : Нет

Коррекция смещения при чтении : 12
Способность читать области Lead-in и Lead-out : Нет
Заполнение пропущенных сэмплов тишиной : Да
Удаление блоков с тишиной в начале и конце : Нет
При вычислениях CRC использовались нулевые сэмплы : Да
Интерфейс : Встроенный Win32-интерфейс для Win NT/2000

Выходной формат : Внутренние WAV-операции
Формат сэмплов : 44.100 Гц; 16 бит; стерео


TOC извлечённого CD

Трек | Старт | Длительность | Начальный сектор | Конечный сектор
––––––––––––––––––––––––––––––––––-
1 | 0:00.32 | 5:10.23 | 32 | 23304
2 | 5:10.55 | 3:38.53 | 23305 | 39707
3 | 8:49.33 | 4:05.25 | 39708 | 58107
4 | 12:54.58 | 1:20.27 | 58108 | 64134
5 | 14:15.10 | 6:05.05 | 64135 | 91514
6 | 20:20.15 | 3:49.20 | 91515 | 108709
7 | 24:09.35 | 5:33.22 | 108710 | 133706
8 | 29:42.57 | 5:24.36 | 133707 | 158042
9 | 35:07.18 | 5:14.05 | 158043 | 181597
10 | 40:21.23 | 1:36.50 | 181598 | 188847
11 | 41:57.73 | 3:14.20 | 188848 | 203417
12 | 45:12.18 | 8:25.55 | 203418 | 241347


Характеристики диапазона извлечения и сообщения об ошибках

Выбранный диапазон

Имя файла C:\Documents and Settings\glebov\Мои документы\Stone Temple Pilots - Core\Stone Temple Pilots - Core.wav

Пиковый уровень 100.0 %
Качество диапазона 100.0 %
CRC копии 9EA43A5A
Копирование… OK

Ошибок не произошло


AccurateRip: сводка

Трек 1 точное извлечение (доверие 11) [C1A4D656]
Трек 2 точное извлечение (доверие 11) [4401EB82]
Трек 3 точное извлечение (доверие 11) [C9CE95CF]
Трек 4 точное извлечение (доверие 11) [5D179316]
Трек 5 точное извлечение (доверие 11) [860419ED]
Трек 6 точное извлечение (доверие 11) [43301FBE]
Трек 7 точное извлечение (доверие 11) [6B6F8143]
Трек 8 точное извлечение (доверие 11) [F8A28967]
Трек 9 точное извлечение (доверие 11) [8BFBD433]
Трек 10 точное извлечение (доверие 11) [9F44405C]
Трек 11 точное извлечение (доверие 11) [33081C2F]
Трек 12 точное извлечение (доверие 12) [7D90ECB5]

Все треки извлечены точно

Конец отчёта

[CUETools log; Date: 11.10.2017 18:28:35; Version: 2.1.4]
Pregap length 00:00:32.
[CTDB TOCID: 7xhpSTjEVMoTLQpfl7wVYoOdzEo-] found.
Track | CTDB Status
1 | (139/142) Accurately ripped
2 | (139/142) Accurately ripped
3 | (141/142) Accurately ripped
4 | (142/142) Accurately ripped
5 | (140/142) Accurately ripped
6 | (141/142) Accurately ripped
7 | (142/142) Accurately ripped
8 | (141/142) Accurately ripped
9 | (141/142) Accurately ripped
10 | (141/142) Accurately ripped
11 | (140/142) Accurately ripped
12 | (140/142) Accurately ripped
[AccurateRip ID: 0016c5fb-00d58378-950c910c] found.
Track [ CRC | V2 ] Status
01 [c1a4d656|3520dfe3] (029+062/154) Accurately ripped
02 [4401eb82|f35f28e6] (030+063/155) Accurately ripped
03 [c9ce95cf|8825d039] (029+063/155) Accurately ripped
04 [5d179316|645d1946] (030+062/152) Accurately ripped
05 [860419ed|f17e4ee5] (030+062/156) Accurately ripped
06 [43301fbe|29e469c0] (030+062/154) Accurately ripped
07 [6b6f8143|11a47555] (030+063/154) Accurately ripped
08 [f8a28967|9f5aa8a5] (030+062/152) Accurately ripped
09 [8bfbd433|40de5ac6] (030+063/156) Accurately ripped
10 [9f44405c|b4bb717d] (030+062/154) Accurately ripped
11 [33081c2f|c4fcbbe7] (029+062/152) Accurately ripped
12 [7d90ecb5|68221a7e] (030+061/151) Accurately ripped
Offsetted by 92:
01 [7bd4e0cd] (032/154) Accurately ripped
02 [9487b8d1] (032/155) Accurately ripped
03 [7b0a3f40] (031/155) Accurately ripped
04 [90036307] (030/152) Accurately ripped
05 [e90e42ce] (033/156) Accurately ripped
06 [d3307933] (030/154) Accurately ripped
07 [ed1238cf] (031/154) Accurately ripped
08 [e002de69] (030/152) Accurately ripped
09 [ad4df492] (032/156) Accurately ripped
10 [7c5aa895] (031/154) Accurately ripped
11 [2309bb38] (030/152) Accurately ripped
12 [06aa2763] (029/151) Accurately ripped
Offsetted by -695:
01 [4bb288b1] (000/154) No match (V2 was not tested)
02 [fdef8cea] (000/155) No match (V2 was not tested)
03 [8cc3a322] (000/155) No match (V2 was not tested)
04 [748011fd] (000/152) No match (V2 was not tested)
05 [945b803d] (000/156) No match (V2 was not tested)
06 [764036c7] (000/154) No match (V2 was not tested)
07 [a4fb56a1] (000/154) No match (V2 was not tested)
08 [d87ec16e] (000/152) No match (V2 was not tested)
09 [465ada5d] (000/156) No match (V2 was not tested)
10 [58868438] (000/154) No match (V2 was not tested)
11 [984dda43] (000/152) No match (V2 was not tested)
12 [cc8ff919] (000/151) No match (V2 was not tested)

Track Peak [ CRC32 ] [W/O NULL] [ LOG ]
– 100,0 [9EA43A5A] [9F789DE5] CRC32
01 97,2 [FAB38062] [0E305592]
02 94,6 [866D54A3] [E3AE2C59]
03 97,2 [AF69E9D6] [193E3424]
04 48,8 [6F91F212] [172B6444]
05 85,0 [F95C49E0] [DDB5F5C6]
06 100,0 [062D8F64] [343E5283]
07 100,0 [BBC144CA] [52E1F43B]
08 92,0 [EAD513CD] [7769D7EE]
09 97,2 [7D95F112] [5D6CF75D]
10 43,0 [78F3C46B] [22D4D0E8]
11 98,1 [061FBB05] [63767EA8]
12 97,2 [AD8DCEFA] [A94A1792]

foobar2000 1.2 / Dynamic Range Meter 1.1.1
log date: 2017-10-11 20:31:47

––––––––––––––––––––––––––––––––––––––––
Analyzed: Stone Temple Pilots / Core
––––––––––––––––––––––––––––––––––––––––

DR Peak RMS Duration Track
––––––––––––––––––––––––––––––––––––––––
DR9 -0.24 dB -10.88 dB 5:10 01-Dead & Bloated
DR8 -0.48 dB -9.53 dB 3:39 02-Sex Type Thing
DR8 -0.24 dB -9.30 dB 4:05 03-Wicked Garden
DR9 -6.22 dB -18.50 dB 1:20 04-No Memory
DR9 -1.40 dB -11.97 dB 6:05 05-Sin
DR10 0.00 dB -10.92 dB 3:49 06-Naked Sunday
DR11 0.00 dB -12.93 dB 5:33 07-Creep
DR9 -0.72 dB -10.53 dB 5:24 08-Piece Of Pie
DR9 -0.24 dB -11.43 dB 5:14 09-Plush
DR14 -7.32 dB -22.52 dB 1:37 10-Wet My Bed
DR9 -0.16 dB -11.02 dB 3:14 11-Crackerman
DR9 -0.24 dB -10.83 dB 8:26 12-Where The River Goes
––––––––––––––––––––––––––––––––––––––––

Number of tracks: 12
Official DR value: DR9

Samplerate: 44100 Hz
Channels: 2
Bits per sample: 16
Bitrate: 1015 kbps
Codec: FLAC
================================================================================




Stone Temple Pilots - Albums Collection 1992-2010 (7CD) [Re-Up]

Stone Temple Pilots - Purple (1994)
EAC | FLAC | Image (Cue&Log) ~ 331 Mb | Mp3 (CBR320) ~ 120 Mb
Label: Atlantic | # 82607-2 | Time: 00:46:59 | Scans included

Stone Temple Pilots had hits with Core, but they got no respect. They suffered a barrage of savage criticism and it must have hurt, since their second effort seems a conscious effort to distinguish themselves as a band not indebted to grunge. That didn't get them anywhere, as they were attacked as viciously as before, but Purple is nevertheless a quantum leap over their debut, showcasing a band hitting its stride. They still aren't much for consistency, and there's more than a fair share of filler over this album's "12 Gracious Melodies." Still, this filler isn't cut-rate grunge, as it was on the debut; it has its own character, heavily melodic and slightly psychedelic. That's a fair assessment of the hits, as well, but there's a difference there – namely, expert song and studiocraft. Yes, they were considerably more mainstream than their peers, but time has proven that that's their primary charm, since they were unafraid to temper their grunge with big arena hooks and swirling melodies. It works particularly well on the tight, concise "Vasoline" and the acoustic-based "Pretty Penny," but it really shines on the record's two masterpieces, "Big Empty" and "Interstate Love Song." "Big Empty" is ominous and foreboding, yet remains anthemic, a perfect encapsulation of mainstream alienation that is surpassed only by "Interstate Love Song," a concise epic as alluring as the open highway. These two songs are so good (really, mainstream hard rock didn't get better than these two cuts) that the unevenness of the rest of the record is all the more frustrating, but the filler here is better than before – and those singles are proof positive that STP was the best straight-ahead rock singles outfit of their time.

Review by Stephen Thomas Erlewine, Allmusic.com

Tracklist:

01. Meat Plow (03:37)
02. Vasoline (02:56)
03. Lounge Fly (05:18)
04. Interstate Love Song (03:14)
05. Still Remains (03:33)
06. Pretty Penny (03:42)
07. Silvergun Superman (05:16)
08. Big Empty (04:54)
09. 'Unglued' (02:34)
10. Army Ants (03:46)
11. Kitchenware & Candybars (08:06)


Exact Audio Copy V0.99 prebeta 5 from 4. May 2009

Отчёт EAC об извлечении, выполненном 10. сентября 2009, 10:08

Stone Temple Pilots / Purple

Дисковод: TEAC DV-W516GA Adapter: 0 ID: 0

Режим чтения : Достоверность
Использование точного потока : Да
Отключение кэша аудио : Да
Использование указателей C2 : Нет

Коррекция смещения при чтении : 12
Способность читать области Lead-in и Lead-out : Нет
Заполнение пропущенных сэмплов тишиной : Да
Удаление блоков с тишиной в начале и конце : Нет
При вычислениях CRC использовались нулевые сэмплы : Да
Интерфейс : Встроенный Win32-интерфейс для Win NT/2000

Выходной формат : Внутренние WAV-операции
Формат сэмплов : 44.100 Гц; 16 бит; стерео


TOC извлечённого CD

Трек | Старт | Длительность | Начальный сектор | Конечный сектор
––––––––––––––––––––––––––––––––––-
1 | 0:00.33 | 3:37.67 | 33 | 16374
2 | 3:38.25 | 2:56.20 | 16375 | 29594
3 | 6:34.45 | 5:18.58 | 29595 | 53502
4 | 11:53.28 | 3:14.37 | 53503 | 68089
5 | 15:07.65 | 3:33.03 | 68090 | 84067
6 | 18:40.68 | 3:42.05 | 84068 | 100722
7 | 22:22.73 | 5:16.32 | 100723 | 124454
8 | 27:39.30 | 4:54.30 | 124455 | 146534
9 | 32:33.60 | 2:34.03 | 146535 | 158087
10 | 35:07.63 | 3:46.32 | 158088 | 175069
11 | 38:54.20 | 8:06.05 | 175070 | 211524


Характеристики диапазона извлечения и сообщения об ошибках

Выбранный диапазон

Имя файла C:\Documents and Settings\glebov\Мои документы\Srone Temple Pilots - Purple\Stone Temple Pilots - Purple.wav

Пиковый уровень 99.5 %
Качество диапазона 100.0 %
CRC копии 9FD4EC8D
Копирование… OK

Ошибок не произошло


AccurateRip: сводка

Трек 1 точное извлечение (доверие 20) [0A40DEB8]
Трек 2 точное извлечение (доверие 19) [C992BC82]
Трек 3 точное извлечение (доверие 19) [4A785F02]
Трек 4 точное извлечение (доверие 19) [1BA73CED]
Трек 5 точное извлечение (доверие 19) [69FA9E38]
Трек 6 точное извлечение (доверие 20) [D6F845A8]
Трек 7 точное извлечение (доверие 20) [3AF69086]
Трек 8 точное извлечение (доверие 20) [B006AB25]
Трек 9 точное извлечение (доверие 20) [6AFA1399]
Трек 10 точное извлечение (доверие 19) [5A097365]
Трек 11 точное извлечение (доверие 20) [3630D34F]

Все треки извлечены точно

Конец отчёта

[CUETools log; Date: 11.10.2017 18:29:24; Version: 2.1.4]
Pregap length 00:00:33.
[CTDB TOCID: Dno2YeFlq3Zbj25btrw9dxp795I-] found.
Track | CTDB Status
1 | (92/93) Accurately ripped
2 | (92/93) Accurately ripped
3 | (92/93) Accurately ripped
4 | (92/93) Accurately ripped
5 | (92/93) Accurately ripped
6 | (92/93) Accurately ripped
7 | (91/93) Accurately ripped
8 | (92/93) Accurately ripped
9 | (92/93) Accurately ripped
10 | (91/93) Accurately ripped
11 | (91/93) Accurately ripped
[AccurateRip ID: 0011d2bc-009c5328-850b040b] found.
Track [ CRC | V2 ] Status
01 [0a40deb8|4248cace] (36+58/94) Accurately ripped
02 [c992bc82|387870db] (35+59/94) Accurately ripped
03 [4a785f02|37a98c2e] (34+58/92) Accurately ripped
04 [1ba73ced|0740fb1a] (35+59/94) Accurately ripped
05 [69fa9e38|0e535c8c] (35+58/93) Accurately ripped
06 [d6f845a8|cad13047] (36+57/93) Accurately ripped
07 [3af69086|2f5b7dd5] (36+58/94) Accurately ripped
08 [b006ab25|4370e5dd] (36+59/95) Accurately ripped
09 [6afa1399|a0d8efae] (36+59/95) Accurately ripped
10 [5a097365|1b671026] (35+58/93) Accurately ripped
11 [3630d34f|c3b239b2] (36+58/94) Accurately ripped

Track Peak [ CRC32 ] [W/O NULL] [ LOG ]
– 99,5 [9FD4EC8D] [8E510276] CRC32
01 97,7 [A5CA6DFA] [554DA228]
02 97,7 [EB08BB3A] [F2FE82B3]
03 98,9 [3B8D3F93] [39CAFF81]
04 97,7 [8DBC25B8] [CEAB451D]
05 97,7 [02804C8E] [12B4FF3D]
06 93,3 [07789592] [DF71B094]
07 97,7 [89A27222] [FBBFB706]
08 97,7 [29601E88] [6716AF27]
09 99,5 [A68C1D56] [381B7C8F]
10 97,7 [4DE4C133] [52D33D71]
11 97,7 [4CB65F3E] [84BBF8DA]

foobar2000 1.2 / Dynamic Range Meter 1.1.1
log date: 2017-10-11 20:32:25

––––––––––––––––––––––––––––––––––––––––
Analyzed: Stone Temple Pilots / Purple
––––––––––––––––––––––––––––––––––––––––

DR Peak RMS Duration Track
––––––––––––––––––––––––––––––––––––––––
DR10 -0.20 dB -11.40 dB 3:38 01-Meat Plow
DR9 -0.20 dB -10.69 dB 2:56 02-Vasoline
DR9 -0.10 dB -11.32 dB 5:19 03-Lounge Fly
DR10 -0.20 dB -11.28 dB 3:14 04-Interstate Love Song
DR10 -0.20 dB -11.50 dB 3:33 05-Still Remains
DR13 -0.59 dB -15.38 dB 3:42 06-Pretty Penny
DR10 -0.20 dB -11.53 dB 5:16 07-Silvergun Superman
DR10 -0.20 dB -13.16 dB 4:54 08-Big Empty
DR8 -0.04 dB -8.95 dB 2:34 09-'Unglued'
DR10 -0.20 dB -11.96 dB 3:46 10-Army Ants
DR8 -0.20 dB -12.78 dB 8:06 11-Kitchenware & Candybars
––––––––––––––––––––––––––––––––––––––––

Number of tracks: 11
Official DR value: DR10

Samplerate: 44100 Hz
Channels: 2
Bits per sample: 16
Bitrate: 944 kbps
Codec: FLAC
================================================================================




Stone Temple Pilots - Albums Collection 1992-2010 (7CD) [Re-Up]

Stone Temple Pilots - Tiny Music…Songs From The Vatican Gift Shop (1996)
EAC | FLAC | Image (Cue&Log) ~ 293 Mb | Mp3 (CBR320) ~ 107 Mb
Label: Atlantic | # 7567-82871-2 | Time: 00:41:51 | Scans included

Purple established that Stone Temple Pilots were not one-album wonders but Tiny Music…Songs from the Vatican Gift Shop illustrates that the band aren't content with resting on their laurels. Without abandoning their trademark hard rock, STP have added a new array of sounds that lend depth to their immediately accessible hooks. Dean DeLeo layers his guitar tracks to create distinctive, multi-textured sounds that make his riffs more powerful. Though there are hints of grunge scattered throughout the album, what makes Tiny Music impressive is how the band brings in elements of psychedelia, trancy shoegaze, jangle pop, and other forms of melodic alternative guitar pop. By accentuating their pop tendencies in both their riffs and melodies, they are able to slip in a number of creative arrangements which manage to expand their musical repertoire significantly. Although the lyrics are nearly as ambitious as the music, they simply don't have the same weight. But with a band like Stone Temple Pilots, the music is what matters and Tiny Music showcases the band at their most tuneful and creative.

Review by Stephen Thomas Erlewine, Allmusic.com

Tracklist:

01. Press Play (01:21)
02. Pop's Love Suicide (03:43)
03. Tumble in the Rough (03:18)
04. Big Bang Baby (03:23)
05. Lady Picture Show (04:08)
06. And So I Know (03:57)
07. Trippin' on a Hole in a Paper Heart (02:56)
08. Art School Girl (03:35)
09. Adhesive (05:34)
10. Ride the Cliche (03:17)
11. Daisy (02:18)
12. Seven Caged Tigers (04:15)


Exact Audio Copy V0.99 prebeta 5 from 4. May 2009

Отчёт EAC об извлечении, выполненном 10. сентября 2009, 11:35

Stone Temple Pilots / Tiny Music…Songs from the Vatican Gift Shop

Дисковод: TEAC DV-W516GA Adapter: 0 ID: 0

Режим чтения : Достоверность
Использование точного потока : Да
Отключение кэша аудио : Да
Использование указателей C2 : Нет

Коррекция смещения при чтении : 12
Способность читать области Lead-in и Lead-out : Нет
Заполнение пропущенных сэмплов тишиной : Да
Удаление блоков с тишиной в начале и конце : Нет
При вычислениях CRC использовались нулевые сэмплы : Да
Интерфейс : Встроенный Win32-интерфейс для Win NT/2000

Выходной формат : Внутренние WAV-операции
Формат сэмплов : 44.100 Гц; 16 бит; стерео


TOC извлечённого CD

Трек | Старт | Длительность | Начальный сектор | Конечный сектор
––––––––––––––––––––––––––––––––––-
1 | 0:00.00 | 1:21.05 | 0 | 6079
2 | 1:21.05 | 3:43.17 | 6080 | 22821
3 | 5:04.22 | 3:18.50 | 22822 | 37721
4 | 8:22.72 | 3:23.58 | 37722 | 53004
5 | 11:46.55 | 4:08.65 | 53005 | 71669
6 | 15:55.45 | 3:57.50 | 71670 | 89494
7 | 19:53.20 | 2:56.47 | 89495 | 102741
8 | 22:49.67 | 3:35.20 | 102742 | 118886
9 | 26:25.12 | 5:34.43 | 118887 | 143979
10 | 31:59.55 | 3:17.60 | 143980 | 158814
11 | 35:17.40 | 2:18.47 | 158815 | 169211
12 | 37:36.12 | 4:15.08 | 169212 | 188344


Характеристики диапазона извлечения и сообщения об ошибках

Выбранный диапазон

Имя файла C:\Documents and Settings\glebov\Мои документы\Stone Temple Pilots - Tiny Music…Songs From The Vatican Gift Shop\Stone Temple Pilots - Tiny Music…Songs from the Vatican Gift Shop.wav

Пиковый уровень 98.7 %
Качество диапазона 100.0 %
CRC копии 68C946E5
Копирование… OK

Ошибок не произошло


AccurateRip: сводка

Трек 1 точность не определена (достоверность 37) [D4FB0CDA], AccurateRip вернул [70D7BF02]
Трек 2 точность не определена (достоверность 37) [F03920E5], AccurateRip вернул [0CA78C45]
Трек 3 точность не определена (достоверность 37) [67084621], AccurateRip вернул [20107D77]
Трек 4 точность не определена (достоверность 37) [C29DF035], AccurateRip вернул [60AD8E93]
Трек 5 точность не определена (достоверность 37) [0B8AEC3B], AccurateRip вернул [4697F743]
Трек 6 точность не определена (достоверность 37) [7618DBFE], AccurateRip вернул [08629588]
Трек 7 точность не определена (достоверность 37) [12655D5C], AccurateRip вернул [AAF28E37]
Трек 8 точность не определена (достоверность 37) [1BAF4654], AccurateRip вернул [08587ABC]
Трек 9 точность не определена (достоверность 36) [5862A4B7], AccurateRip вернул [310FDB32]
Трек 10 точность не определена (достоверность 36) [1D722ED6], AccurateRip вернул [327A3B76]
Трек 11 точность не определена (достоверность 36) [B52C59B9], AccurateRip вернул [8AB8B405]
Трек 12 точность не определена (достоверность 37) [22E3F82B], AccurateRip вернул [25080F41]

Ни один трек не прошёл проверки на точность
В вашей базе может быть иной вариант штамповки диска

Конец отчёта

[CUETools log; Date: 11.10.2017 18:30:12; Version: 2.1.4]
[CTDB TOCID: FQR0D_iAhv.jUyw2bubwvsMongA-] found.
Track | CTDB Status
1 | (246/247) Accurately ripped
2 | (246/247) Accurately ripped
3 | (246/247) Accurately ripped
4 | (246/247) Accurately ripped
5 | (244/247) Accurately ripped
6 | (243/247) Accurately ripped
7 | (246/247) Accurately ripped
8 | (245/247) Accurately ripped
9 | (243/247) Accurately ripped
10 | (245/247) Accurately ripped
11 | (245/247) Accurately ripped
12 | (245/247) Accurately ripped
[AccurateRip ID: 0011be17-00a98952-9f09cf0c] found.
Track [ CRC | V2 ] Status
01 [d4fb0cda|c37853bd] (000+010/192) Accurately ripped
02 [f03920e5|94699c82] (000+010/192) Accurately ripped
03 [67084621|d59e4b60] (000+010/193) Accurately ripped
04 [c29df035|e8a6a4e9] (000+010/192) Accurately ripped
05 [0b8aec3b|7644097b] (000+010/191) Accurately ripped
06 [7618dbfe|f4d4a847] (000+010/192) Accurately ripped
07 [12655d5c|d9ddcfbf] (000+010/193) Accurately ripped
08 [1baf4654|d0d13d3c] (000+010/193) Accurately ripped
09 [5862a4b7|16bed62a] (000+010/190) Accurately ripped
10 [1d722ed6|f05cf40e] (000+010/189) Accurately ripped
11 [b52c59b9|6dd10f20] (000+010/190) Accurately ripped
12 [22e3f82b|373c341f] (000+010/191) Accurately ripped
Offsetted by -42:
01 [7e0373b4] (002/192) Accurately ripped
02 [135dd39d] (002/192) Accurately ripped
03 [f7916b34] (002/193) Accurately ripped
04 [22ae03ac] (002/192) Accurately ripped
05 [135c365d] (002/191) Accurately ripped
06 [1a858924] (002/192) Accurately ripped
07 [64c7e39c] (002/193) Accurately ripped
08 [64baaa54] (002/193) Accurately ripped
09 [005d157d] (002/190) Accurately ripped
10 [d842a33e] (002/189) Accurately ripped
11 [149427ee] (002/190) Accurately ripped
12 [365f2a00] (002/191) Accurately ripped
Offsetted by 664:
01 [70d7bf02] (085/192) Accurately ripped
02 [0ca78c45] (086/192) Accurately ripped
03 [20107d77] (086/193) Accurately ripped
04 [60ad8e93] (086/192) Accurately ripped
05 [4697f743] (085/191) Accurately ripped
06 [08629588] (086/192) Accurately ripped
07 [aaf28e37] (086/193) Accurately ripped
08 [08587abc] (086/193) Accurately ripped
09 [310fdb32] (085/190) Accurately ripped
10 [327a3b76] (084/189) Accurately ripped
11 [8ab8b405] (084/190) Accurately ripped
12 [25080f41] (085/191) Accurately ripped

Track Peak [ CRC32 ] [W/O NULL] [ LOG ]
– 98,7 [68C946E5] [56A8814E] CRC32
01 73,8 [1A03B3F4] [8DF37741]
02 95,1 [657F0167] [EA721E27]
03 98,7 [284D6583] [9E57DD30]
04 95,8 [F36F6616] [90B7E91E]
05 97,7 [3F9E0FC4] [8970C899]
06 98,6 [ABF612AB] [6401BC5B]
07 98,5 [C1E968E1] [4FB4BE46]
08 98,6 [37E29BE9] [54B605D2]
09 98,6 [7994AB61] [EBCB031F]
10 98,6 [64D10588] [6406C6DE]
11 81,7 [3F7900B8] [51630C44]
12 98,6 [FED6874C] [962B5FD5]

foobar2000 1.2 / Dynamic Range Meter 1.1.1
log date: 2017-10-11 20:32:45

––––––––––––––––––––––––––––––––––––––––
Analyzed: Stone Temple Pilots / Tiny Music…Songs from the Vatican Gift Shop
––––––––––––––––––––––––––––––––––––––––

DR Peak RMS Duration Track
––––––––––––––––––––––––––––––––––––––––
DR10 -2.63 dB -15.30 dB 1:21 01-Press Play
DR8 -0.43 dB -10.01 dB 3:43 02-Pop's Love Suicide
DR8 -0.11 dB -9.75 dB 3:19 03-Tumble in the Rough
DR8 -0.37 dB -9.81 dB 3:24 04-Big Bang Baby
DR8 -0.20 dB -9.59 dB 4:09 05-Lady Picture Show
DR9 -0.12 dB -10.56 dB 3:58 06-And So I Know
DR8 -0.12 dB -9.49 dB 2:57 07-Trippin' on a Hole in a Paper Heart
DR9 -0.12 dB -11.92 dB 3:35 08-Art School Girl
DR8 -0.12 dB -11.38 dB 5:35 09-Adhesive
DR8 -0.11 dB -9.12 dB 3:18 10-Ride the Cliche
DR10 -1.75 dB -14.51 dB 2:19 11-Daisy
DR8 -0.11 dB -10.23 dB 4:15 12-Seven Caged Tigers
––––––––––––––––––––––––––––––––––––––––

Number of tracks: 12
Official DR value: DR9

Samplerate: 44100 Hz
Channels: 2
Bits per sample: 16
Bitrate: 929 kbps
Codec: FLAC
================================================================================




Stone Temple Pilots - Albums Collection 1992-2010 (7CD) [Re-Up]

Stone Temple Pilots - No. 4 (1999)
EAC | FLAC | Image (Cue&Log) ~ 304 Mb | Mp3 (CBR320) ~ 101 Mb
Label: Atlantic | # 83255-2 | Time: 00:42:17 | Scans included

It would be tempting to scour No. 4, Scott Weiland's reunion with Stone Temple Pilots, for insights into his troubles, yet the group consciously avoids this throughout the album. That's for the best, since it's their hardest effort since their debut, Core. "Down" and "Heaven & Hot Rods" provide a powerful, brutal opening for No. 4 – it's as if STP decided to compete directly with the new generation of alt-metal bands who prize aggression over hooks or riffs. With these two songs, the band's attack is as vicious as that of the new generation, but they retain their gift for gargantuan hooks. Much of the album hits pretty hard – most explicitly on "No Way Out," "Sex & Violence," and "MC5," – and even the ballads and neo-psychedelic pop have none of the swirling production that distinguished Tiny Music. That sense of adventure is missed, because even if the album finds STP returning to the muscular hard rock that made them, they always sounded better when they concentrated on melodicism. No. 4's most effective moments have a variety of sonic textures and color – "Pruno" tempers its giant riffs with spacy verses; "Church on Tuesday" is a great pop tune, as are the trippy "Sour Girl" and "I Got You"; and the psychedelic "Glide" and closing ballad, "Atlanta," have a sense of majesty. These songs anchor the heavier moments, instead of the other way around, and it all plays well together. As a matter of fact, No. 4 is as tight as Tiny Music. Even if it isn't as grandiose or sonically compelling as that effort, it's a record that consolidates all their strengths.

Review by Stephen Thomas Erlewine, Allmusic.com

Tracklist:

01. Down (03:48)
02. Heaven & Hot Rods (03:26)
03. Pruno (03:14)
04. Church On Tuesday (03:00)
05. Sour Girl (04:16)
06. No Way Out (04:19)
07. Sex & Violence (02:54)
08. Glide (05:00)
09. I Got You (04:15)
10. MC5 (02:42)
11. Atlanta (05:18)


Exact Audio Copy V0.99 prebeta 5 from 4. May 2009

Отчёт EAC об извлечении, выполненном 18. декабря 2011, 11:28

Stone Temple Pilots / Nє4

Дисковод: HL-DT-STDVDRAM GSA-T20N Adapter: 0 ID: 0

Режим чтения : Достоверность
Использование точного потока : Да
Отключение кэша аудио : Да
Использование указателей C2 : Нет

Коррекция смещения при чтении : 667
Способность читать области Lead-in и Lead-out : Нет
Заполнение пропущенных сэмплов тишиной : Да
Удаление блоков с тишиной в начале и конце : Нет
При вычислениях CRC использовались нулевые сэмплы : Да
Интерфейс : Встроенный Win32-интерфейс для Win NT/2000

Выходной формат : Внутренние WAV-операции
Формат сэмплов : 44.100 Гц; 16 бит; стерео


TOC извлечённого CD

Трек | Старт | Длительность | Начальный сектор | Конечный сектор
––––––––––––––––––––––––––––––––––-
1 | 0:00.32 | 3:48.70 | 32 | 17201
2 | 3:49.27 | 3:26.03 | 17202 | 32654
3 | 7:15.30 | 3:14.55 | 32655 | 47259
4 | 10:30.10 | 3:00.35 | 47260 | 60794
5 | 13:30.45 | 4:16.25 | 60795 | 80019
6 | 17:46.70 | 4:19.47 | 80020 | 99491
7 | 22:06.42 | 2:54.15 | 99492 | 112556
8 | 25:00.57 | 5:00.05 | 112557 | 135061
9 | 30:00.62 | 4:15.38 | 135062 | 154224
10 | 34:16.25 | 2:42.32 | 154225 | 166406
11 | 36:58.57 | 5:18.63 | 166407 | 190319


Характеристики диапазона извлечения и сообщения об ошибках

Выбранный диапазон

Имя файла F:\Torrent\Новая папка\Stone Temple Pilots - Nє4.wav

Пиковый уровень 99.8 %
Качество диапазона 100.0 %
CRC теста 26749177
CRC копии 26749177
Копирование… OK

Ошибок не произошло


AccurateRip: сводка

Трек 1 точное извлечение (доверие 11) [93E7D925]
Трек 2 точное извлечение (доверие 11) [41C770E1]
Трек 3 точное извлечение (доверие 11) [4C67B853]
Трек 4 точное извлечение (доверие 11) [AC404F62]
Трек 5 точное извлечение (доверие 11) [323915DE]
Трек 6 точное извлечение (доверие 11) [B6EEEF53]
Трек 7 точное извлечение (доверие 11) [89ADAC70]
Трек 8 точное извлечение (доверие 11) [A7C55204]
Трек 9 точное извлечение (доверие 11) [ADE57EB8]
Трек 10 точное извлечение (доверие 11) [FD2978F9]
Трек 11 точное извлечение (доверие 11) [B0B8FBA9]

Все треки извлечены точно

Конец отчёта

[CUETools log; Date: 11.10.2017 18:31:00; Version: 2.1.4]
Pregap length 00:00:32.
[CTDB TOCID: m880OuHKz266qtXk.fut8dx166o-] found.
Track | CTDB Status
1 | (308/313) Accurately ripped
2 | (310/313) Accurately ripped
3 | (309/313) Accurately ripped
4 | (310/313) Accurately ripped
5 | (309/313) Accurately ripped
6 | (308/313) Accurately ripped
7 | (308/313) Accurately ripped
8 | (309/313) Accurately ripped
9 | (308/313) Accurately ripped
10 | (305/313) Accurately ripped
11 | (307/313) Accurately ripped
[AccurateRip ID: 0010b95b-009218a1-7109e90b] found.
Track [ CRC | V2 ] Status
01 [93e7d925|4faf577a] (011+004/420) Accurately ripped
02 [41c770e1|67fa53ce] (011+004/420) Accurately ripped
03 [4c67b853|b0315cc2] (011+004/420) Accurately ripped
04 [ac404f62|fc2a637f] (011+004/420) Accurately ripped
05 [323915de|e765cb42] (011+004/420) Accurately ripped
06 [b6eeef53|c9554e96] (011+004/420) Accurately ripped
07 [89adac70|d419be98] (011+004/420) Accurately ripped
08 [a7c55204|85fe6015] (011+004/420) Accurately ripped
09 [ade57eb8|a585445b] (011+004/420) Accurately ripped
10 [fd2978f9|f3bad1a7] (011+004/420) Accurately ripped
11 [b0b8fba9|1e54da42] (011+004/420) Accurately ripped
Offsetted by -140:
01 [08ce62e7] (002/420) Accurately ripped
02 [8aa88c9a] (002/420) Accurately ripped
03 [87218b2b] (002/420) Accurately ripped
04 [4c361d57] (002/420) Accurately ripped
05 [c706c7d8] (002/420) Accurately ripped
06 [77ec4e4a] (002/420) Accurately ripped
07 [62d6de81] (002/420) Accurately ripped
08 [3fe1250a] (002/420) Accurately ripped
09 [9f9f7ca3] (002/420) Accurately ripped
10 [57541551] (002/420) Accurately ripped
11 [d7d79dff] (002/420) Accurately ripped
Offsetted by -98:
01 [bb3dac12] (200/420) Accurately ripped
02 [bdb74c42] (200/420) Accurately ripped
03 [4859dd16] (200/420) Accurately ripped
04 [986cfb92] (200/420) Accurately ripped
05 [b7b8b8e5] (200/420) Accurately ripped
06 [e86137bf] (200/420) Accurately ripped
07 [ecdaf592] (200/420) Accurately ripped
08 [3b8a9f6a] (200/420) Accurately ripped
09 [9a5e4ceb] (200/420) Accurately ripped
10 [c55b9dce] (200/420) Accurately ripped
11 [b1c6e884] (200/420) Accurately ripped

Track Peak [ CRC32 ] [W/O NULL] [ LOG ]
– 99,8 [26749177] [3229133B] CRC32
01 99,8 [8C77BE57] [6A6977D5]
02 99,8 [36296537] [E184D1E8]
03 99,8 [002725DF] [41B6E3AD]
04 93,2 [62374D94] [C5F4605A]
05 99,8 [4094AF9E] [0C908D25]
06 99,8 [4868271F] [E062F2E1]
07 99,8 [57DE7449] [29F28D5B]
08 99,6 [2F24DC39] [FB6F536B]
09 99,8 [E96918EE] [0FD2C7C1]
10 99,8 [C6A740E8] [80A30314]
11 99,8 [1789A724] [341A0FB0]

foobar2000 1.2 / Dynamic Range Meter 1.1.1
log date: 2017-10-11 20:33:05

––––––––––––––––––––––––––––––––––––––––
Analyzed: Stone Temple Pilots / No. 4
––––––––––––––––––––––––––––––––––––––––

DR Peak RMS Duration Track
––––––––––––––––––––––––––––––––––––––––
DR7 -0.01 dB -7.81 dB 3:49 01-Down
DR6 -0.01 dB -6.53 dB 3:26 02-Heaven & Hot Rods
DR6 -0.01 dB -6.70 dB 3:15 03-Pruno
DR6 -0.61 dB -8.52 dB 3:00 04-Church On Tuesday
DR7 -0.01 dB -7.68 dB 4:16 05-Sour Girl
DR6 -0.02 dB -7.38 dB 4:20 06-No Way Out
DR6 -0.01 dB -6.22 dB 2:54 07-Sex & Violence
DR6 -0.03 dB -7.78 dB 5:00 08-Glide
DR7 -0.01 dB -7.91 dB 4:16 09-I Got You
DR6 -0.01 dB -7.34 dB 2:42 10-MC5
DR6 -0.01 dB -8.86 dB 5:19 11-Atlanta
––––––––––––––––––––––––––––––––––––––––

Number of tracks: 11
Official DR value: DR6

Samplerate: 44100 Hz
Channels: 2
Bits per sample: 16
Bitrate: 987 kbps
Codec: FLAC
================================================================================




Stone Temple Pilots - Albums Collection 1992-2010 (7CD) [Re-Up]

Stone Temple Pilots - Shangri-La Dee Da (2001)
EAC | FLAC | Image (Cue&Log) ~ 348 Mb | Mp3 (CBR320) ~ 123 Mb
Label: Atlantic | # 83449-2 | Time: 00:47:19 | Scans included

No. 4 gave Stone Temple Pilots the comeback they were looking for, albeit a little later and a little differently than expected. Nearly a year after its release, "Sour Girl" gave the band its biggest hit in years, and it set up their fifth album, Shangri-La Dee Da, perfectly. They seized this opportunity by turning out the same record as the time before, splitting the difference between heavy rockers and sugar-sweet psych-pop tunes. That's not a bad thing, nor is it unexpected, since they've basically been staking this same territory since Tiny Music, yet at this point, it feels as if the Pilots are comfortably within a musical groove, no matter how much turmoil they have privately. And, while this doesn't result in a particularly surprising record, it's not an album that's bad, either. Here, as on 4, they're not just better on the pop tunes, they're phenomenal on the pop tunes. Regardless of their critical reputation, no rock band of their time turned out such a consistently dazzling streak of pop tunes. Sometimes, the rockers do catch hold – "Dumb Love" provides a gripping opening, "Hollywood Bitch" has a real sense of propulsion, the dreamy "Hello It's Late" has a gentle rush of its own – but, by this point, they don't seem as interesting as the excursions into psych-pop that gives Shangri-La Dee Da its real core. That's nothing new, but that's not a bad thing at all.

Review by Stephen Thomas Erlewine, Allmusic.com

Tracklist:

01. Dumb Love (02:51)
02. Days of the Week (02:35)
03. Coma (03:41)
04. Hollywood Bitch (02:43)
05. Wonderful (03:47)
06. Black Again (03:26)
07. Hello It's Late (04:22)
08. Too Cool Queenie (02:47)
09. Regeneration (03:55)
10. Bi-Polar Bear (05:04)
11. Transmissions from a Lonely Room (03:15)
12. A Song for Sleeping (04:15)
13. Long Way Home (04:32)


Exact Audio Copy V0.99 prebeta 5 from 4. May 2009

Отчёт EAC об извлечении, выполненном 10. сентября 2009, 20:42

Stone Temple Pilots / Shangri-La Dee Da

Дисковод: Optiarc DVD RW AD-7543A Adapter: 0 ID: 0

Режим чтения : Достоверность
Использование точного потока : Да
Отключение кэша аудио : Да
Использование указателей C2 : Нет

Коррекция смещения при чтении : 48
Способность читать области Lead-in и Lead-out : Нет
Заполнение пропущенных сэмплов тишиной : Да
Удаление блоков с тишиной в начале и конце : Нет
При вычислениях CRC использовались нулевые сэмплы : Да
Интерфейс : Встроенный Win32-интерфейс для Win NT/2000

Выходной формат : Внутренние WAV-операции
Формат сэмплов : 44.100 Гц; 16 бит; стерео


TOC извлечённого CD

Трек | Старт | Длительность | Начальный сектор | Конечный сектор
––––––––––––––––––––––––––––––––––-
1 | 0:00.32 | 2:51.05 | 32 | 12861
2 | 2:51.37 | 2:35.30 | 12862 | 24516
3 | 5:26.67 | 3:41.35 | 24517 | 41126
4 | 9:08.27 | 2:43.58 | 41127 | 53409
5 | 11:52.10 | 3:47.50 | 53410 | 70484
6 | 15:39.60 | 3:26.42 | 70485 | 85976
7 | 19:06.27 | 4:22.28 | 85977 | 105654
8 | 23:28.55 | 2:47.35 | 105655 | 118214
9 | 26:16.15 | 3:55.32 | 118215 | 135871
10 | 30:11.47 | 5:04.70 | 135872 | 158741
11 | 35:16.42 | 3:15.55 | 158742 | 173421
12 | 38:32.22 | 4:15.25 | 173422 | 192571
13 | 42:47.47 | 4:32.40 | 192572 | 213011


Характеристики диапазона извлечения и сообщения об ошибках

Выбранный диапазон

Имя файла F:\Torrent\Новая папка\Stone Temple Pilots - Shangri-La Dee Da\Stone Temple Pilots - Shangri-La Dee Da.wav

Пиковый уровень 100.0 %
Качество диапазона 99.9 %
CRC копии 68E6421D
Копирование… OK

Ошибок не произошло


AccurateRip: сводка

Трек 1 точное извлечение (доверие 92) [2762D068]
Трек 2 точное извлечение (доверие 93) [786D07EF]
Трек 3 точное извлечение (доверие 92) [B6D830CE]
Трек 4 точное извлечение (доверие 94) [EA5BABD6]
Трек 5 точное извлечение (доверие 93) [E88C47DF]
Трек 6 точное извлечение (доверие 92) [E657B41C]
Трек 7 точное извлечение (доверие 91) [DE9EBAF2]
Трек 8 точное извлечение (доверие 93) [C701AA5A]
Трек 9 точное извлечение (доверие 93) [DB50F655]
Трек 10 точное извлечение (доверие 92) [BFA046B7]
Трек 11 точное извлечение (доверие 93) [DBEBE306]
Трек 12 точное извлечение (доверие 91) [D9AD8105]
Трек 13 точное извлечение (доверие 91) [A8E4D370]

Все треки извлечены точно

Конец отчёта

[CUETools log; Date: 11.10.2017 18:31:52; Version: 2.1.4]
Pregap length 00:00:32.
[CTDB TOCID: 7Yvr.SUym6Fxo9XSZm4p9zXRVFA-] found.
Track | CTDB Status
1 | (165/165) Accurately ripped
2 | (165/165) Accurately ripped
3 | (165/165) Accurately ripped
4 | (165/165) Accurately ripped
5 | (165/165) Accurately ripped
6 | (165/165) Accurately ripped
7 | (165/165) Accurately ripped
8 | (164/165) Accurately ripped
9 | (164/165) Accurately ripped
10 | (164/165) Accurately ripped
11 | (165/165) Accurately ripped
12 | (164/165) Accurately ripped
13 | (163/165) Accurately ripped
[AccurateRip ID: 001525ac-00d7b413-a00b180d] found.
Track [ CRC | V2 ] Status
01 [2762d068|5851a7b8] (134+131/265) Accurately ripped
02 [786d07ef|3fc89998] (137+133/270) Accurately ripped
03 [b6d830ce|5b613ef5] (135+129/264) Accurately ripped
04 [ea5babd6|c1ac70c5] (137+132/269) Accurately ripped
05 [e88c47df|4eae543f] (136+132/268) Accurately ripped
06 [e657b41c|cd0889ef] (135+132/267) Accurately ripped
07 [de9ebaf2|1a707124] (133+131/264) Accurately ripped
08 [c701aa5a|6bd5d1db] (135+131/266) Accurately ripped
09 [db50f655|efea3ba8] (135+131/266) Accurately ripped
10 [bfa046b7|70eecd8b] (134+131/265) Accurately ripped
11 [dbebe306|f7912ff7] (134+131/265) Accurately ripped
12 [d9ad8105|2ecc9a29] (133+131/264) Accurately ripped
13 [a8e4d370|846d2c80] (131+130/261) Accurately ripped

Track Peak [ CRC32 ] [W/O NULL] [ LOG ]
– 100,0 [68E6421D] [67FD32D4] CRC32
01 96,9 [D9220130] [D3981443]
02 96,0 [AECC0A84] [F12FFBB3]
03 96,9 [24FE9000] [716979D0]
04 99,9 [A230F7B7] [FF51E897]
05 96,9 [5026733A] [77AEEDA8]
06 98,1 [CDE6F6C9] [AB71C3E8]
07 100,0 [5877DE3C] [2B9B7752]
08 99,8 [403CDBEA] [93873F05]
09 96,9 [B09B6513] [189AC9AF]
10 96,9 [31ADB8D0] [F3634528]
11 99,8 [BE8C53BE] [973487A8]
12 96,9 [00F7DF2A] [16AE527D]
13 98,5 [A07401A1] [2DB4C305]

foobar2000 1.2 / Dynamic Range Meter 1.1.1
log date: 2017-10-11 20:33:25

––––––––––––––––––––––––––––––––––––––––
Analyzed: Stone Temple Pilots / Shangri-La Dee Da
––––––––––––––––––––––––––––––––––––––––

DR Peak RMS Duration Track
––––––––––––––––––––––––––––––––––––––––
DR7 -0.27 dB -8.13 dB 2:51 01-Dumb Love
DR6 -0.35 dB -7.43 dB 2:35 02-Days of the Week
DR5 -0.27 dB -6.29 dB 3:41 03-Coma
DR7 0.00 dB -7.65 dB 2:44 04-Hollywood Bitch
DR7 -0.27 dB -9.53 dB 3:48 05-Wonderful
DR7 -0.16 dB -8.64 dB 3:27 06-Black Again
DR7 0.00 dB -9.05 dB 4:22 07-Hello It's Late
DR7 -0.02 dB -9.00 dB 2:47 08-Too Cool Queenie
DR6 -0.27 dB -7.85 dB 3:55 09-Regeneration
DR7 -0.27 dB -10.86 dB 5:05 10-Bi-Polar Bear
DR8 -0.02 dB -9.48 dB 3:16 11-Transmissions from a Lonely Room
DR7 -0.27 dB -8.60 dB 4:15 12-A Song for Sleeping
DR6 -0.13 dB -8.15 dB 4:33 13-Long Way Home
––––––––––––––––––––––––––––––––––––––––

Number of tracks: 13
Official DR value: DR7

Samplerate: 44100 Hz
Channels: 2
Bits per sample: 16
Bitrate: 980 kbps
Codec: FLAC
================================================================================