Subcategories

Stuttgart Radio Symphony Orchestra, Helmut Rilling - Honegger: Jeanne d'Arc au bûcher (2013)

Posted By: tirexiss
Stuttgart Radio Symphony Orchestra, Helmut Rilling - Honegger: Jeanne d'Arc au bûcher (2013)

Stuttgart Radio Symphony Orchestra, Helmut Rilling - Honegger: Jeanne d'Arc au bûcher (2013)
EAC | FLAC (image+.cue, log) | Covers Included | 01:24:30 | 381 MB
Genre: Classical | Label: Hänssler Classic | Catalog: CD 98.636

Arthur Honegger's 1935 composition Jeanne d'Arc au bûcher (Joan of Arc at the Stake) is a rather curious work: an oratorio for adult choir, children's choirs, singers, and several speakers, including one portraying Joan herself. It is like a hybrid of oratorio, melodrama, and film music, which was a fundamental influence on Honegger's style during this period, and it is immensely enjoyable if performed by confident and enthusiastic forces. Those forces are a bit difficult to assemble, but competence is not in question here with a pair of excellent regional south German choirs, the Gächinger Kantorei Stuttgart and the little-known Knabenchor collegium iuvenum Stuttgart, teaming with the Southwest German Radio Symphony Stuttgart under conductor Helmuth Rilling. This conductor was known earlier in his career mostly for Bach performances but has been recording major monuments of 20th century choral music. At times he has the unduly reserved attitude of the earlier conductors who came out of the early music tradition, and there's a grandeur missing here that was evident in Eugene Ormandy's classic recording of the work. But the balances and the overall execution are superior in this texturally complex work, with the singing soloists weaving colorfully in and out of the narrated story, and Sylvie Rohrer's Sprechstimme-inflected Joan emerging as a natural character. Hänssler Classic's engineers, working in the Beethovenhalle of the Liederhalle Stuttgart, are some of the biggest stars of the show.

Stuttgart Radio Symphony Orchestra, Helmut Rilling - Honegger: Jeanne d'Arc au bûcher (2013)

Track List:

Arthur Honegger
Jeanne d'Arc au bûcher
Dramatic Oratorio Comprising a Prologue and Eleven Scenes
Libretto by Paul Claudel

CD 1:

[1] Prologue
[2]-[7] Scène I-VI

Exact Audio Copy V1.1 from 23. June 2015

EAC extraction logfile from 18. June 2017, 19:25

Gächinger Kantorei, RSO Stuttgart, Helmut Rilling / Honegger - Jeanne d'Arc au bûcher - CD1

Used drive : PLDS DVD-RW DU8A6SH Adapter: 1 ID: 0

Read mode : Secure
Utilize accurate stream : Yes
Defeat audio cache : Yes
Make use of C2 pointers : No

Read offset correction : 6
Overread into Lead-In and Lead-Out : No
Fill up missing offset samples with silence : Yes
Delete leading and trailing silent blocks : No
Null samples used in CRC calculations : Yes
Used interface : Native Win32 interface for Win NT & 2000

Used output format : User Defined Encoder
Selected bitrate : 128 kBit/s
Quality : High
Add ID3 tag : No
Command line compressor : C:\Program Files (x86)\Exact Audio Copy\Flac\flac.exe
Additional command line options : -V -8 -T "Date=%year%" -T "Genre=%genre%" %source%


TOC of the extracted CD

Track | Start | Length | Start sector | End sector
––––––––––––––––––––––––––––-
1 | 0:00.00 | 8:38.18 | 0 | 38867
2 | 8:38.18 | 2:19.21 | 38868 | 49313
3 | 10:57.39 | 3:44.58 | 49314 | 66171
4 | 14:42.22 | 4:32.07 | 66172 | 86578
5 | 19:14.29 | 10:46.52 | 86579 | 135080
6 | 30:01.06 | 3:15.51 | 135081 | 149756
7 | 33:16.57 | 5:48.37 | 149757 | 175893


Range status and errors

Selected range

Filename C:\temp\Honegger - Jeanne d'Arc au bucher\CD1\Honegger - Jeanne d'Arc au bucher - CD1.wav

Peak level 97.3 %
Extraction speed 3.3 X
Range quality 99.9 %
Test CRC CDA1019A
Copy CRC CDA1019A
Copy OK

No errors occurred


AccurateRip summary

Track 1 accurately ripped (confidence 1) [5257FD93] (AR v1)
Track 2 accurately ripped (confidence 1) [1E7ADE5A] (AR v1)
Track 3 accurately ripped (confidence 1) [C5C57B72] (AR v1)
Track 4 accurately ripped (confidence 1) [62DDD3A1] (AR v1)
Track 5 accurately ripped (confidence 1) [85BC6B33] (AR v1)
Track 6 accurately ripped (confidence 1) [5ABB72A3] (AR v1)
Track 7 accurately ripped (confidence 1) [23436364] (AR v1)

All tracks accurately ripped

End of status report

==== Log checksum F11975B2E9215AC3B5DD2E2B8020DDA5D7A3226155CD52EB794EDC41BD5F0DF4 ====

[CUETools log; Date: 26.05.2018 11:44:24; Version: 2.1.5]
[CTDB TOCID: .7Cb7Fu8tDXv3xUcsdhFrwhpTtI-] found.
Track | CTDB Status
1 | (3/3) Accurately ripped
2 | (3/3) Accurately ripped
3 | (3/3) Accurately ripped
4 | (3/3) Accurately ripped
5 | (3/3) Accurately ripped
6 | (3/3) Accurately ripped
7 | (3/3) Accurately ripped
[AccurateRip ID: 000ab4e1-003fec0f-65092907] found.
Track [ CRC | V2 ] Status
01 [5257fd93|ab44dfa7] (1+0/1) Accurately ripped
02 [1e7ade5a|c7f0cfd6] (1+0/1) Accurately ripped
03 [c5c57b72|048f75ec] (1+0/1) Accurately ripped
04 [62ddd3a1|7e03afcf] (1+0/1) Accurately ripped
05 [85bc6b33|87e7036c] (1+0/1) Accurately ripped
06 [5abb72a3|eafba230] (1+0/1) Accurately ripped
07 [23436364|9e1c61dc] (1+0/1) Accurately ripped

Track Peak [ CRC32 ] [W/O NULL] [ LOG ]
– 97,3 [CDA1019A] [830028A5] CRC32
01 96,3 [BFAC926A] [3CA8794A]
02 96,3 [080DA10D] [897FC135]
03 22,3 [0EA85B9B] [4F41428E]
04 96,1 [4D37B92B] [B0CB37B2]
05 97,3 [3D686CAC] [6C8C2679]
06 85,4 [68F4B7DD] [21677273]
07 67,1 [319C47B1] [482B7587]

CD 2:
[1]-[5] Scène VII-XI

Exact Audio Copy V1.1 from 23. June 2015

EAC extraction logfile from 18. June 2017, 19:55

Gächinger Kantorei, RSO Stuttgart, Helmut Rilling / Honegger - Jeanne d'Arc au bûcher - CD2

Used drive : PLDS DVD-RW DU8A6SH Adapter: 1 ID: 0

Read mode : Secure
Utilize accurate stream : Yes
Defeat audio cache : Yes
Make use of C2 pointers : No

Read offset correction : 6
Overread into Lead-In and Lead-Out : No
Fill up missing offset samples with silence : Yes
Delete leading and trailing silent blocks : No
Null samples used in CRC calculations : Yes
Used interface : Native Win32 interface for Win NT & 2000

Used output format : User Defined Encoder
Selected bitrate : 128 kBit/s
Quality : High
Add ID3 tag : No
Command line compressor : C:\Program Files (x86)\Exact Audio Copy\Flac\flac.exe
Additional command line options : -V -8 -T "Date=%year%" -T "Genre=%genre%" %source%


TOC of the extracted CD

Track | Start | Length | Start sector | End sector
––––––––––––––––––––––––––––-
1 | 0:00.00 | 2:51.12 | 0 | 12836
2 | 2:51.12 | 12:54.34 | 12837 | 70920
3 | 15:45.46 | 15:11.73 | 70921 | 139318
4 | 30:57.44 | 0:42.69 | 139319 | 142537
5 | 31:40.38 | 13:44.15 | 142538 | 204352


Range status and errors

Selected range

Filename C:\temp\Honegger - Jeanne d'Arc au bucher\CD2\Honegger - Jeanne d'Arc au bucher - CD2.wav

Peak level 96.6 %
Extraction speed 3.5 X
Range quality 99.9 %
Test CRC 5EFD1551
Copy CRC 5EFD1551
Copy OK

No errors occurred


AccurateRip summary

Track 1 not present in database
Track 2 not present in database
Track 3 not present in database
Track 4 not present in database
Track 5 not present in database

None of the tracks are present in the AccurateRip database

End of status report

==== Log checksum 177BFE5B432F637F4E7490749C3EBC1107188F871CCD770B1CDE976B23969BD7 ====

[CUETools log; Date: 26.05.2018 11:44:51; Version: 2.1.5]
[CTDB TOCID: EwUSwZlYCjWWnBkoTtkF2DI8Wq0-] found.
Track | CTDB Status
1 | (3/3) Accurately ripped
2 | (3/3) Accurately ripped
3 | (3/3) Accurately ripped
4 | (3/3) Accurately ripped
5 | (3/3) Accurately ripped
[AccurateRip ID: 0008b270-0029b9ba-440aa405] disk not present in database.

Track Peak [ CRC32 ] [W/O NULL] [ LOG ]
– 96,6 [5EFD1551] [D24192F2] CRC32
01 67,1 [3CCA3281] [BE4A1D13]
02 96,3 [AF4F2691] [B94219BF]
03 76,6 [828DFAFB] [0817C4BB]
04 8,1 [FA438786] [FD6BEA40]
05 96,6 [5AE13B7C] [B33FA61A]

Performers:
Sylvie Rohrer (Jeanne d'Arc) speaker
Eörs Kisfaludy (Brother Dominique) speaker
Karen Wierzba (La Vierge) soprano
Letizia Scherrer (Marguérite) soprano
Kismara Pessatti (Cathérine) alto
Jean-Noël Briend tenor
François Le Roux bass
Knabenchor collegium iuvenum, Stuttgart
Gächinger Kantorei
Stuttgart Radio Symphony Orchestra (SWR)
Helmut Rilling

Thanks to the Original ripper A-Z!

Download: