Subcategories

Supermax - Tha Max Is Gonna Kick Ya (1992)

Posted By: v3122
Supermax - Tha Max Is Gonna Kick Ya (1992)

Supermax - Tha Max Is Gonna Kick Ya (1992)
EAC | Flac(Image) + Cue + Log & MP3 CBR 320Kbps
2 DAY DSB 3076-2 | ~ 393 or 136 Mb | Scans(png) -> 138 Mb
Reggae, Funk, Disco

Supermax was a project of Austrian musician and producer, Kurt Hauenstein (1949–2011), best known for "Lovemachine", a 1977 German #4 single, that peaked at #6 in Switzerland, #9 in Austria and #96 in US.

The first members of the band were Kurt Hauenstein (Mini Moog, vocals), Hans Ochs (guitar), Ken Taylor (bass guitar), Lothar Krell (keyboards), Peter Koch (percussion), Jürgen Zöller (drums) and the singers Cee Cee Cobb and Jean Graham. After Ken Taylor left the band in 1979, Kurt Hauenstein returned back to his origin music instrument, the bass guitar. Later, Bernadet Onore Eben and Jessica Hauenstein, the daughter of Kurt Hauenstein, joined the group as backing vocal singers.

In 1981, Supermax toured as the first mixed-race band through South Africa for 21 gigs. Despite warnings and death threats, Supermax finished the tour, but this made some countries refuse permits for entry, and consequently the group was black-listed by some political organizations.

In 1983, Supermax was invited to play as special guest from Europe at the Reggae Sunsplash Festival in Montego Bay, Jamaica…

~ wiki
Supermax - Tha Max Is Gonna Kick Ya (1992):

Supermax - Tha Max Is Gonna Kick Ya (1992)

Tracklist:

01. Back Home 07:18
02. Kick It 07:51
03. Hey Max, Gimme A Beat 05:47
04. Bongo Bongo 05:46
05. Welcome To The Nigth 04:23
06. Never Gonna Give 06:03
07. Heaven Of Music 05:12
08. Love And Reasons 05:14
09. Lovetrain 04:30
10. Vision 05:23

Musicians:

Kurt Hauenstein - Vocals, Bass, Drums, Percussion, Keyboards, Guitar
Rudi Biber, Bernhard Locker - Guitar
Richard Schönherz - Keyboards
Gary Barnacle - Saxophone
Hannes Kottek - Trumpet
Cynthia Sarraga, Judy Simone, Karin Friedl - Backing Vocals


Converted to Image (CUETools 2.1.4)

Exact Audio Copy V1.0 beta 3 from 29. August 2011

EAC extraction logfile from 16. March 2017, 16:58

Supermax / The Max Is Gonna Kick Ya (DSB 3076-2)

Used drive : SONY CD-RW CRX210E1 Adapter: 0 ID: 0

Read mode : Secure
Utilize accurate stream : Yes
Defeat audio cache : Yes
Make use of C2 pointers : No

Read offset correction : 6
Overread into Lead-In and Lead-Out : No
Fill up missing offset samples with silence : Yes
Delete leading and trailing silent blocks : No
Null samples used in CRC calculations : Yes
Used interface : Native Win32 interface for Win NT & 2000
Gap handling : Appended to previous track

Used output format : User Defined Encoder
Selected bitrate : 768 kBit/s
Quality : High
Add ID3 tag : No
Command line compressor : C:\Program Files\FLAC Frontend\tools\flac.exe
Additional command line options : -V -8 -T "Genre=%genre%" -T "Artist=%artist%" -T "Title=%title%" -T "Album=%albumtitle%" -T "Date=%year%" -T "Tracknumber=%tracknr%" -T "Comment=%comment%" %source%


TOC of the extracted CD

Track | Start | Length | Start sector | End sector
––––––––––––––––––––––––––––-
1 | 0:00.00 | 7:18.27 | 0 | 32876
2 | 7:18.27 | 7:51.70 | 32877 | 68271
3 | 15:10.22 | 5:47.35 | 68272 | 94331
4 | 20:57.57 | 5:46.40 | 94332 | 120321
5 | 26:44.22 | 4:23.68 | 120322 | 140114
6 | 31:08.15 | 6:03.37 | 140115 | 167376
7 | 37:11.52 | 5:12.18 | 167377 | 190794
8 | 42:23.70 | 5:14.35 | 190795 | 214379
9 | 47:38.30 | 4:30.67 | 214380 | 234696
10 | 52:09.22 | 5:23.53 | 234697 | 258974


Track 1

Filename D:\Share\Supermax - 1977 - World Of Today (Atlantic 2292-42293-2 Germany 1987)\01 - Back Home.wav

Pre-gap length 0:00:02.00

Peak level 99.3 %
Extraction speed 11.3 X
Track quality 100.0 %
Test CRC CFEB2549
Copy CRC CFEB2549
Accurately ripped (confidence 1) [6C012973] (AR v2)
Copy OK

Track 2

Filename D:\Share\Supermax - 1977 - World Of Today (Atlantic 2292-42293-2 Germany 1987)\02 - Kick It.wav

Peak level 99.3 %
Extraction speed 11.7 X
Track quality 100.0 %
Test CRC 6355445C
Copy CRC 6355445C
Accurately ripped (confidence 1) [C3B5B6FC] (AR v2)
Copy OK

Track 3

Filename D:\Share\Supermax - 1977 - World Of Today (Atlantic 2292-42293-2 Germany 1987)\03 - Hey Max, Gimme A Beat.wav

Peak level 99.3 %
Extraction speed 13.2 X
Track quality 100.0 %
Test CRC E00B8618
Copy CRC E00B8618
Accurately ripped (confidence 1) [12B864DF] (AR v2)
Copy OK

Track 4

Filename D:\Share\Supermax - 1977 - World Of Today (Atlantic 2292-42293-2 Germany 1987)\04 - Bongo Bongo.wav

Pre-gap length 0:00:00.32

Peak level 99.3 %
Extraction speed 14.1 X
Track quality 100.0 %
Test CRC D66D7D53
Copy CRC D66D7D53
Accurately ripped (confidence 1) [FFE7631B] (AR v2)
Copy OK

Track 5

Filename D:\Share\Supermax - 1977 - World Of Today (Atlantic 2292-42293-2 Germany 1987)\05 - Welcome To The Nigth.wav

Peak level 99.3 %
Extraction speed 12.3 X
Track quality 99.9 %
Test CRC 9AAC9B56
Copy CRC 9AAC9B56
Accurately ripped (confidence 1) [9C709870] (AR v2)
Copy OK

Track 6

Filename D:\Share\Supermax - 1977 - World Of Today (Atlantic 2292-42293-2 Germany 1987)\06 - Never Gonna Give.wav

Pre-gap length 0:00:01.15

Peak level 99.3 %
Extraction speed 14.6 X
Track quality 100.0 %
Test CRC C38657A0
Copy CRC C38657A0
Accurately ripped (confidence 1) [FA0DDB04] (AR v2)
Copy OK

Track 7

Filename D:\Share\Supermax - 1977 - World Of Today (Atlantic 2292-42293-2 Germany 1987)\07 - Heaven Of Music.wav

Pre-gap length 0:00:01.27

Peak level 99.3 %
Extraction speed 15.2 X
Track quality 100.0 %
Test CRC 288D2B7E
Copy CRC 288D2B7E
Accurately ripped (confidence 1) [0D221485] (AR v2)
Copy OK

Track 8

Filename D:\Share\Supermax - 1977 - World Of Today (Atlantic 2292-42293-2 Germany 1987)\08 - Love And Reasons.wav

Pre-gap length 0:00:00.50

Peak level 99.3 %
Extraction speed 15.8 X
Track quality 100.0 %
Test CRC 2009770F
Copy CRC 2009770F
Accurately ripped (confidence 1) [AA37CFF1] (AR v2)
Copy OK

Track 9

Filename D:\Share\Supermax - 1977 - World Of Today (Atlantic 2292-42293-2 Germany 1987)\09 - Lovetrain.wav

Peak level 99.3 %
Extraction speed 13.0 X
Track quality 99.9 %
Test CRC 98D1F090
Copy CRC 98D1F090
Accurately ripped (confidence 1) [AC8A3811] (AR v2)
Copy OK

Track 10

Filename D:\Share\Supermax - 1977 - World Of Today (Atlantic 2292-42293-2 Germany 1987)\10 - Vision.wav

Pre-gap length 0:00:01.22

Peak level 99.3 %
Extraction speed 10.8 X
Track quality 99.9 %
Test CRC 62C213E6
Copy CRC 62C213E6
Accurately ripped (confidence 1) [CF99C739] (AR v2)
Copy OK


All tracks accurately ripped

No errors occurred

End of status report

–– CUETools DB Plugin V2.1.3

[CTDB TOCID: QKMjwWRdzDvcA4MQKi2gKFsRRvY-] found, Submit result: already submitted
[d97d6c96] (1/1) Accurately ripped


==== Log checksum 2DB14C80A8CBE0729788E1455C8BB77043BB6F51D04DE0026AA8A6B99BB017A5 ====

foobar2000 1.2.9 / Dynamic Range Meter 1.1.1
log date: 2017-03-23 08:07:34

––––––––––––––––––––––––––––––––––––––––
Analyzed: Supermax / The Max Is Gonna Kick Ya (DSB 3076-2)
––––––––––––––––––––––––––––––––––––––––

DR Peak RMS Duration Track
––––––––––––––––––––––––––––––––––––––––
DR13 -0.05 dB -14.40 dB 7:18 01-Back Home
DR11 -0.05 dB -12.48 dB 7:52 02-Kick It
DR13 -0.05 dB -14.38 dB 5:47 03-Hey Max, Gimme A Beat
DR11 -0.05 dB -13.25 dB 5:47 04-Bongo Bongo
DR14 -0.05 dB -15.68 dB 4:24 05-Welcome To The Nigth
DR12 -0.05 dB -14.23 dB 6:03 06-Never Gonna Give
DR12 -0.05 dB -14.36 dB 5:12 07-Heaven Of Music
DR12 -0.05 dB -14.23 dB 5:14 08-Love And Reasons
DR13 -0.05 dB -15.16 dB 4:31 09-Lovetrain
DR10 -0.05 dB -13.22 dB 5:24 10-Vision
––––––––––––––––––––––––––––––––––––––––

Number of tracks: 10
Official DR value: DR12

Samplerate: 44100 Hz
Channels: 2
Bits per sample: 16
Bitrate: 926 kbps
Codec: FLAC

[CUETools log; Date: 23.03.2017 8:07:24; Version: 2.1.4]
[CTDB TOCID: QKMjwWRdzDvcA4MQKi2gKFsRRvY-] found.
Track | CTDB Status
1 | (1/1) Accurately ripped
2 | (1/1) Accurately ripped
3 | (1/1) Accurately ripped
4 | (1/1) Accurately ripped
5 | (1/1) Accurately ripped
6 | (1/1) Accurately ripped
7 | (1/1) Accurately ripped
8 | (1/1) Accurately ripped
9 | (1/1) Accurately ripped
10 | (1/1) Accurately ripped
[AccurateRip ID: 001739de-00b5c861-760d7d0a] found.
Track [ CRC | V2 ] Status
01 [a0e4d0ce|6c012973] (0+1/1) Accurately ripped
02 [ac35b448|c3b5b6fc] (0+1/1) Accurately ripped
03 [9c36262d|12b864df] (0+1/1) Accurately ripped
04 [cdd22ea0|ffe7631b] (0+1/1) Accurately ripped
05 [47ffa286|9c709870] (0+1/1) Accurately ripped
06 [cbb140bd|fa0ddb04] (0+1/1) Accurately ripped
07 [8ee470d0|0d221485] (0+1/1) Accurately ripped
08 [f0cb022d|aa37cff1] (0+1/1) Accurately ripped
09 [721271bf|ac8a3811] (0+1/1) Accurately ripped
10 [14673925|cf99c739] (0+1/1) Accurately ripped

Track Peak [ CRC32 ] [W/O NULL] [ LOG ]
– 99,3 [637C7EB9] [99E8685B]
01 99,3 [CFEB2549] [877A8CA4] CRC32
02 99,3 [6355445C] [22AACAD5] CRC32
03 99,3 [E00B8618] [7F7700D2] CRC32
04 99,3 [D66D7D53] [DA2C325A] CRC32
05 99,3 [9AAC9B56] [8A38D592] CRC32
06 99,3 [C38657A0] [D31BE13B] CRC32
07 99,3 [288D2B7E] [FDF4FB43] CRC32
08 99,3 [2009770F] [BE593CDB] CRC32
09 99,3 [98D1F090] [1C9B676E] CRC32
10 99,3 [62C213E6] [98C83B2A] CRC32

Supermax - Tha Max Is Gonna Kick Ya (1992)

All thanks go to Ready.zp

Supermax in my Blog

Download Supermax - Tha Max Is Gonna Kick Ya (1992):