Subcategories

Supertramp - Crime Of The Century (1974) [MFSL UDCD 505] Repost

Posted By: v3122
Supertramp - Crime Of The Century (1974) [MFSL UDCD 505] Repost

Supertramp - Crime Of The Century (1974)
EAC | Flac(Image) + Cue + Log & MP3 CBR 320Kbps
1987 | MFSL, UDCD 505 | ~ 212 or 104 Mb | Scans(png) -> 38 Mb
Progressive Rock

Supertramp came into their own on their third album, 1974's Crime of the Century, as their lineup gelled but, more importantly, so did their sound. The group still betrayed a heavy Pink Floyd influence, particularly in its expansive art rock arrangements graced by saxophones, but Supertramp isn't nearly as spooky as Floyd – they're snarky collegiate elitists, an art rock variation on Steely Dan or perhaps a less difficult 10cc, filled with cutting jokes and allusions, best heard on "Bloody Well Right." This streak would later flourish on Breakfast in America, but it's present enough to give them their own character. Also present is a slight sentimental streak and a heavy fondness for pop, heard on "Dreamer," a soaring piece of art pop that became their first big hit. That and "Bloody Well Right" are the concise pop moments on the record; the rest of Crime of the Century is atmospheric like Dark Side of the Moon, but with a lighter feel and a Beatles bent. At times the album floats off into its own world, with an effect more tedious than hypnotic, but it's still a huge leap forward for the group and their most consistent album outside of that 1979 masterwork, Breakfast in America.

by Stephen Thomas Erlewine, AMG
Supertramp - Crime Of The Century (1974) [MFSL UDCD 505] Repost


Supertramp - Crime Of The Century (1974):

Supertramp - Crime Of The Century (1974) [MFSL UDCD 505] Repost

Tracklist:

01. School [05:37]
02. Bloody Well Right [04:31]
03. Hide In Your Shell [06:48]
04. Asylum [06:43]
05. Dreamer [03:31]
06. Rudy [07:21]
07. If Everyone Was Listening [04:05]
08. Crime Of The Century [05:35]

Exact Audio Copy V0.99 prebeta 5 from 4. May 2009

EAC extraction logfile from 16. June 2012, 5:44

Supertramp / Crime Of The Century (MFSL UDCD 505)

Used drive : ASUS DRW-24B3ST Adapter: 0 ID: 1

Read mode : Secure
Utilize accurate stream : Yes
Defeat audio cache : Yes
Make use of C2 pointers : No

Read offset correction : 6
Overread into Lead-In and Lead-Out : No
Fill up missing offset samples with silence : Yes
Delete leading and trailing silent blocks : No
Null samples used in CRC calculations : Yes
Used interface : Native Win32 interface for Win NT & 2000

Used output format : User Defined Encoder
Selected bitrate : 1024 kBit/s
Quality : High
Add ID3 tag : No
Command line compressor : C:\Program Files (x86)\EAC\WV\wavpack.exe
Additional command line options : -h -hh -m %s %d


TOC of the extracted CD

Track | Start | Length | Start sector | End sector
––––––––––––––––––––––––––––-
1 | 0:00.00 | 5:37.39 | 0 | 25313
2 | 5:37.39 | 4:31.65 | 25314 | 45703
3 | 10:09.29 | 6:48.63 | 45704 | 76366
4 | 16:58.17 | 6:43.72 | 76367 | 106663
5 | 23:42.14 | 3:31.00 | 106664 | 122488
6 | 27:13.14 | 7:21.20 | 122489 | 155583
7 | 34:34.34 | 4:05.03 | 155584 | 173961
8 | 38:39.37 | 5:35.35 | 173962 | 199121


Range status and errors

Selected range

Filename G:\@ MFSL\Supertramp © 1974- Crime Of The Century (US 1987 MFSL • UDCD 505)\Supertramp - Crime Of The Century (MFSL UDCD 505).wav

Peak level 83.5 %
Range quality 100.0 %
Test CRC 63AE6AFB
Copy CRC 63AE6AFB
Copy OK

No errors occurred


AccurateRip summary

Track 1 accurately ripped (confidence 52) [92E02ADE]
Track 2 accurately ripped (confidence 52) [6F17F6F3]
Track 3 accurately ripped (confidence 52) [D5EE55FD]
Track 4 accurately ripped (confidence 52) [C21554AF]
Track 5 accurately ripped (confidence 52) [00411A8B]
Track 6 accurately ripped (confidence 51) [7023A7D6]
Track 7 accurately ripped (confidence 52) [E681C37A]
Track 8 accurately ripped (confidence 51) [EA0E23D5]

All tracks accurately ripped

End of status report

foobar2000 1.2.9 / Dynamic Range Meter 1.1.1
log date: 2017-03-15 10:27:39

––––––––––––––––––––––––––––––––––––––––
Analyzed: Supertramp / Crime Of The Century (MFSL UDCD 505)
––––––––––––––––––––––––––––––––––––––––

DR Peak RMS Duration Track
––––––––––––––––––––––––––––––––––––––––
DR16 -2.77 dB -24.37 dB 5:38 01-School
DR17 -6.03 dB -25.58 dB 4:32 02-Bloody Well Right
DR17 -1.62 dB -23.02 dB 6:49 03-Hide In Your Shell
DR16 -3.07 dB -24.35 dB 6:44 04-Asylum
DR14 -4.60 dB -24.70 dB 3:31 05-Dreamer
DR16 -4.36 dB -25.99 dB 7:21 06-Rudy
DR17 -1.56 dB -26.15 dB 4:05 07-If Everyone Was Listening
DR16 -4.67 dB -24.61 dB 5:35 08-Crime Of The Century
––––––––––––––––––––––––––––––––––––––––

Number of tracks: 8
Official DR value: DR16

Samplerate: 44100 Hz
Channels: 2
Bits per sample: 16
Bitrate: 660 kbps
Codec: FLAC

[CUETools log; Date: 15.03.2017 10:27:28; Version: 2.1.4]
[CTDB TOCID: 26NXesVkdEUxL7WbmeP0R6yTfTo-] found.
Track | CTDB Status
1 | (86/87) Accurately ripped
2 | (86/87) Accurately ripped
3 | (86/87) Accurately ripped
4 | (86/87) Accurately ripped
5 | (86/87) Accurately ripped
6 | (86/87) Accurately ripped
7 | (85/87) Accurately ripped
8 | (83/87) Accurately ripped
[AccurateRip ID: 000dcff6-005c13a9-4d0a5e08] found.
Track [ CRC | V2 ] Status
01 [92e02ade|6619175e] (055+077/144) Accurately ripped
02 [6f17f6f3|432598b8] (055+077/142) Accurately ripped
03 [d5ee55fd|93f8c529] (055+076/141) Accurately ripped
04 [c21554af|4132cfaa] (055+076/141) Accurately ripped
05 [00411a8b|a5ce9ef1] (055+077/142) Accurately ripped
06 [7023a7d6|f4fa7313] (054+077/141) Accurately ripped
07 [e681c37a|de55fe66] (055+076/141) Accurately ripped
08 [ea0e23d5|5306fbc7] (054+076/138) Accurately ripped
Offsetted by -703:
01 [196ea6bd] (002/144) Accurately ripped
02 [edb4551c] (002/142) Accurately ripped
03 [07994439] (002/141) Accurately ripped
04 [09011a0e] (002/141) Accurately ripped
05 [b8622d50] (002/142) Accurately ripped
06 [c041739d] (002/141) Accurately ripped
07 [91ca2bb6] (002/141) Accurately ripped
08 [40e4630d] (002/138) Accurately ripped
Offsetted by -691:
01 [0d400d97] (002/144) Accurately ripped
02 [0035913a] (002/142) Accurately ripped
03 [5fade678] (002/141) Accurately ripped
04 [2a4a4e77] (002/141) Accurately ripped
05 [14c40f88] (002/142) Accurately ripped
06 [d8d8f33b] (002/141) Accurately ripped
07 [2d441059] (002/141) Accurately ripped
08 [bf387be3] (002/138) Accurately ripped
Offsetted by 24:
01 [ad80a4db] (002/144) Accurately ripped
02 [9f80e26e] (002/142) Accurately ripped
03 [8e7f05b3] (002/141) Accurately ripped
04 [75288adb] (002/141) Accurately ripped
05 [da35b9f2] (002/142) Accurately ripped
06 [c45c99a5] (002/141) Accurately ripped
07 [023f3a8c] (002/141) Accurately ripped
08 [adcffb40] (002/138) Accurately ripped
Offsetted by -577:
01 [72a46fa3] (002/144) Accurately ripped
02 [6cd20e4b] (002/142) Accurately ripped
03 [a6bea481] (002/141) Accurately ripped
04 [26e405bc] (002/141) Accurately ripped
05 [5cc4cda5] (002/142) Accurately ripped
06 [73350bfc] (002/141) Accurately ripped
07 [f1c230fd] (002/141) Accurately ripped
08 [2c05b684] (000/138) No match (V2 was not tested)
Offsetted by -12:
01 [1acd40ba] (000/144) No match (V2 was not tested)
02 [9960c18c] (000/142) No match (V2 was not tested)
03 [7de8320c] (000/141) No match (V2 was not tested)
04 [7a897871] (000/141) No match
05 [92609656] (000/142) No match
06 [ad9b83a5] (000/141) No match
07 [bbdc62ed] (000/141) No match
08 [8fe4cdfb] (000/138) No match
Offsetted by -6:
01 [4bd7b4ed] (002/144) Accurately ripped
02 [48a62b6c] (000/142) No match (V2 was not tested)
03 [b72b7d88] (000/141) No match (V2 was not tested)
04 [9e9e3a83] (000/141) No match (V2 was not tested)
05 [c9bb545b] (000/142) No match (V2 was not tested)
06 [78966b7b] (000/141) No match (V2 was not tested)
07 [506d3d63] (000/141) No match (V2 was not tested)
08 [c7472038] (000/138) No match (V2 was not tested)

Track Peak [ CRC32 ] [W/O NULL] [ LOG ]
– 83,5 [63AE6AFB] [6B054E7C] CRC32
01 72,6 [D30EB966] [9763F60A]
02 49,9 [F1275CE6] [9FE0D8DE]
03 83,0 [C6EC357F] [BB7547CF]
04 70,2 [741A7B41] [6C8E6143]
05 58,9 [15E45796] [0424CCE0]
06 60,5 [2B6805A2] [DB93E5CF]
07 83,5 [3959A93E] [F1CFBECC]
08 58,4 [A6FEA06D] [837A8804]

Supertramp - Crime Of The Century (1974) [MFSL UDCD 505] Repost

All thanks go to the original releaser

Supertramp in my Blog

Download Supertramp - Crime Of The Century (1974):