Subcategories

Supertramp - Paris (1980)

Posted By: v3122
Supertramp - Paris (1980)

Supertramp - Paris (1980)
EAC | Flac(Image) + Cue + Log & MP3 CBR 320Kbps
2CD | A&M, 396 702-2 | ~ 564 or 215 Mb | Scans(jpg) -> 138 Mb
Progressive Rock

Recorded in the wake of the global success of Breakfast in America, Paris is a competent live album from Supertramp.

by Stephen Thomas Erlewine, AMG
Supertramp - Paris (1980)


Supertramp - Paris (1980):

Supertramp - Paris (1980)

Tracklist CD1:

01. School [0:05:28.05]
02. Ain't Nobody But Me [0:05:37.25]
03. The Logical Song [0:03:56.50]
04. Bloody Well Right [0:07:38.63]
05. Breakfast In America [0:02:56.70]
06. You Started Laughing [0:04:02.25]
07. Hide In Your Shell [0:06:54.42]
08. From Now On [0:07:07.18]

Exact Audio Copy V1.0 beta 3 from 29. August 2011

EAC extraction logfile from 5. October 2014, 12:25

Supertramp / Paris (CD 1)

Used drive : PLEXTOR DVDR PX-L890SA Adapter: 2 ID: 1

Read mode : Secure
Utilize accurate stream : Yes
Defeat audio cache : Yes
Make use of C2 pointers : No

Read offset correction : 6
Overread into Lead-In and Lead-Out : No
Fill up missing offset samples with silence : Yes
Delete leading and trailing silent blocks : No
Null samples used in CRC calculations : Yes
Used interface : Native Win32 interface for Win NT & 2000

Used output format : User Defined Encoder
Selected bitrate : 768 kBit/s
Quality : High
Add ID3 tag : No
Command line compressor : G:\Program Files\Exact Audio Copy\FLAC\FLAC.EXE
Additional command line options : -V -8 -T "Date=%year%" -T "Genre=%genre%" %source%


TOC of the extracted CD

Track | Start | Length | Start sector | End sector
––––––––––––––––––––––––––––-
1 | 0:00.32 | 5:28.05 | 32 | 24636
2 | 5:28.37 | 5:37.25 | 24637 | 49936
3 | 11:05.62 | 3:56.50 | 49937 | 67686
4 | 15:02.37 | 7:38.63 | 67687 | 102099
5 | 22:41.25 | 2:56.70 | 102100 | 115369
6 | 25:38.20 | 4:02.25 | 115370 | 133544
7 | 29:40.45 | 6:54.42 | 133545 | 164636
8 | 36:35.12 | 7:07.18 | 164637 | 196679


Range status and errors

Selected range

Filename H:\MUSIC\Supertramp\1980. Supertramp - Paris (A&M 396 702-2, France)\Supertramp - Paris (CD 1).wav

Peak level 83.1 %
Extraction speed 5.4 X
Range quality 100.0 %
Test CRC E848F536
Copy CRC E848F536
Copy OK

No errors occurred


AccurateRip summary

Track 1 accurately ripped (confidence 51) [7988A77A] (AR v2)
Track 2 accurately ripped (confidence 50) [43FCD058] (AR v2)
Track 3 accurately ripped (confidence 51) [99294C60] (AR v2)
Track 4 accurately ripped (confidence 51) [54C04C00] (AR v2)
Track 5 accurately ripped (confidence 51) [83E0AF26] (AR v2)
Track 6 accurately ripped (confidence 50) [0218127A] (AR v2)
Track 7 accurately ripped (confidence 50) [A61FADD4] (AR v2)
Track 8 accurately ripped (confidence 50) [2C76226C] (AR v2)

All tracks accurately ripped

End of status report

==== Log checksum 39F343C546D6CE91585DDA12C6E0D196A039D6476F126A867B140311E865436C ====

foobar2000 1.2.9 / Dynamic Range Meter 1.1.1
log date: 2016-03-15 08:05:34

––––––––––––––––––––––––––––––––––––––––
Analyzed: Supertramp / Paris (CD 1)
––––––––––––––––––––––––––––––––––––––––

DR Peak RMS Duration Track
––––––––––––––––––––––––––––––––––––––––
DR13 -1.60 dB -18.38 dB 5:28 01-School
DR12 -1.60 dB -16.13 dB 5:37 02-Ain't Nobody But Me
DR12 -1.60 dB -15.84 dB 3:57 03-The Logical Song
DR13 -1.60 dB -17.66 dB 7:39 04-Bloody Well Right
DR14 -1.60 dB -17.86 dB 2:57 05-Breakfast In America
DR14 -1.60 dB -19.01 dB 4:02 06-You Started Laughing
DR12 -1.60 dB -16.96 dB 6:55 07-Hide In Your Shell
DR12 -1.60 dB -18.02 dB 7:07 08-From Now On
––––––––––––––––––––––––––––––––––––––––

Number of tracks: 8
Official DR value: DR13

Samplerate: 44100 Hz
Channels: 2
Bits per sample: 16
Bitrate: 855 kbps
Codec: FLAC

[CUETools log; Date: 05.10.2014 15:47:27; Version: 2.1.2a]
Pregap length 00:00:32.
[CTDB TOCID: wZajzJT2srzPsjeL9_KbgG.74jA-] found.
[ CTDBID ] Status
[c2a643d0] (139/141) No match
[f7177d2f] (001/141) Has pregap length 00:00:00
[008082cc] (001/141) Has pregap length 00:00:00
[AccurateRip ID: 000d0a61-0056e498-640a3e08] found.
Track [ CRC ] Status
01 [25959361] (056/259) Accurately ripped
02 [05053956] (055/252) Accurately ripped
03 [78a35952] (055/257) Accurately ripped
04 [316ed5d8] (054/255) Accurately ripped
05 [ba83e13e] (056/259) Accurately ripped
06 [353f2ceb] (055/255) Accurately ripped
07 [f3c1d7eb] (055/253) Accurately ripped
08 [94758b9f] (056/252) Accurately ripped
AccurateRip v2:
01 [7988a77a] (051/259) Accurately ripped
02 [43fcd058] (050/252) Accurately ripped
03 [99294c60] (051/257) Accurately ripped
04 [54c04c00] (051/255) Accurately ripped
05 [83e0af26] (051/259) Accurately ripped
06 [0218127a] (050/255) Accurately ripped
07 [a61fadd4] (050/253) Accurately ripped
08 [2c76226c] (050/252) Accurately ripped
Offsetted by 176:
01 [ab1fa6a0] (076/259) Accurately ripped
02 [09876f9f] (072/252) Accurately ripped
03 [6e316f17] (075/257) Accurately ripped
04 [4f70c91d] (075/255) Accurately ripped
05 [f5d3605c] (077/259) Accurately ripped
06 [949ce05b] (075/255) Accurately ripped
07 [e7fb8030] (073/253) Accurately ripped
08 [9e101d34] (071/252) Accurately ripped

Track Peak [ CRC32 ] [W/O NULL] [ LOG ]
– 83,1 [E848F536] [BEFE18BD] CRC32
01 83,1 [95BC3BEA] [B331E864]
02 83,1 [0CEB3170] [D94AA2FF]
03 83,1 [31069987] [F032254D]
04 83,1 [6186884D] [C3CD354F]
05 83,1 [439B11CF] [2B6B9F69]
06 83,1 [65080F8D] [FC681524]
07 83,1 [5105658C] [5DA91FB8]
08 83,1 [2B7B674C] [4086A038]

Supertramp - Paris (1980)

Tracklist CD2:

01. Dreamer [0:03:29.62]
02. Rudy [0:07:23.58]
03. Soapbox Opera [0:04:51.05]
04. Asylum [0:06:55.20]
05. Take The Long Way Home [0:05:08.72]
06. Fool's Overture [0:10:57.53]
07. Two Of Us [0:01:23.60]
08. Crime Of The Century [0:06:31.15]

Exact Audio Copy V1.0 beta 3 from 29. August 2011

EAC extraction logfile from 5. October 2014, 14:06

Supertramp / Paris - CD2

Used drive : PLEXTOR DVDR PX-L890SA Adapter: 2 ID: 1

Read mode : Secure
Utilize accurate stream : Yes
Defeat audio cache : Yes
Make use of C2 pointers : No

Read offset correction : 6
Overread into Lead-In and Lead-Out : No
Fill up missing offset samples with silence : Yes
Delete leading and trailing silent blocks : No
Null samples used in CRC calculations : Yes
Used interface : Native Win32 interface for Win NT & 2000

Used output format : User Defined Encoder
Selected bitrate : 768 kBit/s
Quality : High
Add ID3 tag : No
Command line compressor : G:\Program Files\Exact Audio Copy\FLAC\FLAC.EXE
Additional command line options : -V -8 -T "Date=%year%" -T "Genre=%genre%" %source%


TOC of the extracted CD

Track | Start | Length | Start sector | End sector
––––––––––––––––––––––––––––-
1 | 0:00.33 | 3:29.62 | 33 | 15769
2 | 3:30.20 | 7:23.58 | 15770 | 49052
3 | 10:54.03 | 4:51.05 | 49053 | 70882
4 | 15:45.08 | 6:55.20 | 70883 | 102027
5 | 22:40.28 | 5:08.72 | 102028 | 125199
6 | 27:49.25 | 10:57.53 | 125200 | 174527
7 | 38:47.03 | 1:23.60 | 174528 | 180812
8 | 40:10.63 | 6:31.15 | 180813 | 210152


Range status and errors

Selected range

Filename H:\MUSIC\Supertramp\1980. Supertramp - Paris (A&M 396 702-2, France)\Supertramp - Paris - CD2.wav

Peak level 83.1 %
Extraction speed 5.5 X
Range quality 100.0 %
Test CRC 354E0A7E
Copy CRC 354E0A7E
Copy OK

No errors occurred


AccurateRip summary

Track 1 accurately ripped (confidence 119) [F39CBF68] (AR v2)
Track 2 accurately ripped (confidence 117) [DB8DDE50] (AR v2)
Track 3 accurately ripped (confidence 117) [2EA7971E] (AR v2)
Track 4 accurately ripped (confidence 115) [A5E23804] (AR v2)
Track 5 accurately ripped (confidence 118) [967AD972] (AR v2)
Track 6 accurately ripped (confidence 120) [392D7ED9] (AR v2)
Track 7 accurately ripped (confidence 118) [73E5FDC4] (AR v2)
Track 8 accurately ripped (confidence 118) [D5F0E1CB] (AR v2)

All tracks accurately ripped

End of status report

==== Log checksum 5182A766BBB0AE3BF949AD185F37B2A0AC9C5EEA62ED461A31D3A9669D6A6293 ====

foobar2000 1.2.9 / Dynamic Range Meter 1.1.1
log date: 2016-03-15 08:05:21

––––––––––––––––––––––––––––––––––––––––
Analyzed: Supertramp / Paris - CD2
––––––––––––––––––––––––––––––––––––––––

DR Peak RMS Duration Track
––––––––––––––––––––––––––––––––––––––––
DR14 -1.60 dB -18.29 dB 3:30 01-Dreamer
DR14 -1.60 dB -20.33 dB 7:24 02-Rudy
DR14 -1.60 dB -18.90 dB 4:51 03-Soapbox Opera
DR12 -1.60 dB -17.04 dB 6:55 04-Asylum
DR13 -1.60 dB -18.31 dB 5:09 05-Take The Long Way Home
DR12 -1.60 dB -18.78 dB 10:58 06-Fool's Overture
DR14 -5.13 dB -23.54 dB 1:24 07-Two Of Us
DR10 -1.60 dB -15.06 dB 6:31 08-Crime Of The Century
––––––––––––––––––––––––––––––––––––––––

Number of tracks: 8
Official DR value: DR13

Samplerate: 44100 Hz
Channels: 2
Bits per sample: 16
Bitrate: 842 kbps
Codec: FLAC

[CUETools log; Date: 22.11.2014 10:04:46; Version: 2.1.2a]
Pregap length 00:00:33.
[CTDB TOCID: TFOZMN3Z0.Mxm1MptvqA7a.Us5w-] found.
[ CTDBID ] Status
[3e7895c7] (143/146) Differs in 0 samples @
[0e6bf99c] (002/146) Has pregap length 00:00:00
[32668309] (001/146) No match
[AccurateRip ID: 000e2acd-005fdfad-600af208] found.
Track [ CRC ] Status
01 [81c8fc70] (117/260) Accurately ripped
02 [15bed846] (116/257) Accurately ripped
03 [5f34189b] (117/259) Accurately ripped
04 [8251bb32] (112/251) Accurately ripped
05 [67ac6445] (118/260) Accurately ripped
06 [ed58e2c8] (119/263) Accurately ripped
07 [9b7e2a39] (114/259) Accurately ripped
08 [f5dcda37] (112/253) Accurately ripped
AccurateRip v2:
01 [f39cbf68] (122/260) Accurately ripped
02 [db8dde50] (120/257) Accurately ripped
03 [2ea7971e] (120/259) Accurately ripped
04 [a5e23804] (118/251) Accurately ripped
05 [967ad972] (121/260) Accurately ripped
06 [392d7ed9] (123/263) Accurately ripped
07 [73e5fdc4] (121/259) Accurately ripped
08 [d5f0e1cb] (121/253) Accurately ripped
Offsetted by -593:
01 [53488179] (012/260) Accurately ripped
02 [9c6c4b68] (012/257) Accurately ripped
03 [d19ee169] (012/259) Accurately ripped
04 [e19998a4] (012/251) Accurately ripped
05 [db244fce] (012/260) Accurately ripped
06 [1e8964e0] (012/263) Accurately ripped
07 [be6379ba] (012/259) Accurately ripped
08 [53a68297] (012/253) Accurately ripped

Track Peak [ CRC32 ] [W/O NULL] [ LOG ]
– 83,1 [354E0A7E] [9F7EC76B] CRC32
01 83,1 [E8E44911] [A7F0EF3E]
02 83,1 [66812C89] [60DD7B2E]
03 83,1 [1A01A342] [83F368EC]
04 83,1 [59CD9EB0] [22164CF3]
05 83,1 [F1E51FA0] [CA273A6E]
06 83,1 [111FAADB] [D85A4EAC]
07 55,4 [3DB14B18] [7B6A6A74]
08 83,1 [DEB4F866] [0CCC9644]

Supertramp - Paris (1980)

All thanks go to snakesharmer

Supertramp in my Blog

Download Supertramp - Paris (1980):