Subcategories

Susan Tedeschi - Live From Austin Tx (2004) CD & DVD Releases

Posted By: Designol
Susan Tedeschi - Live From Austin Tx (2004) CD & DVD Releases

Susan Tedeschi - Live From Austin Tx (2004)
EAC | FLAC | Tracks (Cue&Log) ~ 480 Mb | Mp3 (CBR320) ~ 182 Mb | Scans included
Modern Electric Blues, Roots Rock | Label: New West | # NW 6065 | Time: 01:17:13

DVD5 | NTSC | 4:3 (720x480) VBR | AC3 5.1, 448 kbps or 2.0, 192 kbps | ~ 3.6 Gb
Label: New West | # NW8002 | Time: 01:23:32

In this 2003 performance from the Austin City Limits series, New England's Susan Tedeschi demonstrates a range that extends well beyond her blues base. Following the blueprint employed by Bonnie Raitt a few decades earlier, she covers John Prine's "Angel from Montgomery" (a signature tune for Raitt), inserting a snippet from the Grateful Dead's "Sugaree." The piano balladry of her "Wrapped in the Arms of Another" could fit just fine on a Raitt album. The set also finds her sampling from the songbooks of Sly Stone ("You Can Make It If You Try"), Bob Dylan ("Don't Think Twice, It's All Right"), and Stevie Wonder ("Love's in Need of Love Today"), in addition to the more straightforward blues of Koko Taylor ("Voodoo Woman"). Though Tedeschi's stinging lead guitar provides the focus, she receives strong support from a band featuring the interplay of electric pianist Jason Crosby (who doubles on violin) and William Green on Hammond B-3 organ. Highlights include a tribute to jam-band inspiration Col. Bruce Hampton on "Hampmotized" and the simmering "Wait for Me," with its echoes of Aretha Franklin. Tedeschi has yet to show the suppleness as a vocalist to complement her guitar chops, but the musical range she displays here bodes well for her artistic development.

Review by Don McLeese

Part of a new series of recordings taken from the Austin City Limits broadcasts, Susan Tedeschi's performance is a more complete – though not unedited – version of what viewers saw on TV. Tedeschi's music naturally gives itself to a live setting. The program is a good one; featuring her regular band, this set juxtaposes a nice collection of material that has appeared on her studio albums, performed with a wonderful balance of passion and finesse that free-ranges across R&B, blues, and funk. Tedeschi's gifts as a singer are considerable. She understands the limits of her middling range and knows how to emphasize nuance and expressiveness. In fact, though most obviously influenced by Bonnie Raitt, she is a true vocal stylist with her own unique sense of phrasing – and live, the added grit and grease underscore the emotional nature of her tunes. As a guitar player, she's as slinger, period. She can hang with anyone. To top it all off, her bandmembers are crack; they pop the grooves in all the right places and never drop it. The finest moments here are her own songs, such as "I Fell in Love," "In the Garden," and "Wrapped in the Arms of Another." But some of the covers here stand out from their studio renditions, such as her now signature read of Paul Pena's "Gonna Move," Tommy Sims' "Alone," Stevie Wonder's "Love's in Need of Love Today," and her barn-burning version of John Prine's "Angel from Montgomery," which is so closely identified with Raitt. "Gonna Move," in particular, is almost an anthem at this point; Tedeschi's easy delivery and deep soul/gospel expressiveness are buoyed by the Hammond B-3 punch of Jason Crosby that swirls around her voice as she coaxes heartbreak and determination from Pena's lyric. This is a fine Tedeschi artifact; it doesn't replace her studio outings in any way, but it complements them nicely.

Review by Thom Jurek, Allmusic.com

Susan Tedeschi - Live From Austin Tx (2004) CD & DVD Releases



Tracklist:

01. You Can Make It If You Try (2:17)
02. The Feeling That Music Brings (5:20)
03. Alone (3:49)
04. Wait For Me (5:59)
05. Hampmotized (7:41)
06. Loves In Need Of Love (4:17)
07. Dont Think Twice, It's All Right (4:34)
08. Voodoo Woman (5:37)
09. In The Garden (3:51)
10. Gonna Move (4:56)
11. Wrapped In The Arms Of Another (3:06)
12. It Hurt So Bad (6:01)
13. Lost Lover Blues (8:25)
14. I Fell In Love (4:46)
15. Angel From Montgomery (6:34)


EAC extraction logfile from 7. November 2005, 2:41 for CD
Susan Tedeschi / Live In Austin TX

Used drive : PLEXTOR DVDR PX-716A Adapter: 1 ID: 1
Read mode : Secure with NO C2, accurate stream, disable cache
Read offset correction : 30
Overread into Lead-In and Lead-Out : Yes

Used output format : C:\Program Files\FLAC\flac.exe (User Defined Encoder)
192 kBit/s
Additional command line options : -8 -V -T "artist=%a" -T "title=%t" -T "album=%g" -T "date=%y" -T "tracknumber=%n" -T "genre=%m" -T "comment=EAC 0.95Beta3 & FLAC 1.1.2a" %s

Other options :
Fill up missing offset samples with silence : Yes
Delete leading and trailing silent blocks : No
Installed external ASPI interface


Track 1
Filename K:\EAC\Susan Tedeschi - Live From Austin TX (2004) [FLAC]\01 - You Can Make It If You Try.wav

Pre-gap length 0:00:02.00

Peak level 98.7 %
Track quality 100.0 %
Test CRC 8144410B
Copy CRC 8144410B
Copy OK

Track 2
Filename K:\EAC\Susan Tedeschi - Live From Austin TX (2004) [FLAC]\02 - The Feeling That Music Brings.wav

Peak level 98.6 %
Track quality 100.0 %
Test CRC 15390B44
Copy CRC 15390B44
Copy OK

Track 3
Filename K:\EAC\Susan Tedeschi - Live From Austin TX (2004) [FLAC]\03 - Alone.wav

Peak level 98.9 %
Track quality 100.0 %
Test CRC 5A8BED11
Copy CRC 5A8BED11
Copy OK

Track 4
Filename K:\EAC\Susan Tedeschi - Live From Austin TX (2004) [FLAC]\04 - Wait For Me.wav

Peak level 98.3 %
Track quality 99.9 %
Test CRC 33C60E27
Copy CRC 33C60E27
Copy OK

Track 5
Filename K:\EAC\Susan Tedeschi - Live From Austin TX (2004) [FLAC]\05 - Hampmotized.wav

Peak level 98.7 %
Track quality 100.0 %
Test CRC A6087508
Copy CRC A6087508
Copy OK

Track 6
Filename K:\EAC\Susan Tedeschi - Live From Austin TX (2004) [FLAC]\06 - Loves In Need of Love.wav

Peak level 98.1 %
Track quality 100.0 %
Test CRC 1BA8F553
Copy CRC 1BA8F553
Copy OK

Track 7
Filename K:\EAC\Susan Tedeschi - Live From Austin TX (2004) [FLAC]\07 - Dont Think Twice, It's All Right.wav

Peak level 98.1 %
Track quality 100.0 %
Test CRC 9CEA9F88
Copy CRC 9CEA9F88
Copy OK

Track 8
Filename K:\EAC\Susan Tedeschi - Live From Austin TX (2004) [FLAC]\08 - Voodoo Woman.wav

Peak level 99.0 %
Track quality 99.9 %
Test CRC C0E3DB44
Copy CRC C0E3DB44
Copy OK

Track 9
Filename K:\EAC\Susan Tedeschi - Live From Austin TX (2004) [FLAC]\09 - In the Garden.wav

Peak level 98.4 %
Track quality 100.0 %
Test CRC 7D6A12B2
Copy CRC 7D6A12B2
Copy OK

Track 10
Filename K:\EAC\Susan Tedeschi - Live From Austin TX (2004) [FLAC]\10 - Gonna Move.wav

Peak level 99.1 %
Track quality 99.9 %
Test CRC F566BD2E
Copy CRC F566BD2E
Copy OK

Track 11
Filename K:\EAC\Susan Tedeschi - Live From Austin TX (2004) [FLAC]\11 - Wrapped In the Arms of Another.wav

Peak level 97.5 %
Track quality 100.0 %
Test CRC 8F2176F1
Copy CRC 8F2176F1
Copy OK

Track 12
Filename K:\EAC\Susan Tedeschi - Live From Austin TX (2004) [FLAC]\12 - It Hurt So Bad.wav

Peak level 98.8 %
Track quality 100.0 %
Test CRC D9AE3E54
Copy CRC D9AE3E54
Copy OK

Track 13
Filename K:\EAC\Susan Tedeschi - Live From Austin TX (2004) [FLAC]\13 - Lost Lover Blues.wav

Peak level 98.6 %
Track quality 100.0 %
Test CRC 72757CA1
Copy CRC 72757CA1
Copy OK

Track 14
Filename K:\EAC\Susan Tedeschi - Live From Austin TX (2004) [FLAC]\14 - I Fell In Love.wav

Peak level 98.8 %
Track quality 99.9 %
Test CRC 7AEEA86F
Copy CRC 7AEEA86F
Copy OK

Track 15
Filename K:\EAC\Susan Tedeschi - Live From Austin TX (2004) [FLAC]\15 - Angel From Montgomery.wav

Peak level 99.3 %
Track quality 100.0 %
Test CRC 8CDCEEA5
Copy CRC 8CDCEEA5
Copy OK

No errors occured


End of status report

[CUETools log; Date: 08.12.2017 4:06:40; Version: 2.1.4]
[CTDB TOCID: mLJmV3XCV8D0J.uNHRWryZme2tQ-] found.
Track | CTDB Status
1 | (50/53) Accurately ripped
2 | (51/53) Accurately ripped
3 | (52/53) Accurately ripped
4 | (53/53) Accurately ripped
5 | (53/53) Accurately ripped
6 | (53/53) Accurately ripped
7 | (53/53) Accurately ripped
8 | (53/53) Accurately ripped
9 | (53/53) Accurately ripped
10 | (52/53) Accurately ripped
11 | (53/53) Accurately ripped
12 | (53/53) Accurately ripped
13 | (53/53) Accurately ripped
14 | (52/53) Accurately ripped
15 | (50/53) Accurately ripped
[AccurateRip ID: 0027e93f-01cb9404-e012190f] found.
Track [ CRC | V2 ] Status
01 [b000320e|8e454995] (33+32/85) Accurately ripped
02 [3498d460|76d15add] (34+32/86) Accurately ripped
03 [4e463706|5996df17] (33+32/85) Accurately ripped
04 [27377454|2aa89cc8] (33+32/85) Accurately ripped
05 [9112c765|87300799] (34+32/86) Accurately ripped
06 [bb556826|c1067519] (34+32/86) Accurately ripped
07 [16a0ab6c|f13a5ebd] (34+32/87) Accurately ripped
08 [fe18696c|6de5f7f5] (34+32/86) Accurately ripped
09 [d72eac23|b4896168] (34+32/86) Accurately ripped
10 [e31ca560|3acaea99] (32+32/84) Accurately ripped
11 [11676ddb|bfc4a194] (32+31/83) Accurately ripped
12 [083b2ed4|3ebad8e8] (33+32/85) Accurately ripped
13 [0b7247bc|88340397] (32+31/83) Accurately ripped
14 [78c7f08b|44e8ddd7] (32+32/83) Accurately ripped
15 [ae21501c|d822baab] (25+22/67) Accurately ripped
Offsetted by 670:
01 [d50b0607] (04/85) Accurately ripped
02 [cc02831e] (04/86) Accurately ripped
03 [67b1dc6d] (04/85) Accurately ripped
04 [6f1e088f] (04/85) Accurately ripped
05 [31ba3064] (04/86) Accurately ripped
06 [971512f4] (04/86) Accurately ripped
07 [daac7643] (04/87) Accurately ripped
08 [8e4b44a4] (04/86) Accurately ripped
09 [74678c5d] (04/86) Accurately ripped
10 [ed306ab1] (04/84) Accurately ripped
11 [0fc59f9b] (04/83) Accurately ripped
12 [3e7ca849] (04/85) Accurately ripped
13 [f9c60bad] (04/83) Accurately ripped
14 [2cb46760] (04/83) Accurately ripped
15 [9df40623] (04/67) Accurately ripped
Offsetted by 658:
01 [2e302456] (00/85) No match (V2 was not tested)
02 [c12ce4be] (00/86) No match (V2 was not tested)
03 [fbdb9061] (00/85) No match (V2 was not tested)
04 [08e12de7] (00/85) No match (V2 was not tested)
05 [1b91cf4d] (00/86) No match (V2 was not tested)
06 [834ac35f] (00/86) No match (V2 was not tested)
07 [07ad818d] (00/87) No match (V2 was not tested)
08 [eec3aa99] (00/86) No match (V2 was not tested)
09 [f77d5a9f] (00/86) No match (V2 was not tested)
10 [d6dc7734] (00/84) No match (V2 was not tested)
11 [91327db6] (00/83) No match (V2 was not tested)
12 [febf2f5b] (00/85) No match (V2 was not tested)
13 [e34dd65e] (00/83) No match (V2 was not tested)
14 [c4f1efab] (00/83) No match (V2 was not tested)
15 [c8856c7e] (00/67) No match (V2 was not tested)

Track Peak [ CRC32 ] [W/O NULL] [ LOG ]
– 99,3 [B168EAE0] [9EBCBD2D]
01 98,7 [8144410B] [D70521DB] CRC32
02 98,6 [15390B44] [29821749] CRC32
03 98,9 [5A8BED11] [77068AD4] CRC32
04 98,3 [33C60E27] [21EF961E] CRC32
05 98,7 [A6087508] [7978F2A6] CRC32
06 98,1 [1BA8F553] [53420392] CRC32
07 98,1 [9CEA9F88] [976A8881] CRC32
08 99,0 [C0E3DB44] [DD2498F3] CRC32
09 98,4 [7D6A12B2] [7856DC25] CRC32
10 99,1 [F566BD2E] [DFEF82EF] CRC32
11 97,5 [8F2176F1] [97E2F8CA] CRC32
12 98,8 [D9AE3E54] [10365550] CRC32
13 98,6 [72757CA1] [03DF6A9A] CRC32
14 98,8 [7AEEA86F] [798CEBEA] CRC32
15 99,3 [8CDCEEA5] [C527BCBA] CRC32

foobar2000 1.2 / Dynamic Range Meter 1.1.1
log date: 2017-12-08 05:25:53

––––––––––––––––––––––––––––––––––––––––
Analyzed: Susan Tedeschi / Live In Austin Tx
––––––––––––––––––––––––––––––––––––––––

DR Peak RMS Duration Track
––––––––––––––––––––––––––––––––––––––––
DR7 -0.11 dB -9.29 dB 2:17 01-You Can Make It If You Try
DR7 -0.12 dB -8.82 dB 5:20 02-The Feeling That Music Brings
DR7 -0.09 dB -9.20 dB 3:49 03-Alone
DR7 -0.15 dB -10.44 dB 5:59 04-Wait For Me
DR8 -0.11 dB -11.26 dB 7:41 05-Hampmotized
DR8 -0.16 dB -11.52 dB 4:17 06-Loves In Need Of Love
DR8 -0.17 dB -10.81 dB 4:34 07-Dont Think Twice, It's All Right
DR7 -0.08 dB -9.05 dB 5:37 08-Voodoo Woman
DR8 -0.14 dB -10.23 dB 3:51 09-In The Garden
DR6 -0.07 dB -8.09 dB 4:56 10-Gonna Move
DR10 -0.22 dB -14.22 dB 3:06 11-Wrapped In The Arms Of Another
DR7 -0.10 dB -9.00 dB 6:01 12-It Hurt So Bad
DR8 -0.12 dB -12.19 dB 8:25 13-Lost Lover Blues
DR6 -0.10 dB -7.31 dB 4:46 14-I Fell In Love
DR10 -0.05 dB -12.88 dB 6:34 15-Angel From Montgomery
––––––––––––––––––––––––––––––––––––––––

Number of tracks: 15
Official DR value: DR8

Samplerate: 44100 Hz
Channels: 2
Bits per sample: 16
Bitrate: 790 kbps
Codec: FLAC
================================================================================

Susan Tedeschi - Live From Austin Tx (2004) CD & DVD Releases

Susan Tedeschi - Live From Austin Tx (2004) CD & DVD Releases

All thanks to original releaser - Rollo



Susan Tedeschi - Live From Austin Tx (2004) CD & DVD Releases

Susan Tedeschi - Live from Austin, Texas (2004)
DVD5 | NTSC | 4:3 (720x480) VBR | AC3 5.1, 448 kbps or 2.0, 192 kbps | ~ 3.6 Gb
Label: New West | # NW8002 | Time: 01:23:32

Though the Austin City Limits series often spotlights Texas talent, this 2003 taping finds New England blueswoman Susan Tedeschi making herself right at home. Like Bonnie Raitt a few decades earlier, Tedeschi extends her musical inclinations beyond blues purism, sampling from the songbooks of Sly Stone ("You Can Make It If You Try"), Bob Dylan ("Don't Think Twice, It's All Right"), Stevie Wonder ("Love's in Need of Love Today"), and John Prine ("Angel from Montgomery," also a signature tune for Raitt) in addition to the more straightforward blues of Koko Taylor ("Voodoo Woman"). Though Tedeschi's stinging lead guitar provides the focus, she receives strong support from a band featuring the interplay of electric pianist Jason Crosby (who doubles on violin) and William Green on Hammond B-3 organ. Highlights include a tribute to jam-band inspiration Col. Bruce Hampton on "Hampmotized" and the simmering "Wait for Me," with its echoes of Aretha Franklin. Tedeschi has yet to show the suppleness as a vocalist to complement her guitar chops, but the musical range she displays here bodes well for her artistic development.

Review by Don McLeese

Part of a new series of recordings taken from the Austin City Limits broadcasts, Susan Tedeschi's performance is a more complete – though not unedited – version of what viewers saw on TV. Tedeschi's music naturally gives itself to a live setting. The program is a good one; featuring her regular band, this set juxtaposes a nice collection of material that has appeared on her studio albums, performed with a wonderful balance of passion and finesse that free-ranges across R&B, blues, and funk. Tedeschi's gifts as a singer are considerable. She understands the limits of her middling range and knows how to emphasize nuance and expressiveness. In fact, though most obviously influenced by Bonnie Raitt, she is a true vocal stylist with her own unique sense of phrasing – and live, the added grit and grease underscore the emotional nature of her tunes. As a guitar player, she's as slinger, period. She can hang with anyone. To top it all off, her bandmembers are crack; they pop the grooves in all the right places and never drop it. The finest moments here are her own songs, such as "I Fell in Love," "In the Garden," and "Wrapped in the Arms of Another." But some of the covers here stand out from their studio renditions, such as her now signature read of Paul Pena's "Gonna Move," Tommy Sims' "Alone," Stevie Wonder's "Love's in Need of Love Today," and her barn-burning version of John Prine's "Angel from Montgomery," which is so closely identified with Raitt. "Gonna Move," in particular, is almost an anthem at this point; Tedeschi's easy delivery and deep soul/gospel expressiveness are buoyed by the Hammond B-3 punch of Jason Crosby that swirls around her voice as she coaxes heartbreak and determination from Pena's lyric. This is a fine Tedeschi artifact; it doesn't replace her studio outings in any way, but it complements them nicely.

Review by Thom Jurek, Allmusic.com


DVD Content:

01. You Can Make It If You Try
02. The Feeling Music Brings
03. Alone
04. Wait For Me
05. Hampmotized
06. Love's In Need Of Love Today
07. Don't Think Twice, It's All Right
08. Voodoo Woman
09. In The Garden
10. Gonna Move
11. Wrapped In The Arms Of Another
12. It Hurts So Bad
13. Lost Lover Blues
14. I Feel In Love
15. Angel From Montgomery


Susan Tedeschi - Live From Austin Tx (2004) CD & DVD Releases

Susan Tedeschi - Live From Austin Tx (2004) CD & DVD Releases

Susan Tedeschi - Live From Austin Tx (2004) CD & DVD Releases

Susan Tedeschi - Live From Austin Tx (2004) CD & DVD Releases

Susan Tedeschi - Live From Austin Tx (2004) CD & DVD Releases

Susan Tedeschi - Live From Austin Tx (2004) CD & DVD Releases

Susan Tedeschi - Live From Austin Tx (2004) CD & DVD Releases

Susan Tedeschi - Live From Austin Tx (2004) CD & DVD Releases

Susan Tedeschi - Live From Austin Tx (2004) CD & DVD Releases

Susan Tedeschi - Live From Austin Tx (2004) CD & DVD Releases

Susan Tedeschi - Live From Austin Tx (2004) CD & DVD Releases

Susan Tedeschi - Live From Austin Tx (2004) CD & DVD Releases

Susan Tedeschi - Live From Austin Tx (2004) CD & DVD Releases

All thanks to original releaser - svetlov_d