Subcategories
Tags
Language
Tags

Susan Tedeschi - Hope And Desire (2005) [Re-Up]

Posted By: Designol
Susan Tedeschi - Hope And Desire (2005) [Re-Up]

Susan Tedeschi - Hope And Desire (2005)
EAC | FLAC | Image (Cue&Log) ~ 349 Mb | Mp3 (CBR320) ~ 153 Mb | Scans included
Label: Verve | # 0602498836163 | Time: 00:45:25
Modern Electric Blues, Contemporary Blues

On her first outing in three years and her freshman offering for Verve's Forecast label, Susan Tedeschi digs deep into the soul and R&B fakebook for inspiration and comes out a winner. With an all-star band that includes guitarist Doyle Bramhall II, pianist David Palmer, organist Jebin Bruni, bassist Paul Bryan, drummer Jay Bellerose, and guests including husband Derek Trucks and the Blind Boys of Alabama, Tedeschi goes down into her own heart's well for inspiration. Wonderfully produced by Joe Henry, Hope and Desire is truly a singer's showcase of passion and class; she has signature phrasing and is an excellent interpreter. Henry proves that Tedeschi is one hell of a singer. From the roots-country blues of the Jagger and Richards opener, "You Got the Silver," to the hardcore soul of Otis Redding's "Security" (her version is closer to the Etta James reading than Redding's but Tedeschi puts her own hard spin on it), the garbage-can blues guitar of Percy Mayfield's ripping "The Danger Zone," and the finger-poppin' R&B of "Tired of My Tears," Tedeschi proves she's second to none by wringing every ounce of truth from these classic tunes. In addition, her subtle, to-the-bone reading of Bob Dylan's "Lord Protect My Child" (with great Dobro work by Trucks), a definitive version of Iris DeMent's "Sweet Forgiveness," and Dorsey Brunette's "Magnificent Sanctuary Band" offer solid proof that Tedeschi can sing gospel as well. In fact, based on the evidence here, she can sing any damn thing she likes and move your heart, making you believe every word and wail in the grain of a song. That's as high a compliment as one can pay.

Review by Thom Jurek, Allmusic.com

Susan Tedeschi - Hope And Desire (2005) [Re-Up]



Tracklist:

01. You Got The Silver (02:52)
02. Soul Of A Man (03:15)
03. Lord Protect My Child (04:45)
04. Tired Of My Tears (02:42)
05. Share Your Love With Me (03:49)
06. Evidence (03:43)
07. Sweet Forgiveness (04:47)
08. Security (02:56)
09. Loving You Is Sweeter Than Ever (03:57)
10. Magnificent Sanctuary Band (03:01)
11. Follow (06:48)
12. The Danger Zone (02:42)


Exact Audio Copy V1.0 beta 4 from 7. December 2014

Отчёт EAC об извлечении, выполненном 15. марта 2015, 12:56

Susan Tedeschi / Hope And Desire

Дисковод: SONY CD-RW CRX230ED Adapter: 1 ID: 0

Режим чтения : Достоверность
Использование точного потока : Да
Отключение кэша аудио : Да
Использование указателей C2 : Нет

Коррекция смещения при чтении : 6
Способность читать области Lead-in и Lead-out : Нет
Заполнение пропущенных сэмплов тишиной : Да
Удаление блоков с тишиной в начале и конце : Нет
При вычислениях CRC использовались нулевые сэмплы : Да
Интерфейс : Встроенный Win32-интерфейс для Win NT/2000

Выходной формат : Внутренние WAV-операции
Формат сэмплов : 44.100 Гц; 16 бит; стерео


TOC извлечённого CD

Трек | Старт | Длительность | Начальный сектор | Конечный сектор
––––––––––––––––––––––––––––––––––-
1 | 0:00.00 | 2:52.68 | 0 | 12967
2 | 2:52.68 | 3:15.70 | 12968 | 27662
3 | 6:08.63 | 4:45.50 | 27663 | 49087
4 | 10:54.38 | 2:42.60 | 49088 | 61297
5 | 13:37.23 | 3:49.62 | 61298 | 78534
6 | 17:27.10 | 3:43.18 | 78535 | 95277
7 | 21:10.28 | 4:47.67 | 95278 | 116869
8 | 25:58.20 | 2:56.61 | 116870 | 130130
9 | 28:55.06 | 3:57.57 | 130131 | 147962
10 | 32:52.63 | 3:01.33 | 147963 | 161570
11 | 35:54.21 | 6:48.38 | 161571 | 192208
12 | 42:42.59 | 2:42.40 | 192209 | 204398


Характеристики диапазона извлечения и сообщения об ошибках

Выбранный диапазон

Имя файла F:\MusicCD\Torrent\Susan Tedeschi - Hope And Desire\Susan Tedeschi - Hope And Desire.wav

Пиковый уровень 99.7 %
Скорость извлечения 7.2 X
Качество диапазона 100.0 %
CRC теста B92C51B7
CRC копии B92C51B7
Копирование… OK

Ошибок не произошло


AccurateRip: сводка

Трек 1 : извлечено точно (доверие 98) [935C12E3] (AR v2)
Трек 2 : извлечено точно (доверие 100) [A5BCE20B] (AR v2)
Трек 3 : извлечено точно (доверие 99) [F7FA7334] (AR v2)
Трек 4 : извлечено точно (доверие 99) [BA696831] (AR v2)
Трек 5 : извлечено точно (доверие 97) [4D0123C7] (AR v2)
Трек 6 : извлечено точно (доверие 96) [CEB373BC] (AR v2)
Трек 7 : извлечено точно (доверие 98) [69D49984] (AR v2)
Трек 8 : извлечено точно (доверие 98) [538546B2] (AR v2)
Трек 9 : извлечено точно (доверие 98) [0C9CADF9] (AR v2)
Трек 10 : извлечено точно (доверие 98) [B4885AFB] (AR v2)
Трек 11 : извлечено точно (доверие 97) [E63D9DED] (AR v2)
Трек 12 : извлечено точно (доверие 98) [DCD17F37] (AR v2)

Все треки извлечены точно

Конец отчёта

–– CUETools DB Plugin V2.1.4

[CTDB TOCID: c_HgbBljUI2hXcncxHRLDTuykF8-] found
Submit result: c_HgbBljUI2hXcncxHRLDTuykF8- has been confirmed
Track | CTDB Status
1 | (52/52) Accurately ripped
2 | (52/52) Accurately ripped
3 | (51/52) Accurately ripped
4 | (52/52) Accurately ripped
5 | (52/52) Accurately ripped
6 | (51/52) Accurately ripped
7 | (51/52) Accurately ripped
8 | (52/52) Accurately ripped
9 | (51/52) Accurately ripped
10 | (52/52) Accurately ripped
11 | (51/52) Accurately ripped
12 | (51/52) Accurately ripped


==== Контрольная сумма отчёта A75904A84C10A04CBD6E1A52EFB54B5BD436D0B530838F12E25C36A1822C51CA ====

foobar2000 1.2 / Dynamic Range Meter 1.1.1
log date: 2015-03-17 12:55:01

––––––––––––––––––––––––––––––––––––––––
Analyzed: Susan Tedeschi / Hope And Desire
––––––––––––––––––––––––––––––––––––––––

DR Peak RMS Duration Track
––––––––––––––––––––––––––––––––––––––––
DR6 -0.02 dB -9.57 dB 2:53 01-You Got The Silver
DR7 -0.02 dB -8.59 dB 3:16 02-Soul Of A Man
DR7 -0.02 dB -9.09 dB 4:46 03-Lord Protect My Child
DR7 -0.02 dB -8.14 dB 2:43 04-Tired Of My Tears
DR7 -0.02 dB -9.25 dB 3:50 05-Share Your Love With Me
DR7 -0.28 dB -8.77 dB 3:43 06-Evidence
DR7 -0.02 dB -9.66 dB 4:48 07-Sweet Forgiveness
DR7 -0.28 dB -8.29 dB 2:57 08-Security
DR7 -0.02 dB -8.80 dB 3:58 09-Loving You Is Sweeter Than Ever
DR6 -0.02 dB -8.38 dB 3:01 10-Magnificent Sanctuary Band
DR7 -0.02 dB -8.59 dB 6:49 11-Follow
DR8 -0.28 dB -9.32 dB 2:43 12-The Danger Zone
––––––––––––––––––––––––––––––––––––––––

Number of tracks: 12
Official DR value: DR7

Samplerate: 44100 Hz
Channels: 2
Bits per sample: 16
Bitrate: 923 kbps
Codec: FLAC
================================================================================

Susan Tedeschi - Hope And Desire (2005) [Re-Up]

Susan Tedeschi - Hope And Desire (2005) [Re-Up]

All thanks to original releaser - squirr

More interesting music in My Blog