Subcategories

Swedish Erotica - Swedish Erotica (1989) [Japan 1st Press]

Posted By: Andi_Deris
Swedish Erotica - Swedish Erotica (1989) [Japan 1st Press]

Swedish Erotica - Swedish Erotica (1989) [Japan 1st Press]
EAC Rip | FLAC: Image+Cue+Log | 339 Mb | MP3 CBR 320 kbps | 127 Mb | Scans | Time: 43:23
Virgin Japan Ltd. | VJCP-11
Hard Rock, Hair/Glam Metal

The debut album "Swedish Erotica" came out in 1989. "Swedish Erotica" self-titled album - one of the best Scandinavian debut albums of all time. Great scandi sleaze/hair metal stuff, an absolute must-own for any fan of the genre. On vocals Mats Leven does a perfect job with his powerfull strong voice. A very good production, memorable hooks and great guitar sounds.

Swedish Erotica - Swedish Erotica (1989) [Japan 1st Press]




Swedish Erotica - Swedish Erotica (1989) [Japan 1st Press]


Track Listing

01. Love Me Or Leave Me (4:27)
02. Downtown (3:55)
03. We're Wild, Young And Free (4:43)
04. Hollywood Dreams (4:26)
05. Loaded Gun (3:59)
06. Rip It Off (4:24)
07. Love On The Line (4:19)
08. Love Hunger (5:01)
09. She Drives Me Crazy (3:31)
10. Break The Walls (4:38)

Produced by Ole Evenrude

The Band

Mats Levén - lead vocals, background vocals, keyboards
• Magnus Axx - lead, rhythm and acoustic guitars, background vocals
• Morgan Le Fay - lead, rhythm and acoustic guitars, background vocals
• Johnny D'Fox - bass, background vocals
• B.C. Strike - drums, background vocals

*****
• Ole Evenrude - keyboards tracks 1,3,4, background vocals tracks 1,8
• Tony Niva - backing vocals tracks 2,3,4,5,6,7,8,9 & 10
• John Ballard - backing vocals track 7
• Siri Dale - female voice track 2

Swedish Erotica - Swedish Erotica (1989) [Japan 1st Press]


Exact Audio Copy V0.99 prebeta 5 from 4. May 2009

EAC extraction logfile from 13. August 2010, 17:57

Swedish Erotica / Swedish Erotica

Used drive : PIONEER DVD-RW DVR-215D Adapter: 3 ID: 0

Read mode : Secure
Utilize accurate stream : Yes
Defeat audio cache : Yes
Make use of C2 pointers : No

Read offset correction : 48
Overread into Lead-In and Lead-Out : No
Fill up missing offset samples with silence : Yes
Delete leading and trailing silent blocks : No
Null samples used in CRC calculations : Yes
Used interface : Native Win32 interface for Win NT & 2000

Used output format : User Defined Encoder
Selected bitrate : 768 kBit/s
Quality : High
Add ID3 tag : No
Command line compressor : C:\Program Files\Exact Audio Copy\FLAC\FLAC.EXE
Additional command line options : -8 -V %s

TOC of the extracted CD

Track | Start | Length | Start sector | End sector
––––––––––––––––––––––––––––-
1 | 0:00.37 | 4:27.40 | 37 | 20101
2 | 4:28.02 | 3:55.00 | 20102 | 37726
3 | 8:23.02 | 4:43.50 | 37727 | 59001
4 | 13:06.52 | 4:26.68 | 59002 | 79019
5 | 17:33.45 | 3:59.12 | 79020 | 96956
6 | 21:32.57 | 4:24.65 | 96957 | 116821
7 | 25:57.47 | 4:19.68 | 116822 | 136314
8 | 30:17.40 | 5:01.65 | 136315 | 158954
9 | 35:19.30 | 3:31.22 | 158955 | 174801
10 | 38:50.52 | 4:38.73 | 174802 | 195724

Range status and errors

Selected range

Filename C:\lossless\my Rips\Swedish Erotica\Swedish Erotica 1989 (VJCP-11, Japan)\Swedish Erotica - Swedish Erotica.wav

Peak level 100.0 %
Range quality 99.9 %
Test CRC 6DF4EA74
Copy CRC 6DF4EA74
Copy OK

No errors occurred

AccurateRip summary

Track 1 not present in database
Track 2 not present in database
Track 3 not present in database
Track 4 not present in database
Track 5 not present in database
Track 6 not present in database
Track 7 not present in database
Track 8 not present in database
Track 9 not present in database
Track 10 not present in database

None of the tracks are present in the AccurateRip database

End of status report


Many thanks to the original uploader: boets

SEE also:
AB/CD 1992 The Rock 'n' Roll Devil
AB/CD 1995 Cut The Crap!