Subcategories

Swod - 2 Studio Albums (2004-2007)

Posted By: gribovar
Swod - 2 Studio Albums (2004-2007)

Swod - 2 Studio Albums (2004-2007)
EAC Rip | FLAC (image+.cue+log) - 447 MB | MP3 CBR 320 kbps (LAME 3.93) - 199 MB | Covers - 51 MB
Genre: Modern Classical, Electronic | RAR 3% Rec. | Label: City Centre Offices

Swod is the recording project of Oliver Doerell and Stephan Wohrmann, two accomplished musicians who met in Berlin sometime in 1991. Oliver plays guitar, bass and all manner of electronics - he is also a long-time family member of City Centre Offices having recorded an album and an EP under the “Dictaphone” moniker in between composing and performing musical pieces for theatre, installations and film over the last few years. Stephan plays piano and drums, arranging an almost neo-classical structure within a recording that already sounds ghostly and cinematic. Translated as "go", "Gehen" (2004) represents a labour of love from two musicians experienced in the art of seductive and evocative music making. Having first worked together producing live soundtracks to silent movies, Oliver and Stephan tread a delicate board of crystalline piano cascades and the sort of subtle electronic tinkering you can barely recognise or absorb in one sitting. It’s fitting that the pair are so used to tailor-making their harmonious shards of sound to moving imagery, "Gehen" evokes a plethora of half forgotten films and life experiences offered up in glimpses in the back of your mind. If you can imagine a sitting specially programmed by film directors Théo Angelopoulos or Krzysztof Kieslowski, or the music of eric satie, ryuchi sakamoto or keith jarret’s "Koln concert", you’ll have some idea of what to expect.

"Sekunden" (2007) is the second full-length release by Swod, following 2004's highly-acclaimed "Gehen" album. If there's been one positive trend emerging from the ruins of what used to be called electronica for the last couple of years, it has been the comeback of acoustic instruments, especially the piano. Swod, without a doubt, are among the founding fathers of this new, almost neoclassical approach and the success of their debut only proved them right. "Sekunden" is more than a simple follow-up, more than what bands just do… keep on recording and eventually coming up with a second album, even though it is made of the same ingredients: Wöhrmann's piano and drums, Doerell's guitar, bass and electronics. And yet Sekunden is bigger than even the band's die-hard fans could have hoped for. The melodies are catchier, the bass is tighter, the electronics catch the general mood of the tracks even better and the drums, in all their subtlety, are funkier.

Swod - 2 Studio Albums (2004-2007)

Swod - Gehen (2004)
EAC Rip | FLAC (image+.cue+log) - 232 MB | MP3 CBR 320 kbps (LAME 3.93) - 102 MB | Covers - 27 MB
Genre: Modern Classical, Electronic | RAR 3% Rec. | Label: City Centre Offices (towerblock cd 021)

Tracklist:
01. Intro
02. Fugitif 1
03. Nein
04. Gehen
05. Fugitif 2
06. Attends
07. Tucholskystr.34
08. I Think He Was A Journalist
09. Hochbahn
10. Walz 57

Total time: 43:40

Exact Audio Copy V0.99 prebeta 5 from 4. May 2009

EAC extraction logfile from 6. July 2009, 1:21

Swod / Gehen

Used drive : Optiarc DVD RW AD-7240S Adapter: 0 ID: 1

Read mode : Secure
Utilize accurate stream : Yes
Defeat audio cache : Yes
Make use of C2 pointers : No

Read offset correction : 48
Overread into Lead-In and Lead-Out : No
Fill up missing offset samples with silence : Yes
Delete leading and trailing silent blocks : No
Null samples used in CRC calculations : Yes
Used interface : Installed external ASPI interface

Used output format : User Defined Encoder
Selected bitrate : 1024 kBit/s
Quality : High
Add ID3 tag : No
Command line compressor : C:\Program Files\Exact Audio Copy\FLAC\FLAC.EXE
Additional command line options : -8 -V -T "ARTIST=%a" -T "TITLE=%t" -T "ALBUM=%g" -T "DATE=%y" -T "TRACKNUMBER=%n" -T "GENRE=%m" -T "COMMENT=%e" %s -o %d


TOC of the extracted CD

Track | Start | Length | Start sector | End sector
––––––––––––––––––––––––––––-
1 | 0:00.00 | 1:08.31 | 0 | 5130
2 | 1:08.31 | 4:53.27 | 5131 | 27132
3 | 6:01.58 | 4:23.05 | 27133 | 46862
4 | 10:24.63 | 4:47.08 | 46863 | 68395
5 | 15:11.71 | 5:09.52 | 68396 | 91622
6 | 20:21.48 | 4:56.66 | 91623 | 113888
7 | 25:18.39 | 3:24.40 | 113889 | 129228
8 | 28:43.04 | 6:13.34 | 129229 | 157237
9 | 34:56.38 | 4:44.63 | 157238 | 178600
10 | 39:41.26 | 3:58.13 | 178601 | 196463


Range status and errors

Selected range

Filename D:\_EAC_Ripped\Swod - Gehen.wav

Peak level 98.7 %
Range quality 99.9 %
Test CRC 0E1B3C26
Copy CRC 0E1B3C26
Copy OK

No errors occurred


AccurateRip summary

Track 1 accurately ripped (confidence 5) [10AFD710]
Track 2 accurately ripped (confidence 5) [F361146E]
Track 3 accurately ripped (confidence 5) [ED552A20]
Track 4 accurately ripped (confidence 5) [4452A274]
Track 5 accurately ripped (confidence 5) [451B36CA]
Track 6 accurately ripped (confidence 5) [B7381C24]
Track 7 accurately ripped (confidence 5) [39755063]
Track 8 accurately ripped (confidence 5) [6E42E7A7]
Track 9 accurately ripped (confidence 5) [06DBD80A]
Track 10 accurately ripped (confidence 5) [F4B61E5B]

All tracks accurately ripped

End of status report

[CUETools log; Date: 05.05.2017 17:56:20; Version: 2.1.4]
[CTDB TOCID: N3trSDB4U06m2.3nDfIYWLbA.zY-] found.
Track | CTDB Status
1 | (10/10) Accurately ripped
2 | (10/10) Accurately ripped
3 | (10/10) Accurately ripped
4 | (10/10) Accurately ripped
5 | (10/10) Accurately ripped
6 | (10/10) Accurately ripped
7 | (10/10) Accurately ripped
8 | (10/10) Accurately ripped
9 | (10/10) Accurately ripped
10 | (10/10) Accurately ripped
[AccurateRip ID: 000f7b27-007fa06f-720a3b0a] found.
Track [ CRC | V2 ] Status
01 [10afd710|beb5a1dd] (10+05/15) Accurately ripped
02 [f361146e|16da7eca] (10+05/15) Accurately ripped
03 [ed552a20|f371781d] (10+05/15) Accurately ripped
04 [4452a274|1b71944d] (10+05/15) Accurately ripped
05 [451b36ca|043927ac] (10+05/15) Accurately ripped
06 [b7381c24|217209d2] (10+05/15) Accurately ripped
07 [39755063|15b60cc4] (10+05/15) Accurately ripped
08 [6e42e7a7|91143e8b] (10+05/15) Accurately ripped
09 [06dbd80a|a2ed4a02] (10+05/15) Accurately ripped
10 [f4b61e5b|56e95195] (09+05/14) Accurately ripped

Track Peak [ CRC32 ] [W/O NULL] [ LOG ]
– 98,7 [0E1B3C26] [A58B0E4E] CRC32
01 98,5 [8665C463] [A63B76F5]
02 98,5 [B86CB55B] [0DCB1416]
03 98,6 [B29FB991] [ABC5536B]
04 98,5 [9AE4DE90] [5D1991BC]
05 98,5 [83DD5774] [548E59C6]
06 98,3 [2485C286] [58EE1FBA]
07 87,9 [3E425DB4] [18887BC7]
08 98,7 [EA818521] [CC2DDFCF]
09 98,5 [2340246D] [BD479231]
10 36,6 [9E64858B] [1757470E]

Swod - 2 Studio Albums (2004-2007)

Swod - Sekunden (2007)
EAC Rip | FLAC (image+.cue+log) - 215 MB | MP3 CBR 320 kbps (LAME 3.93) - 97 MB | Covers - 24 MB
Genre: Modern Classical, Electronic | RAR 3% Rec. | Label: City Centre Offices (towerblock CD 041)

Tracklist:
01. Montauk
02. Ja
03. Deer
04. Sekunden
05. Exit
06. Insects
07. Belgien
08. Frost
09. Patinage
Video: "Mamaev Kurgan", "Avtobus"

Total time: 41:08

Exact Audio Copy V0.99 prebeta 4 from 23. January 2008

EAC extraction logfile from 3. May 2008, 14:31

Swod / Sekunden

Used drive : HL-DT-STDVDRAM GSA-E40L Adapter: 5 ID: 0

Read mode : Secure
Utilize accurate stream : Yes
Defeat audio cache : Yes
Make use of C2 pointers : No

Read offset correction : 667
Overread into Lead-In and Lead-Out : No
Fill up missing offset samples with silence : Yes
Delete leading and trailing silent blocks : No
Null samples used in CRC calculations : Yes
Used interface : Native Win32 interface for Win NT & 2000

Used output format : Internal WAV Routines
Sample format : 44.100 Hz; 16 Bit; Stereo


TOC of the extracted CD

Track | Start | Length | Start sector | End sector
––––––––––––––––––––––––––––-
1 | 0:00.00 | 4:40.68 | 0 | 21067
2 | 4:40.68 | 6:22.17 | 21068 | 49734
3 | 11:03.10 | 3:45.71 | 49735 | 66680
4 | 14:49.06 | 4:53.02 | 66681 | 88657
5 | 19:42.08 | 4:00.01 | 88658 | 106658
6 | 23:42.09 | 4:16.20 | 106659 | 125878
7 | 27:58.29 | 4:17.15 | 125879 | 145168
8 | 32:15.44 | 3:17.37 | 145169 | 159980
9 | 35:33.06 | 5:34.70 | 159981 | 185100
10 | 43:40.01 | 27:09.06 | 196501 | 318681


Range status and errors

Selected range

Filename E:\Swod - Sekunden\Swod - Sekunden.wav

Peak level 98.7 %
Range quality 99.9 %
Test CRC B376D9DD
Copy CRC B376D9DD
Copy OK

No errors occurred


AccurateRip summary

Track 1 accurately ripped (confidence 3) [C39BDC4D]
Track 2 accurately ripped (confidence 3) [7DA5931B]
Track 3 accurately ripped (confidence 3) [20639542]
Track 4 accurately ripped (confidence 3) [3516885E]
Track 5 accurately ripped (confidence 3) [F9FF8925]
Track 6 accurately ripped (confidence 3) [585E9FD0]
Track 7 accurately ripped (confidence 3) [FB0D970E]
Track 8 accurately ripped (confidence 3) [9F151EAD]
Track 9 accurately ripped (confidence 3) [5520D01D]

All tracks accurately ripped

End of status report

[CUETools log; Date: 05.05.2017 17:55:55; Version: 2.1.4]
CD-Extra data track length 27:09:06.
[CTDB TOCID: CyeA.E8DLgfFd39XRX.Qch06rYc-] found.
Track | CTDB Status
1 | (6/6) Accurately ripped
2 | (6/6) Accurately ripped
3 | (6/6) Accurately ripped
4 | (6/6) Accurately ripped
5 | (6/6) Accurately ripped
6 | (6/6) Accurately ripped
7 | (6/6) Accurately ripped
8 | (6/6) Accurately ripped
9 | (6/6) Accurately ripped
[AccurateRip ID: 00108490-007d4820-8410990a] found.
Track [ CRC | V2 ] Status
01 [c39bdc4d|00da0827] (09+06/15) Accurately ripped
02 [7da5931b|61ac2d52] (09+06/15) Accurately ripped
03 [20639542|977527df] (08+06/14) Accurately ripped
04 [3516885e|5b49ce4a] (08+06/14) Accurately ripped
05 [f9ff8925|324f4aab] (08+06/14) Accurately ripped
06 [585e9fd0|ae81e8be] (08+06/14) Accurately ripped
07 [fb0d970e|6f479d5f] (08+06/14) Accurately ripped
08 [9f151ead|9e50b372] (08+06/14) Accurately ripped
09 [5520d01d|875ae0e3] (07+06/13) Accurately ripped
Offsetted by -18:
01 [7beb7ff3] (00/15) No match (V2 was not tested)
02 [25e24d4a] (00/15) No match (V2 was not tested)
03 [c688ecf4] (00/14) No match (V2 was not tested)
04 [d7ede235] (00/14) No match (V2 was not tested)
05 [5dcffd4b] (00/14) No match (V2 was not tested)
06 [04e859b2] (00/14) No match (V2 was not tested)
07 [3134d50c] (00/14) No match (V2 was not tested)
08 [a9b9ced9] (00/14) No match (V2 was not tested)
09 [5adf3a48] (00/13) No match (V2 was not tested)

Track Peak [ CRC32 ] [W/O NULL] [ LOG ]
– 98,7 [B376D9DD] [FFFCEF8F] CRC32
01 98,4 [7D529EFA] [8F18D286]
02 98,4 [476FE9C7] [885A3B75]
03 98,5 [8C013ED2] [E43463EF]
04 98,4 [6D686862] [813CBC0F]
05 98,7 [57E65E24] [70F5185E]
06 71,1 [71D73333] [5E29952D]
07 87,8 [AED4A0B6] [154B7D5A]
08 78,0 [78CB1296] [0E79A817]
09 98,6 [41611DDC] [2B586586]

Thanks to EPSmuz & Michaela