Subcategories

Sylvie Vartan - Show Sylvie Vartan (1975 Remaster) (2013)

Posted By: tirexiss
Sylvie Vartan - Show Sylvie Vartan (1975 Remaster) (2013)

Sylvie Vartan - Show Sylvie Vartan (1975 Remaster) (2013)
EAC | FLAC (image+.cue, log) | 293 MB | MP3 (CBR 320 kbps) - 124 MB | Covers Included | 45:29
Genre: Pop, Chanson | Label: Culture Factory | Catalog: 781 999

This album is the soundtrack from the TV show produced by Maritie & Gilbert CARPENTIER and aired March 29th 1975. It includes duets with Fernand SARDOU, and Jean-Jacques DEBOUT. It also includes the track "Toi et moi" which is a duet performed with Johnny HALLYDAY. The track "Tout au fond des tiroirs" also features on the album.

Sylvie Vartan - Show Sylvie Vartan (1975 Remaster) (2013)

Track List:

01. Monologue
02. J'ai le coeur peine, j'ai le coeur en joie
03. Monologue
04. Tout au fond des tiroirs
05. Monologue
06. Lorsque je pars en permission
07. Monologue
08. Lorsque l'on est ouvrière / Polka des interdictions / Final des interdictions
09. Monologue
10. Ballet New Orleans
11. Monologue
12. Elle ne viendra pas ce soir
13. Monologue
14. Pour que je t'aime de tout mon corps
15. Monologue
16. Nous ne nous aimerons jamais
17. Monologue
18. La bagarre
19. Toi et moi
20. Monologue
21. Bonne année nouvelle
Titres bonus :
22. Bon anniversaire
23. Nous ne nous aimerons jamais
24. Marie Blanche

Exact Audio Copy V1.3 from 2. September 2016

EAC extraction logfile from 17. August 2019, 11:51

Sylvie Vartan / Show Sylvie Vartan

Used drive : HL-DT-STDVDRAM GH24NS90 Adapter: 1 ID: 0

Read mode : Secure
Utilize accurate stream : Yes
Defeat audio cache : Yes
Make use of C2 pointers : No

Read offset correction : 6
Overread into Lead-In and Lead-Out : No
Fill up missing offset samples with silence : Yes
Delete leading and trailing silent blocks : No
Null samples used in CRC calculations : Yes
Used interface : Native Win32 interface for Win NT & 2000

Used output format : User Defined Encoder
Selected bitrate : 896 kBit/s
Quality : High
Add ID3 tag : Yes
Command line compressor : C:\Program Files (x86)\Exact Audio Copy\FLAC\FLAC.EXE
Additional command line options : -T "artist=%artist%" -T "title=%title%" -T "album=%albumtitle%" -T "date=%year%" -T "tracknumber=%tracknr%" -T "genre=%genre%" -5 %source%


TOC of the extracted CD

Track | Start | Length | Start sector | End sector
––––––––––––––––––––––––––––-
1 | 0:00.00 | 0:23.72 | 0 | 1796
2 | 0:23.72 | 2:30.57 | 1797 | 13103
3 | 2:54.54 | 0:28.71 | 13104 | 15274
4 | 3:23.50 | 1:52.72 | 15275 | 23746
5 | 5:16.47 | 0:20.55 | 23747 | 25301
6 | 5:37.27 | 2:22.21 | 25302 | 35972
7 | 7:59.48 | 0:37.11 | 35973 | 38758
8 | 8:36.59 | 3:13.13 | 38759 | 53246
9 | 11:49.72 | 0:20.60 | 53247 | 54806
10 | 12:10.57 | 2:24.36 | 54807 | 65642
11 | 14:35.18 | 0:06.60 | 65643 | 66152
12 | 14:42.03 | 3:22.36 | 66153 | 81338
13 | 18:04.39 | 0:10.14 | 81339 | 82102
14 | 18:14.53 | 4:12.49 | 82103 | 101051
15 | 22:27.27 | 0:15.59 | 101052 | 102235
16 | 22:43.11 | 3:10.13 | 102236 | 116498
17 | 25:53.24 | 0:33.09 | 116499 | 118982
18 | 26:26.33 | 4:08.01 | 118983 | 137583
19 | 30:34.34 | 3:06.08 | 137584 | 151541
20 | 33:40.42 | 0:33.39 | 151542 | 154055
21 | 34:14.06 | 2:36.49 | 154056 | 165804
22 | 36:50.55 | 2:37.23 | 165805 | 177602
23 | 39:28.03 | 3:00.23 | 177603 | 191125
24 | 42:28.26 | 3:01.07 | 191126 | 204707


Range status and errors

Selected range

Filename A:\Sylvie Vartan ‎- Show Sylvie Vartan (1975) [Culture Factory 2013]\Sylvie Vartan - Show Sylvie Vartan.wav

Peak level 99.4 %
Extraction speed 1.7 X
Range quality 100.0 %
Test CRC A019B869
Copy CRC A019B869
Copy OK

No errors occurred


AccurateRip summary

Track 1 not present in database
Track 2 not present in database
Track 3 not present in database
Track 4 not present in database
Track 5 not present in database
Track 6 not present in database
Track 7 not present in database
Track 8 not present in database
Track 9 not present in database
Track 10 not present in database
Track 11 not present in database
Track 12 not present in database
Track 13 not present in database
Track 14 not present in database
Track 15 not present in database
Track 16 not present in database
Track 17 not present in database
Track 18 not present in database
Track 19 not present in database
Track 20 not present in database
Track 21 not present in database
Track 22 not present in database
Track 23 not present in database
Track 24 not present in database

None of the tracks are present in the AccurateRip database

End of status report

–– CUETools DB Plugin V2.1.6

[CTDB TOCID: kOwWtuJsy5NbUnYpYZqG1gk1cU8-] found
Submit result: kOwWtuJsy5NbUnYpYZqG1gk1cU8- has been confirmed
Track | CTDB Status
1 | (1/1) Accurately ripped
2 | (1/1) Accurately ripped
3 | (1/1) Accurately ripped
4 | (1/1) Accurately ripped
5 | (1/1) Accurately ripped
6 | (1/1) Accurately ripped
7 | (1/1) Accurately ripped
8 | (1/1) Accurately ripped
9 | (1/1) Accurately ripped
10 | (1/1) Accurately ripped
11 | (1/1) Accurately ripped
12 | (1/1) Accurately ripped
13 | (1/1) Accurately ripped
14 | (1/1) Accurately ripped
15 | (1/1) Accurately ripped
16 | (1/1) Accurately ripped
17 | (1/1) Accurately ripped
18 | (1/1) Accurately ripped
19 | (1/1) Accurately ripped
20 | (1/1) Accurately ripped
21 | (1/1) Accurately ripped
22 | (1/1) Accurately ripped
23 | (1/1) Accurately ripped
24 | (1/1) Accurately ripped


==== Log checksum DFEA575AD7E84C5F7EF9D8E110A464B8FFF35A211C13CF7D39930D9DB0A9F1DB ====

Thanks to the Original ripper (unknown)!

Welcome to my blog!

Download: