Subcategories

System Of A Down - 5 Studio Albums + EP (1998-2006)

Posted By: gribovar
System Of A Down - 5 Studio Albums + EP (1998-2006)

System Of A Down - 5 Studio Albums + EP (1998-2006)
EAC Rip | FLAC, WavPack (tracks/image+.cue+log) - 1,7 GB | MP3 CBR 320 kbps (LAME 3.93) - 533 MB | Covers - 272 MB
Genre: Alternative Metal | RAR 3% Rec. | Label: Sony Music, American/Columbia

Chart-topping but challenging alt-metal band that incorporates programmed beats and subtle Eastern European influences.
Like many late-'90s metal bands, System of a Down struck a balance between '80s underground thrash metal and metallic early-'90s alternative rockers like Jane's Addiction. Their dark, neo-gothic alternative metal earned a cult following in the wake of the popularity of such like-minded bands as Korn and the Deftones. Vocalist Serj Tankian, guitarist Daron Malakian, bassist Shavo Odadjian, and drummer John Dolmayan formed System of a Down in Southern California in the mid-'90s. They quickly earned a strong following in Los Angeles, largely based on strong word of mouth. A three-song demo began circulating through metal collectors, and their fan base soon spread throughout not only America, but Europe and New Zealand.
By the end of 1997 the group had signed to American, then distributed by Columbia Records. American/Columbia released the group's eponymous debut album in the summer of 1998, securing the band opening spots on the Slayer and Ozzfest tours. System eventually went gold, and set up the September 2001 release of the even more ambitious Toxicity. System's second effort was another heavy music triumph, shaming the majority of their nu-metal competition and running away with multi-platinum honors. The quartet didn't slow down. Malakian started the eatURmusic imprint and Tankian a label called Serjical Strike; Tankian also collaborated with Armenian avant-garde folk musician Arto Tuncboyaciyan in a project called Serart. In November 2002 System issued the bare-bones but no less powerful odds 'n' ends set Steal This Album!; they also remained politically active.
By 2004, System of a Down was back in the studio with Rick Rubin. The bold result of those sessions was a single epic album released in two parts. Mezmerize/Hypnotize kept System's furious creativity alive, incorporating the wild vocal melodies, lyrical passion, and rabid structural shifts that had become their trademark. Mezmerize, or part one, appeared in May 2005, while Hypnotize, its final section, appeared later in the year, and both hit the top of the album charts.
The following year saw the group go on hiatus, with Malakian forming Scars on Broadway; Dolmayan opening an online comic book store and forming the group Indicator (he also briefly played with Scars on Broadway); Odadjian working with RZA, AcHoZeN, and George Clinton; and Tankian embarking on a solo career. In 2010 the bandmembers announced that they would be reuniting for a series of European festival dates in 2011. System of a Down continued to tour internationally through 2015, and hinted at the possibility of releasing a new album in the near future.

System Of A Down - 5 Studio Albums + EP (1998-2006)

System Of A Down - System Of A Down (1998) [Japanese Edition]
EAC Rip | FLAC (tracks+.cue+log) - 327 MB | MP3 CBR 320 kbps (LAME 3.93) - 106 MB | Covers - 49 MB
Genre: Alternative Metal | RAR 3% Rec. | Label: Sony Music (SRCS 8757)

Tracklist:
01. Suite-Pee
02. Know
03. Sugar
04. Suggestions
05. Spiders
06. Ddevil
07. Soil
08. War?
09. Mind
10. Peephole
11. CUBErt
12. Darts
13. P.L.U.C.K.
14. Marmalade (Bonus track for International)
15. Storaged (Japan only Bonus track)

Total time: 45:03

Exact Audio Copy V1.0 beta 1 from 15. November 2010

EAC extraction logfile from 22. April 2011, 13:27

System of a Down / System of a Down

Used drive : Optiarc DVD RW AD-7260S Adapter: 1 ID: 1

Read mode : Secure
Utilize accurate stream : Yes
Defeat audio cache : Yes
Make use of C2 pointers : No

Read offset correction : 48
Overread into Lead-In and Lead-Out : No
Fill up missing offset samples with silence : Yes
Delete leading and trailing silent blocks : No
Null samples used in CRC calculations : Yes
Used interface : Native Win32 interface for Win NT & 2000
Gap handling : Appended to previous track

Used output format : User Defined Encoder
Selected bitrate : 768 kBit/s
Quality : High
Add ID3 tag : No
Command line compressor : C:\Program Files\Exact Audio Copy\Flac\flac.exe
Additional command line options : -8 -V -T "ARTIST=%a" -T "TITLE=%t" -T "ALBUM=%g" -T "DATE=%y" -T "TRACKNUMBER=%n" -T "GENRE=%m" -T "COMMENT=EAC FLAC -8" %s


TOC of the extracted CD

Track | Start | Length | Start sector | End sector
––––––––––––––––––––––––––––-
1 | 0:00.00 | 2:32.07 | 0 | 11406
2 | 2:32.07 | 2:56.50 | 11407 | 24656
3 | 5:28.57 | 2:33.48 | 24657 | 36179
4 | 8:02.30 | 2:44.45 | 36180 | 48524
5 | 10:47.00 | 3:35.35 | 48525 | 64684
6 | 14:22.35 | 1:43.07 | 64685 | 72416
7 | 16:05.42 | 3:25.70 | 72417 | 87861
8 | 19:31.37 | 2:40.23 | 87862 | 99884
9 | 22:11.60 | 6:16.22 | 99885 | 128106
10 | 28:28.07 | 4:04.05 | 128107 | 146411
11 | 32:32.12 | 1:49.10 | 146412 | 154596
12 | 34:21.22 | 2:42.33 | 154597 | 166779
13 | 37:03.55 | 3:39.22 | 166780 | 183226
14 | 40:43.02 | 3:00.28 | 183227 | 196754
15 | 43:43.30 | 1:19.22 | 196755 | 202701


Track 1

Filename C:\Users\MainUser\Desktop\System of a Down\System of a Down\01. System of a Down – Suite-Pee.wav

Pre-gap length 0:00:02.00

Peak level 98.8 %
Extraction speed 1.7 X
Track quality 99.9 %
Test CRC 95E2F88F
Copy CRC 95E2F88F
Accurately ripped (confidence 4) [3FB67D7A]
Copy OK

Track 2

Filename C:\Users\MainUser\Desktop\System of a Down\System of a Down\02. System of a Down – Know.wav

Peak level 98.8 %
Extraction speed 1.9 X
Track quality 99.9 %
Test CRC E2574F48
Copy CRC E2574F48
Accurately ripped (confidence 4) [E698BBE1]
Copy OK

Track 3

Filename C:\Users\MainUser\Desktop\System of a Down\System of a Down\03. System of a Down – Sugar.wav

Peak level 98.8 %
Extraction speed 2.4 X
Track quality 100.0 %
Test CRC AE7E9D71
Copy CRC AE7E9D71
Accurately ripped (confidence 4) [7200DCB0]
Copy OK

Track 4

Filename C:\Users\MainUser\Desktop\System of a Down\System of a Down\04. System of a Down – Suggestions.wav

Peak level 98.8 %
Extraction speed 2.6 X
Track quality 100.0 %
Test CRC 89814066
Copy CRC 89814066
Accurately ripped (confidence 4) [61EB4E4F]
Copy OK

Track 5

Filename C:\Users\MainUser\Desktop\System of a Down\System of a Down\05. System of a Down – Spiders.wav

Peak level 98.8 %
Extraction speed 2.9 X
Track quality 100.0 %
Test CRC 6790369B
Copy CRC 6790369B
Accurately ripped (confidence 4) [475A244C]
Copy OK

Track 6

Filename C:\Users\MainUser\Desktop\System of a Down\System of a Down\06. System of a Down – Ddevil.wav

Peak level 98.8 %
Extraction speed 2.6 X
Track quality 100.0 %
Test CRC 41EE4F3E
Copy CRC 41EE4F3E
Accurately ripped (confidence 4) [ABD77E7E]
Copy OK

Track 7

Filename C:\Users\MainUser\Desktop\System of a Down\System of a Down\07. System of a Down – Soil.wav

Peak level 100.0 %
Extraction speed 3.1 X
Track quality 100.0 %
Test CRC 947D4466
Copy CRC 947D4466
Accurately ripped (confidence 4) [908093A0]
Copy OK

Track 8

Filename C:\Users\MainUser\Desktop\System of a Down\System of a Down\08. System of a Down – War.wav

Peak level 100.0 %
Extraction speed 3.1 X
Track quality 100.0 %
Test CRC 9DD3813E
Copy CRC 9DD3813E
Accurately ripped (confidence 4) [7AACFE94]
Copy OK

Track 9

Filename C:\Users\MainUser\Desktop\System of a Down\System of a Down\09. System of a Down – Mind.wav

Peak level 98.8 %
Extraction speed 3.8 X
Track quality 100.0 %
Test CRC CA5DC986
Copy CRC CA5DC986
Accurately ripped (confidence 4) [855DF057]
Copy OK

Track 10

Filename C:\Users\MainUser\Desktop\System of a Down\System of a Down\10. System of a Down – Peephole.wav

Peak level 98.8 %
Extraction speed 3.3 X
Track quality 99.9 %
Test CRC CA370F68
Copy CRC CA370F68
Accurately ripped (confidence 4) [5D255E46]
Copy OK

Track 11

Filename C:\Users\MainUser\Desktop\System of a Down\System of a Down\11. System of a Down – CUBErt.wav

Peak level 98.8 %
Extraction speed 3.3 X
Track quality 100.0 %
Test CRC 4AF547CA
Copy CRC 4AF547CA
Accurately ripped (confidence 4) [EF0C1EA1]
Copy OK

Track 12

Filename C:\Users\MainUser\Desktop\System of a Down\System of a Down\12. System of a Down – Darts.wav

Peak level 98.8 %
Extraction speed 3.7 X
Track quality 100.0 %
Test CRC BF549A2A
Copy CRC BF549A2A
Accurately ripped (confidence 4) [DEE7F78A]
Copy OK

Track 13

Filename C:\Users\MainUser\Desktop\System of a Down\System of a Down\13. System of a Down – P.L.U.C.K..wav

Peak level 98.8 %
Extraction speed 4.0 X
Track quality 100.0 %
Test CRC 56E2FB43
Copy CRC 56E2FB43
Accurately ripped (confidence 4) [14A4A5B5]
Copy OK

Track 14

Filename C:\Users\MainUser\Desktop\System of a Down\System of a Down\14. System of a Down – Marmalade.wav

Pre-gap length 0:00:01.43

Peak level 98.8 %
Extraction speed 4.1 X
Track quality 100.0 %
Test CRC BF11DB14
Copy CRC BF11DB14
Accurately ripped (confidence 4) [D6F5E10D]
Copy OK

Track 15

Filename C:\Users\MainUser\Desktop\System of a Down\System of a Down\15. System of a Down – Storaged.wav

Peak level 98.8 %
Extraction speed 3.3 X
Track quality 100.0 %
Test CRC 01003350
Copy CRC 01003350
Accurately ripped (confidence 4) [8BC47941]
Copy OK


All tracks accurately ripped

No errors occurred

End of status report

[CUETools log; Date: 12.05.2019 23:23:21; Version: 2.1.4]
[CTDB TOCID: pJIEp1NWWSiOSPhMGdyN0xcou.M-] found.
Track | CTDB Status
1 | (73/73) Accurately ripped
2 | (73/73) Accurately ripped
3 | (73/73) Accurately ripped
4 | (73/73) Accurately ripped
5 | (73/73) Accurately ripped
6 | (73/73) Accurately ripped
7 | (73/73) Accurately ripped
8 | (73/73) Accurately ripped
9 | (73/73) Accurately ripped
10 | (73/73) Accurately ripped
11 | (73/73) Accurately ripped
12 | (73/73) Accurately ripped
13 | (73/73) Accurately ripped
14 | (73/73) Accurately ripped
15 | (73/73) Accurately ripped
[AccurateRip ID: 0018c886-011ca9ae-c30a8e0f] found.
Track [ CRC | V2 ] Status
01 [3fb67d7a|aa9931f8] (07+13/20) Accurately ripped
02 [e698bbe1|f5ad051e] (07+13/20) Accurately ripped
03 [7200dcb0|cd14d687] (07+13/20) Accurately ripped
04 [61eb4e4f|5a009cad] (07+13/20) Accurately ripped
05 [475a244c|17e9ad2c] (07+13/20) Accurately ripped
06 [abd77e7e|f37283b3] (07+13/20) Accurately ripped
07 [908093a0|5702c64d] (07+13/20) Accurately ripped
08 [7aacfe94|0517c8d5] (06+13/19) Accurately ripped
09 [855df057|77378782] (07+13/20) Accurately ripped
10 [5d255e46|b2143e14] (07+13/20) Accurately ripped
11 [ef0c1ea1|15c4719a] (07+13/20) Accurately ripped
12 [dee7f78a|4b63b466] (07+13/20) Accurately ripped
13 [14a4a5b5|f6eac7f5] (07+13/20) Accurately ripped
14 [d6f5e10d|6d4fd04f] (07+13/20) Accurately ripped
15 [8bc47941|72a10988] (07+13/20) Accurately ripped

Track Peak [ CRC32 ] [W/O NULL] [ LOG ]
– 100,0 [1BD1B62B] [B4F5FE6C]
01 98,8 [95E2F88F] [789551C6] CRC32
02 98,8 [E2574F48] [12A071F5] CRC32
03 98,8 [AE7E9D71] [05C37EA7] CRC32
04 98,8 [89814066] [F559E5A7] CRC32
05 98,8 [6790369B] [2A3BB25D] CRC32
06 98,8 [41EE4F3E] [A4CE138A] CRC32
07 100,0 [947D4466] [3EB23390] CRC32
08 100,0 [9DD3813E] [3B001C73] CRC32
09 98,8 [CA5DC986] [6ECA2EE8] CRC32
10 98,8 [CA370F68] [89ABC663] CRC32
11 98,8 [4AF547CA] [90864894] CRC32
12 98,8 [BF549A2A] [B6555DEB] CRC32
13 98,8 [56E2FB43] [3932FD12] CRC32
14 98,8 [BF11DB14] [8C288C81] CRC32
15 98,8 [01003350] [C247410A] CRC32

System Of A Down - 5 Studio Albums + EP (1998-2006)

System Of A Down - Toxicity (2001) [Japanese Edition]
EAC Rip | FLAC (image+.cue+log) - 347 MB | MP3 CBR 320 kbps (LAME 3.93) - 109 MB | Covers - 61 MB
Genre: Alternative Metal | RAR 3% Rec. | Label: Sony Music (SICP 44)

Tracklist:
01. Prison Song
02. Needles
03. Deer Dance
04. Jet Pilot
05. X
06. Chop Suey!
07. Bounce
08. Johnny (Bonus track for Japan only)
09. Forest
10. Atwa
11. Science
12. Shimmy
13. Toxicity
14. Psycho
15. Aerials

Total time: 46:14

Exact Audio Copy V1.0 beta 3 from 29. August 2011

EAC extraction logfile from 11. October 2013, 20:20

System of a Down / Toxicity

Used drive : PIONEER DVD-RW DVR-111D Adapter: 4 ID: 1

Read mode : Secure
Utilize accurate stream : Yes
Defeat audio cache : Yes
Make use of C2 pointers : No

Read offset correction : 48
Overread into Lead-In and Lead-Out : No
Fill up missing offset samples with silence : Yes
Delete leading and trailing silent blocks : No
Null samples used in CRC calculations : Yes
Used interface : Native Win32 interface for Win NT & 2000

Used output format : User Defined Encoder
Selected bitrate : 128 kBit/s
Quality : High
Add ID3 tag : No
Command line compressor : F:\Program Files\FLAC\flac.exe
Additional command line options : -V -8 -T "Date=%year%" -T "Genre=%genre%" %source%


TOC of the extracted CD

Track | Start | Length | Start sector | End sector
––––––––––––––––––––––––––––-
1 | 0:00.00 | 3:21.37 | 0 | 15111
2 | 3:21.37 | 3:13.55 | 15112 | 29641
3 | 6:35.17 | 2:55.08 | 29642 | 42774
4 | 9:30.25 | 2:06.35 | 42775 | 52259
5 | 11:36.60 | 1:58.42 | 52260 | 61151
6 | 13:35.27 | 3:30.18 | 61152 | 76919
7 | 17:05.45 | 1:54.17 | 76920 | 85486
8 | 18:59.62 | 2:07.48 | 85487 | 95059
9 | 21:07.35 | 4:00.10 | 95060 | 113069
10 | 25:07.45 | 2:56.15 | 113070 | 126284
11 | 28:03.60 | 2:43.05 | 126285 | 138514
12 | 30:46.65 | 1:51.05 | 138515 | 146844
13 | 32:37.70 | 3:38.70 | 146845 | 163264
14 | 36:16.65 | 3:45.67 | 163265 | 180206
15 | 40:02.57 | 6:11.05 | 180207 | 208036


Range status and errors

Selected range

Filename D:\EAC - Hellixxx rip\System Of A Down - 2001 - Toxicity (SICP-44).wav

Peak level 98.9 %
Extraction speed 6.9 X
Range quality 100.0 %
Test CRC D649A33D
Copy CRC D649A33D
Copy OK

No errors occurred


AccurateRip summary

Track 1 accurately ripped (confidence 2) [FDEA668C] (AR v1)
Track 2 accurately ripped (confidence 2) [338B1000] (AR v1)
Track 3 accurately ripped (confidence 2) [4DA637CB] (AR v1)
Track 4 accurately ripped (confidence 2) [6CAC25EC] (AR v1)
Track 5 accurately ripped (confidence 2) [0DCD392C] (AR v1)
Track 6 accurately ripped (confidence 2) [FC14021E] (AR v1)
Track 7 accurately ripped (confidence 2) [2202C04A] (AR v1)
Track 8 accurately ripped (confidence 2) [FC9388AA] (AR v1)
Track 9 accurately ripped (confidence 2) [9A1C67BA] (AR v1)
Track 10 accurately ripped (confidence 2) [98E643C0] (AR v1)
Track 11 accurately ripped (confidence 2) [5F5E0DA3] (AR v1)
Track 12 accurately ripped (confidence 2) [E7A50347] (AR v1)
Track 13 accurately ripped (confidence 2) [0CB93C2E] (AR v1)
Track 14 accurately ripped (confidence 2) [0F94AB6B] (AR v1)
Track 15 accurately ripped (confidence 2) [F4514F0B] (AR v1)

All tracks accurately ripped

End of status report

==== Log checksum 79CCAFFE745B3FF6006C2327C6922037607FCAB8997AA472702684450587F44E ====

[CUETools log; Date: 12.05.2019 23:36:06; Version: 2.1.4]
[CTDB TOCID: Kig4FZjgLADOWoTXX2xB2H0PsoY-] found.
Track | CTDB Status
1 | (68/90) Accurately ripped
2 | (67/90) Accurately ripped
3 | (68/90) Accurately ripped
4 | (68/90) Accurately ripped
5 | (68/90) Accurately ripped
6 | (68/90) Accurately ripped
7 | (68/90) Accurately ripped
8 | (68/90) Accurately ripped
9 | (68/90) Accurately ripped
10 | (68/90) Accurately ripped
11 | (68/90) Accurately ripped
12 | (68/90) Accurately ripped
13 | (68/90) Accurately ripped
14 | (68/90) Accurately ripped
15 | (68/90) Accurately ripped
[AccurateRip ID: 00176aa8-0109934a-de0ad50f] found.
Track [ CRC | V2 ] Status
01 [fdea668c|e9c19cc0] (02+06/13) Accurately ripped
02 [338b1000|e63db561] (02+05/12) Accurately ripped
03 [4da637cb|7e32b116] (02+06/13) Accurately ripped
04 [6cac25ec|b4b4dff6] (02+06/13) Accurately ripped
05 [0dcd392c|8f67eabf] (02+06/13) Accurately ripped
06 [fc14021e|90a74d96] (02+06/13) Accurately ripped
07 [2202c04a|6aa1d55f] (02+06/13) Accurately ripped
08 [fc9388aa|a56885cd] (02+06/13) Accurately ripped
09 [9a1c67ba|fbdf13a6] (02+06/13) Accurately ripped
10 [98e643c0|d895c163] (02+06/13) Accurately ripped
11 [5f5e0da3|a05ed561] (02+06/13) Accurately ripped
12 [e7a50347|93a5c03e] (02+06/13) Accurately ripped
13 [0cb93c2e|c02a2650] (02+06/13) Accurately ripped
14 [0f94ab6b|56980533] (02+06/13) Accurately ripped
15 [f4514f0b|d03847e3] (02+06/13) Accurately ripped

Track Peak [ CRC32 ] [W/O NULL] [ LOG ]
– 98,9 [D649A33D] [39FC9414] CRC32
01 98,9 [5B1F46E5] [9656BAAC]
02 96,7 [870F89FE] [F39BDC00]
03 98,9 [CE75C6E8] [4431142A]
04 98,9 [3BAE7197] [19376429]
05 98,9 [11CA22C3] [C92B9FAA]
06 98,9 [9A7E08FE] [F7BDA41F]
07 98,9 [A7D93D22] [F039D7E4]
08 98,9 [F91C4D39] [422BE7DC]
09 98,9 [F6DBFD74] [EB154E86]
10 98,9 [2216E215] [D2C158A2]
11 98,9 [547D2FF4] [EA51DC37]
12 98,9 [1BC5C7AF] [2E81D535]
13 98,9 [261AF54B] [FA8D0211]
14 98,9 [0F5BC7B5] [2011F5F3]
15 98,9 [76CB9A1C] [801B0A73]

System Of A Down - 5 Studio Albums + EP (1998-2006)

System Of A Down - Steal This Album! (2002)
EAC Rip | WavPack (image+.cue+log) - 337 MB | MP3 CBR 320 kbps (LAME 3.93) - 102 MB | Covers - 18 MB
Genre: Alternative Metal | RAR 3% Rec. | Label: American/Columbia (COL 510248 2)

Tracklist:
01. Chic 'N' Stu
02. Innervision
03. Bubbles
04. Boom!
05. Nu'guns
06. A.D.D. (American Dream Denial)
07. Mr. Jack
08. I-E-A-I-A-I-O
09. 36
10. Pictures
11. Highway Song
12. F**k The System
13. Ego Brain
14. Thetawaves
15. Roulette
16. Streamline

Total time: 43:31

Exact Audio Copy V0.99 prebeta 5 from 4. May 2009

EAC extraction logfile from 22. June 2010, 17:31

System Of A Down / Steal This Album!

Used drive : TSSTcorpCD/DVDW SH-S182M Adapter: 0 ID: 0

Read mode : Secure
Utilize accurate stream : Yes
Defeat audio cache : Yes
Make use of C2 pointers : No

Read offset correction : 6
Overread into Lead-In and Lead-Out : No
Fill up missing offset samples with silence : Yes
Delete leading and trailing silent blocks : No
Null samples used in CRC calculations : Yes
Used interface : Installed external ASPI interface

Used output format : Internal WAV Routines
Sample format : 44.100 Hz; 16 Bit; Stereo


TOC of the extracted CD

Track | Start | Length | Start sector | End sector
––––––––––––––––––––––––––––-
1 | 0:00.00 | 2:23.47 | 0 | 10771
2 | 2:23.47 | 2:33.58 | 10772 | 22304
3 | 4:57.30 | 1:56.67 | 22305 | 31071
4 | 6:54.22 | 2:14.68 | 31072 | 41189
5 | 9:09.15 | 2:30.27 | 41190 | 52466
6 | 11:39.42 | 3:17.23 | 52467 | 67264
7 | 14:56.65 | 4:09.47 | 67265 | 85986
8 | 19:06.37 | 3:08.45 | 85987 | 100131
9 | 22:15.07 | 0:46.25 | 100132 | 103606
10 | 23:01.32 | 2:06.23 | 103607 | 113079
11 | 25:07.55 | 3:13.47 | 113080 | 127601
12 | 28:21.27 | 2:12.55 | 127602 | 137556
13 | 30:34.07 | 3:21.68 | 137557 | 152699
14 | 33:56.00 | 2:36.45 | 152700 | 164444
15 | 36:32.45 | 3:21.15 | 164445 | 179534
16 | 39:53.60 | 3:37.45 | 179535 | 195854


Range status and errors

Selected range

Filename G:\System Of A Down - Steal This Album!.wav

Peak level 100.0 %
Range quality 100.0 %
Test CRC 3FB145A3
Copy CRC 3FB145A3
Copy OK

No errors occurred


AccurateRip summary

Track 1 accurately ripped (confidence 148) [6A0E6B5F]
Track 2 accurately ripped (confidence 150) [4F4A923A]
Track 3 accurately ripped (confidence 150) [1E32B49C]
Track 4 accurately ripped (confidence 148) [30020A2B]
Track 5 accurately ripped (confidence 156) [B9755775]
Track 6 accurately ripped (confidence 148) [A309B977]
Track 7 accurately ripped (confidence 149) [D1B65D36]
Track 8 accurately ripped (confidence 154) [449EFCE5]
Track 9 accurately ripped (confidence 156) [407211D7]
Track 10 accurately ripped (confidence 147) [6F32EEFE]
Track 11 accurately ripped (confidence 149) [78631E63]
Track 12 accurately ripped (confidence 154) [5452803B]
Track 13 accurately ripped (confidence 149) [F29A30B6]
Track 14 accurately ripped (confidence 148) [D5AC7D4A]
Track 15 accurately ripped (confidence 143) [F5E7AC3B]
Track 16 accurately ripped (confidence 154) [46573BE9]

All tracks accurately ripped

End of status report

[CUETools log; Date: 12.05.2019 23:22:48; Version: 2.1.4]
[CTDB TOCID: 0XvGe3tgFGylDE6DzdIc_FHr69k-] found.
Track | CTDB Status
1 | (2440/2599) Accurately ripped, or (4/2599) differs in 699 samples @00:52:33,01:16:45-01:16:46,02:14:00-02:14:01
2 | (2439/2599) Accurately ripped, or (4/2599) differs in 1018 samples @00:23:09,00:42:20,00:43:55,00:47:72,00:58:40-00:58:41, or (2/2599) differs in 47 samples @00:00:03
3 | (2442/2599) Accurately ripped, or (4/2599) differs in 246 samples @00:54:07-00:54:08, or (2/2599) differs in 48 samples @00:00:03
4 | (2438/2599) Accurately ripped, or (4/2599) differs in 265 samples @00:53:37,01:34:37-01:34:38, or (2/2599) differs in 3 samples @01:12:69, or (2/2599) differs in 46 samples @00:00:03
5 | (2448/2599) Accurately ripped, or (2/2599) differs in 48 samples @00:00:03
6 | (2412/2599) Accurately ripped, or (11/2599) differs in 435 samples @02:46:60-02:46:61,03:05:49-03:05:50, or (6/2599) differs in 444 samples @01:48:60,02:46:60-02:46:61,03:05:49-03:05:50, or (4/2599) differs in 240 samples @00:54:37-00:54:38, or (4/2599) differs in 435 samples @02:46:60-02:46:61,03:05:49-03:05:50, or (6/2599) differs in 444 samples @01:48:60,02:46:60-02:46:61,03:05:49-03:05:50, or (2/2599) differs in 435 samples @02:46:60-02:46:61,03:05:49-03:05:50, or (2/2599) differs in 47 samples @00:00:03
7 | (2438/2599) Accurately ripped, or (4/2599) differs in 484 samples @01:22:32-01:22:33,03:19:61-03:19:62, or (2/2599) differs in 48 samples @00:00:03
8 | (2445/2599) Accurately ripped, or (2/2599) differs in 48 samples @00:00:03
9 | (2446/2599) Accurately ripped, or (2/2599) differs in 48 samples @00:00:03
10 | (2437/2599) Accurately ripped, or (4/2599) differs in 267 samples @00:16:57-00:16:58, or (2/2599) differs in 2 samples @01:34:37, or (2/2599) differs in 48 samples @00:00:03
11 | (2435/2599) Accurately ripped, or (4/2599) differs in 514 samples @01:58:46-01:58:47,02:56:09, or (2/2599) differs in 48 samples @00:00:03
12 | (2406/2599) Accurately ripped, or (11/2599) differs in 268 samples @00:01:46-00:01:47, or (6/2599) differs in 268 samples @00:01:46-00:01:47, or (4/2599) differs in 268 samples @00:01:46-00:01:47, or (6/2599) differs in 268 samples @00:01:46-00:01:47, or (2/2599) differs in 273 samples @00:01:46-00:01:47,00:03:54, or (2/2599) differs in 48 samples @00:00:03
13 | (2430/2599) Accurately ripped, or (4/2599) differs in 470 samples @00:02:60-00:02:61,00:55:53-00:55:54, or (2/2599) differs in 47 samples @00:00:03
14 | (2416/2599) Accurately ripped, or (4/2599) differs in 240 samples @00:13:65-00:13:66, or (4/2599) differs in 28 samples @01:43:47, or (6/2599) differs in 28 samples @01:43:47, or (2/2599) differs in 28 samples @01:43:47, or (3/2599) differs in 7 samples @01:43:47, or (2/2599) differs in 47 samples @00:00:03
15 | (2392/2599) Accurately ripped, or (11/2599) differs in 20 samples @02:33:29, or (6/2599) differs in 20 samples @02:33:29, or (4/2599) differs in 776 samples @00:47:61-00:47:62,01:23:16-01:23:17,02:00:44,02:33:29, or (4/2599) differs in 20 samples @02:33:29, or (6/2599) differs in 20 samples @02:33:29, or (4/2599) differs in 20 samples @02:33:29, or (2/2599) differs in 20 samples @02:33:29, or (3/2599) differs in 20 samples @02:33:29, or (2/2599) differs in 48 samples @00:00:03
16 | (2428/2599) Accurately ripped, or (2/2599) differs in 48 samples @00:00:03
[AccurateRip ID: 001831a3-0124f5c0-de0a3310] found.
Track [ CRC | V2 ] Status
01 [6a0e6b5f|4b698b28] (200+200/1397) Accurately ripped
02 [4f4a923a|790a3866] (200+200/1405) Accurately ripped
03 [1e32b49c|df4d9ed2] (200+200/1403) Accurately ripped
04 [30020a2b|e219f420] (200+200/1407) Accurately ripped
05 [b9755775|c873d7ab] (200+200/1392) Accurately ripped
06 [a309b977|7d651c6a] (200+200/1411) Accurately ripped
07 [d1b65d36|b01526d8] (200+200/1396) Accurately ripped
08 [449efce5|14f172d3] (200+200/1400) Accurately ripped
09 [407211d7|c78d935e] (200+200/1396) Accurately ripped
10 [6f32eefe|e13a7335] (200+200/1407) Accurately ripped
11 [78631e63|5fbd0163] (200+200/1402) Accurately ripped
12 [5452803b|d496bcb5] (200+200/1404) Accurately ripped
13 [f29a30b6|f78dc505] (200+200/1398) Accurately ripped
14 [d5ac7d4a|1b9ba6b4] (200+200/1403) Accurately ripped
15 [f5e7ac3b|c4c7b88e] (195+200/1404) Accurately ripped
16 [46573be9|4c70b2d6] (200+200/1381) Accurately ripped
Offsetted by -2272:
01 [617d15de] (002/1397) Accurately ripped
02 [2185c614] (002/1405) Accurately ripped
03 [b195fe58] (002/1403) Accurately ripped
04 [cb672d87] (002/1407) Accurately ripped
05 [5470f24e] (002/1392) Accurately ripped
06 [d08de4bc] (002/1411) Accurately ripped
07 [afc691c8] (002/1396) Accurately ripped
08 [6d4319cc] (002/1400) Accurately ripped
09 [6b610ce8] (002/1396) Accurately ripped
10 [6972c3cb] (002/1407) Accurately ripped
11 [1eb6096c] (002/1402) Accurately ripped
12 [3ecdafc4] (002/1404) Accurately ripped
13 [175cec82] (002/1398) Accurately ripped
14 [47dcdef1] (002/1403) Accurately ripped
15 [05053460] (002/1404) Accurately ripped
16 [c91101c9] (002/1381) Accurately ripped
Offsetted by -98:
01 [93911fdd] (004/1397) Accurately ripped
02 [80946fed] (004/1405) Accurately ripped
03 [a16f33f7] (004/1403) Accurately ripped
04 [939715c0] (004/1407) Accurately ripped
05 [69413a72] (004/1392) Accurately ripped
06 [e0742e1a] (004/1411) Accurately ripped
07 [e1721a19] (004/1396) Accurately ripped
08 [0e4289a7] (004/1400) Accurately ripped
09 [45fee737] (004/1396) Accurately ripped
10 [2403b06a] (004/1407) Accurately ripped
11 [33954400] (004/1402) Accurately ripped
12 [b9f5ab43] (004/1404) Accurately ripped
13 [d218c09e] (004/1398) Accurately ripped
14 [74e0d451] (004/1403) Accurately ripped
15 [c0b31159] (004/1404) Accurately ripped
16 [007c8afb] (004/1381) Accurately ripped
Offsetted by -65:
01 [5eabf9e3] (007/1397) Accurately ripped
02 [2d1f030e] (007/1405) Accurately ripped
03 [695dc3f4] (007/1403) Accurately ripped
04 [e6f90569] (007/1407) Accurately ripped
05 [a2dc3d98] (007/1392) Accurately ripped
06 [fc829988] (007/1411) Accurately ripped
07 [9cbf07c7] (007/1396) Accurately ripped
08 [0ce91519] (007/1400) Accurately ripped
09 [36a4b8d7] (007/1396) Accurately ripped
10 [e0fed6a1] (007/1407) Accurately ripped
11 [ed5300e1] (007/1402) Accurately ripped
12 [7d14c402] (007/1404) Accurately ripped
13 [d986dcd9] (007/1398) Accurately ripped
14 [1a1ce2db] (007/1403) Accurately ripped
15 [f8162728] (007/1404) Accurately ripped
16 [39f7d102] (005/1381) Accurately ripped
Offsetted by -36:
01 [bf4af94e] (004/1397) Accurately ripped
02 [ab79be67] (004/1405) Accurately ripped
03 [50f0e5dd] (004/1403) Accurately ripped
04 [bf4e8366] (004/1407) Accurately ripped
05 [5a665bdc] (004/1392) Accurately ripped
06 [c6c7bcf5] (004/1411) Accurately ripped
07 [447d491a] (004/1396) Accurately ripped
08 [6fe122eb] (004/1400) Accurately ripped
09 [49140cba] (004/1396) Accurately ripped
10 [4262ed6f] (004/1407) Accurately ripped
11 [23ecbf4b] (004/1402) Accurately ripped
12 [4af8f8a7] (004/1404) Accurately ripped
13 [330c1e9b] (004/1398) Accurately ripped
14 [34cbebfe] (004/1403) Accurately ripped
15 [20401e27] (004/1404) Accurately ripped
16 [d916926d] (004/1381) Accurately ripped
Offsetted by 533:
01 [0600a7fd] (002/1397) Accurately ripped
02 [27c0fd2c] (002/1405) Accurately ripped
03 [f6c9d648] (002/1403) Accurately ripped
04 [4e2dd260] (002/1407) Accurately ripped
05 [23b31adf] (002/1392) Accurately ripped
06 [fab355a7] (002/1411) Accurately ripped
07 [16d1b0ba] (002/1396) Accurately ripped
08 [ee5efa97] (002/1400) Accurately ripped
09 [29a9844c] (002/1396) Accurately ripped
10 [8665209d] (002/1407) Accurately ripped
11 [7aeddbc6] (002/1402) Accurately ripped
12 [e58d610a] (002/1404) Accurately ripped
13 [ce779cd6] (002/1398) Accurately ripped
14 [591e09d3] (002/1403) Accurately ripped
15 [60bbf99a] (002/1404) Accurately ripped
16 [deff423d] (002/1381) Accurately ripped
Offsetted by 599:
01 [7dcc0d6d] (140/1397) Accurately ripped
02 [b8a04d1a] (142/1405) Accurately ripped
03 [81ece493] (142/1403) Accurately ripped
04 [21c1873f] (144/1407) Accurately ripped
05 [80591057] (143/1392) Accurately ripped
06 [434e75d9] (142/1411) Accurately ripped
07 [8ffc7867] (142/1396) Accurately ripped
08 [73c157af] (144/1400) Accurately ripped
09 [92c6f9ef] (145/1396) Accurately ripped
10 [87aac878] (144/1407) Accurately ripped
11 [619ba652] (142/1402) Accurately ripped
12 [69b584bf] (144/1404) Accurately ripped
13 [18e7e41c] (144/1398) Accurately ripped
14 [8c383db9] (143/1403) Accurately ripped
15 [5d9a1125] (139/1404) Accurately ripped
16 [51f5ceee] (140/1381) Accurately ripped
Offsetted by 2169:
01 [7a27cc92] (040/1397) Accurately ripped
02 [ecce047c] (041/1405) Accurately ripped
03 [fc892812] (041/1403) Accurately ripped
04 [a9b2ae59] (041/1407) Accurately ripped
05 [2d094010] (040/1392) Accurately ripped
06 [606c7311] (041/1411) Accurately ripped
07 [d38c2c0b] (039/1396) Accurately ripped
08 [f86ce75e] (041/1400) Accurately ripped
09 [f78235d8] (041/1396) Accurately ripped
10 [e9f18270] (041/1407) Accurately ripped
11 [499a32ce] (040/1402) Accurately ripped
12 [9f244939] (040/1404) Accurately ripped
13 [a1eb3c42] (039/1398) Accurately ripped
14 [e064da54] (039/1403) Accurately ripped
15 [46553a9a] (039/1404) Accurately ripped
16 [a051cfaf] (042/1381) Accurately ripped
Offsetted by 2213:
01 [6a1c668b] (034/1397) Accurately ripped
02 [f508626e] (034/1405) Accurately ripped
03 [3fc30abd] (035/1403) Accurately ripped
04 [6655d1f8] (035/1407) Accurately ripped
05 [b78f80ae] (034/1392) Accurately ripped
06 [8ee4d548] (033/1411) Accurately ripped
07 [e6cdba71] (033/1396) Accurately ripped
08 [e94ba39c] (034/1400) Accurately ripped
09 [9ceac1ab] (034/1396) Accurately ripped
10 [2189b1ad] (034/1407) Accurately ripped
11 [9303fcdf] (033/1402) Accurately ripped
12 [e729946e] (034/1404) Accurately ripped
13 [c1150ece] (033/1398) Accurately ripped
14 [bbf49266] (034/1403) Accurately ripped
15 [03787b10] (033/1404) Accurately ripped
16 [041dd05b] (032/1381) Accurately ripped
Offsetted by 2332:
01 [81cc6144] (048/1397) Accurately ripped
02 [7ce5397b] (049/1405) Accurately ripped
03 [58565a62] (049/1403) Accurately ripped
04 [52364c68] (047/1407) Accurately ripped
05 [31808054] (047/1392) Accurately ripped
06 [ec7af95d] (049/1411) Accurately ripped
07 [349588c9] (048/1396) Accurately ripped
08 [cbe2301f] (049/1400) Accurately ripped
09 [da03b52f] (048/1396) Accurately ripped
10 [c186ad74] (048/1407) Accurately ripped
11 [baeb0dda] (049/1402) Accurately ripped
12 [c94f0847] (049/1404) Accurately ripped
13 [5d9cdc20] (048/1398) Accurately ripped
14 [b38a7d42] (048/1403) Accurately ripped
15 [64900712] (047/1404) Accurately ripped
16 [c20f157c] (048/1381) Accurately ripped
Offsetted by 2468:
01 [a2051c05] (020/1397) Accurately ripped
02 [9b3d4225] (019/1405) Accurately ripped
03 [f990cca9] (019/1403) Accurately ripped
04 [d44431b3] (019/1407) Accurately ripped
05 [176d687f] (020/1392) Accurately ripped
06 [0c4f1f52] (020/1411) Accurately ripped
07 [93033fc1] (020/1396) Accurately ripped
08 [c3ba0daf] (020/1400) Accurately ripped
09 [75ee7f06] (019/1396) Accurately ripped
10 [68a38889] (019/1407) Accurately ripped
11 [f655c4dc] (020/1402) Accurately ripped
12 [f4c39094] (019/1404) Accurately ripped
13 [5adbb329] (020/1398) Accurately ripped
14 [e1b0c667] (018/1403) Accurately ripped
15 [3ed743c9] (018/1404) Accurately ripped
16 [a41c5e53] (020/1381) Accurately ripped
Offsetted by 2494:
01 [e8f27932] (051/1397) Accurately ripped
02 [1b31f508] (053/1405) Accurately ripped
03 [15ac488c] (053/1403) Accurately ripped
04 [b49b1f52] (053/1407) Accurately ripped
05 [ca2f721c] (053/1392) Accurately ripped
06 [df8e4d24] (053/1411) Accurately ripped
07 [c0bdce12] (052/1396) Accurately ripped
08 [3c4d1fd8] (053/1400) Accurately ripped
09 [bb54c64a] (053/1396) Accurately ripped
10 [c39fde4b] (053/1407) Accurately ripped
11 [91d782b9] (053/1402) Accurately ripped
12 [837d6715] (053/1404) Accurately ripped
13 [70f79858] (053/1398) Accurately ripped
14 [9ba67ff8] (053/1403) Accurately ripped
15 [a3f531c6] (052/1404) Accurately ripped
16 [f809b621] (051/1381) Accurately ripped
Offsetted by 2894:
01 [e3bac102] (047/1397) Accurately ripped
02 [525e611b] (048/1405) Accurately ripped
03 [a50ac49a] (048/1403) Accurately ripped
04 [87481f68] (047/1407) Accurately ripped
05 [8437c993] (048/1392) Accurately ripped
06 [d3b7a561] (048/1411) Accurately ripped
07 [80c5f15d] (047/1396) Accurately ripped
08 [a97a8673] (048/1400) Accurately ripped
09 [2598dbbe] (047/1396) Accurately ripped
10 [1d8f2ab4] (046/1407) Accurately ripped
11 [6560769a] (048/1402) Accurately ripped
12 [8af2b9d1] (048/1404) Accurately ripped
13 [200ec1e0] (048/1398) Accurately ripped
14 [8868722a] (048/1403) Accurately ripped
15 [8c82dd6a] (046/1404) Accurately ripped
16 [8f3f348c] (046/1381) Accurately ripped
Offsetted by 6:
01 [c5f17cec] (000/1397) No match (V2 was not tested)
02 [54cfdc0b] (000/1405) No match (V2 was not tested)
03 [73a4d241] (000/1403) No match (V2 was not tested)
04 [8d74a09f] (000/1407) No match (V2 was not tested)
05 [7cd24e80] (000/1392) No match (V2 was not tested)
06 [b7d6fc7f] (000/1411) No match (V2 was not tested)
07 [3edcfb3a] (000/1396) No match (V2 was not tested)
08 [8f4c0422] (000/1400) No match (V2 was not tested)
09 [2bc34dc2] (000/1396) No match (V2 was not tested)
10 [16321c34] (000/1407) No match (V2 was not tested)
11 [aaaec3dd] (000/1402) No match (V2 was not tested)
12 [f9dcab76] (000/1404) No match (V2 was not tested)
13 [a6ab27de] (000/1398) No match (V2 was not tested)
14 [f663cf80] (000/1403) No match (V2 was not tested)
15 [1caf49b8] (000/1404) No match (V2 was not tested)
16 [ade202d3] (000/1381) No match (V2 was not tested)
Offsetted by 419:
01 [b04af61d] (000/1397) No match (V2 was not tested)
02 [57f96986] (000/1405) No match (V2 was not tested)
03 [4f8cb56e] (000/1403) No match (V2 was not tested)
04 [dc34ceec] (000/1407) No match (V2 was not tested)
05 [62ff1cd4] (000/1392) No match (V2 was not tested)
06 [1ca1fdbd] (000/1411) No match (V2 was not tested)
07 [fcaa8241] (000/1396) No match (V2 was not tested)
08 [8635d5d6] (000/1400) No match (V2 was not tested)
09 [5e74cbc3] (000/1396) No match (V2 was not tested)
10 [b2c6188e] (000/1407) No match (V2 was not tested)
11 [9bbdc01e] (000/1402) No match (V2 was not tested)
12 [371956b0] (000/1404) No match (V2 was not tested)
13 [4bef0225] (000/1398) No match (V2 was not tested)
14 [243b4bfd] (000/1403) No match (V2 was not tested)
15 [c6b27d3b] (000/1404) No match (V2 was not tested)
16 [2fb27ebe] (000/1381) No match (V2 was not tested)
Offsetted by 467:
01 [086a0303] (000/1397) No match (V2 was not tested)
02 [02c05fc4] (000/1405) No match (V2 was not tested)
03 [c2ad32a7] (000/1403) No match (V2 was not tested)
04 [b657967b] (000/1407) No match (V2 was not tested)
05 [2566143d] (000/1392) No match (V2 was not tested)
06 [fc751274] (000/1411) No match (V2 was not tested)
07 [7e941847] (000/1396) No match
08 [a3a83b8d] (000/1400) No match
09 [aa548b30] (000/1396) No match
10 [cf9be002] (000/1407) No match
11 [14a33d96] (000/1402) No match
12 [5746bdeb] (000/1404) No match
13 [4db8f46a] (000/1398) No match
14 [952797b8] (000/1403) No match
15 [f0f1df8a] (000/1404) No match
16 [6c08b60e] (000/1381) No match
Offsetted by 532:
01 [43cf2d97] (000/1397) No match (V2 was not tested)
02 [cda210b1] (000/1405) No match (V2 was not tested)
03 [d9894485] (000/1403) No match (V2 was not tested)
04 [cb45199d] (000/1407) No match (V2 was not tested)
05 [81b8a217] (000/1392) No match (V2 was not tested)
06 [c825da01] (000/1411) No match (V2 was not tested)
07 [2935ef56] (000/1396) No match (V2 was not tested)
08 [fd336fa9] (000/1400) No match (V2 was not tested)
09 [e698b59d] (000/1396) No match (V2 was not tested)
10 [a654e070] (000/1407) No match (V2 was not tested)
11 [f243d1ed] (000/1402) No match (V2 was not tested)
12 [034f8379] (000/1404) No match (V2 was not tested)
13 [a14ae65a] (000/1398) No match (V2 was not tested)
14 [4618c3c8] (000/1403) No match (V2 was not tested)
15 [aa02b0ec] (000/1404) No match (V2 was not tested)
16 [78682114] (000/1381) No match (V2 was not tested)
Offsetted by 598:
01 [9cf3bfd0] (000/1397) No match (V2 was not tested)
02 [1ad175ae] (000/1405) No match (V2 was not tested)
03 [8f259efc] (000/1403) No match (V2 was not tested)
04 [2497ecd2] (000/1407) No match (V2 was not tested)
05 [61af871b] (000/1392) No match (V2 was not tested)
06 [02d3cb17] (000/1411) No match (V2 was not tested)
07 [d4ab7a05] (000/1396) No match (V2 was not tested)
08 [fc5c613f] (000/1400) No match (V2 was not tested)
09 [e32b69bc] (000/1396) No match (V2 was not tested)
10 [aa32a139] (000/1407) No match (V2 was not tested)
11 [09dbaabb] (000/1402) No match (V2 was not tested)
12 [410c74d7] (000/1404) No match (V2 was not tested)
13 [5aee9782] (000/1398) No match (V2 was not tested)
14 [c36ef299] (000/1403) No match (V2 was not tested)
15 [ba3d2d7c] (000/1404) No match (V2 was not tested)
16 [eb5eadc4] (000/1381) No match (V2 was not tested)
Offsetted by 1418:
01 [f3f6bac5] (000/1397) No match (V2 was not tested)
02 [9f772059] (000/1405) No match (V2 was not tested)
03 [f4f1664d] (000/1403) No match (V2 was not tested)
04 [591e72eb] (000/1407) No match (V2 was not tested)
05 [af7665dd] (000/1392) No match (V2 was not tested)
06 [e46f62ca] (000/1411) No match
07 [91ff1fe4] (000/1396) No match (V2 was not tested)
08 [94d26c86] (000/1400) No match (V2 was not tested)
09 [6819a64e] (000/1396) No match (V2 was not tested)
10 [6e64ab7d] (000/1407) No match (V2 was not tested)
11 [0f0fd312] (000/1402) No match (V2 was not tested)
12 [5b258e1c] (000/1404) No match (V2 was not tested)
13 [78202d70] (000/1398) No match (V2 was not tested)
14 [b18b17fb] (000/1403) No match (V2 was not tested)
15 [b949d68a] (000/1404) No match (V2 was not tested)
16 [bab21a3b] (000/1381) No match (V2 was not tested)

Track Peak [ CRC32 ] [W/O NULL] [ LOG ]
– 100,0 [3FB145A3] [D8A40C97] CRC32
01 100,0 [6296037D] [9FEE254C]
02 100,0 [AAEA5AA1] [CC47BE71]
03 100,0 [DC53B654] [FD5F93F1]
04 100,0 [10543875] [C1E94248]
05 100,0 [9171E107] [0C0C95DA]
06 100,0 [DC976107] [F9048E1D]
07 100,0 [0511F03A] [3932555B]
08 100,0 [D23B1C66] [FEC0668B]
09 98,8 [17B98AE6] [8A28B778]
10 98,8 [138236E9] [0B9B1C25]
11 99,1 [6C58EE69] [C14DAC06]
12 100,0 [356D987E] [133A0BD9]
13 98,8 [F963CD09] [8844A154]
14 100,0 [B5161501] [69EC02A0]
15 98,8 [CFE898FC] [CE8D2F49]
16 98,8 [E830B317] [815E23F8]

System Of A Down - 5 Studio Albums + EP (1998-2006)

System Of A Down - Mezmerize (2005) [Japanese Edition]
EAC Rip | FLAC (image+.cue+log) - 273 MB | MP3 CBR 320 kbps (LAME 3.93) - 85 MB | Covers - 69 MB
Genre: Alternative Metal | RAR 3% Rec. | Label: Sony Music (SICP 682)

Tracklist:
01. Soldier Side - Intro
02. B.Y.O.B.
03. Revenga
04. Cigaro
05. Radio/Video
06. This Cocaine Makes Me Feel Like I'm On This Song
07. Violent Pornography
08. Question!
09. Sad Statue
10. Old School Hollywood
11. Lost In Hollywood

Total time: 36:12

Exact Audio Copy V1.0 beta 3 from 29. August 2011

Отчёт EAC об извлечении, выполненном 14. апреля 2013, 11:42

System Of A Down / Mezmerize

Дисковод: PIONEER DVD-RW DVR-111D Adapter: 4 ID: 1

Режим чтения : Достоверность
Использование точного потока : Да
Отключение кэша аудио : Да
Использование указателей C2 : Нет

Коррекция смещения при чтении : 48
Способность читать области Lead-in и Lead-out : Нет
Заполнение пропущенных сэмплов тишиной : Да
Удаление блоков с тишиной в начале и конце : Нет
При вычислениях CRC использовались нулевые сэмплы : Да
Интерфейс : Встроенный Win32-интерфейс для Win NT/2000

Выходной формат : Пользовательский кодировщик
Выбранный битрейт : 128 kBit/s
Качество : Высокий
Добавление ID3-тега : Нет
Утилита сжатия : F:\Program Files\FLAC\flac.exe
Дополнительные параметры : -V -8 -T "Date=%year%" -T "Genre=%genre%" %source%


TOC извлечённого CD

Трек | Старт | Длительность | Начальный сектор | Конечный сектор
––––––––––––––––––––––––––––––––––-
1 | 0:00.00 | 1:03.38 | 0 | 4762
2 | 1:03.38 | 4:15.37 | 4763 | 23924
3 | 5:19.00 | 3:48.02 | 23925 | 41026
4 | 9:07.02 | 2:11.58 | 41027 | 50909
5 | 11:18.60 | 4:09.10 | 50910 | 69594
6 | 15:27.70 | 2:08.18 | 69595 | 79212
7 | 17:36.13 | 3:31.35 | 79213 | 95072
8 | 21:07.48 | 3:20.45 | 95073 | 110117
9 | 24:28.18 | 3:25.52 | 110118 | 125544
10 | 27:53.70 | 2:56.63 | 125545 | 138807
11 | 30:50.58 | 5:20.64 | 138808 | 162871


Характеристики диапазона извлечения и сообщения об ошибках

Выбранный диапазон

Имя файла D:\EAC - extract\System Of A Down - 2005 - Mezmerize (SICP-682).wav

Пиковый уровень 98.8 %
Скорость извлечения 6.5 X
Качество диапазона 99.9 %
CRC теста 53B76A5C
CRC копии 53B76A5C
Копирование… OK

Ошибок не произошло


AccurateRip: сводка

Трек 1 : извлечено точно (доверие 3) [9CE488EC] (AR v1)
Трек 2 : извлечено точно (доверие 3) [90F81F33] (AR v1)
Трек 3 : извлечено точно (доверие 3) [31B83FB9] (AR v1)
Трек 4 : извлечено точно (доверие 3) [5BAF2E17] (AR v1)
Трек 5 : извлечено точно (доверие 3) [ED8618C8] (AR v1)
Трек 6 : извлечено точно (доверие 3) [417B409C] (AR v1)
Трек 7 : извлечено точно (доверие 3) [26FD0E32] (AR v1)
Трек 8 : извлечено точно (доверие 3) [7B7C8E71] (AR v1)
Трек 9 : извлечено точно (доверие 3) [035331E3] (AR v1)
Трек 10 : извлечено точно (доверие 3) [5DAAA237] (AR v1)
Трек 11 : извлечено точно (доверие 3) [A07D0C3D] (AR v1)

Все треки извлечены точно

Конец отчёта

==== Контрольная сумма отчёта 076B05BBCA73B50F4C06BF7ED0F7B4A5D9014BA348F1FB569699646D8CD7E2E2 ====

[CUETools log; Date: 12.05.2019 23:37:17; Version: 2.1.4]
[CTDB TOCID: I5_qXyGWh.LgiGMQHlQbmK6Reew-] found.
Track | CTDB Status
1 | (19/20) Accurately ripped
2 | (19/20) Accurately ripped
3 | (19/20) Accurately ripped
4 | (19/20) Accurately ripped
5 | (19/20) Accurately ripped
6 | (19/20) Accurately ripped
7 | (19/20) Accurately ripped
8 | (19/20) Accurately ripped
9 | (19/20) Accurately ripped
10 | (19/20) Accurately ripped
11 | (19/20) Accurately ripped
[AccurateRip ID: 000dc2d9-00797795-96087b0b] found.
Track [ CRC | V2 ] Status
01 [9ce488ec|755d629f] (4+3/7) Accurately ripped
02 [90f81f33|a9902690] (4+3/7) Accurately ripped
03 [31b83fb9|8e1a5d00] (4+3/7) Accurately ripped
04 [5baf2e17|4123da8e] (4+3/7) Accurately ripped
05 [ed8618c8|0551f43d] (4+3/7) Accurately ripped
06 [417b409c|da9f50fa] (4+3/7) Accurately ripped
07 [26fd0e32|f4e578ac] (4+3/7) Accurately ripped
08 [7b7c8e71|d3ddd825] (4+3/7) Accurately ripped
09 [035331e3|32d66ca5] (4+3/7) Accurately ripped
10 [5daaa237|c7be7858] (4+3/7) Accurately ripped
11 [a07d0c3d|bb147e23] (4+3/7) Accurately ripped

Track Peak [ CRC32 ] [W/O NULL] [ LOG ]
– 98,8 [53B76A5C] [8C6FA3E3] CRC32
01 50,7 [A29A027B] [75DDD002]
02 98,8 [9FE7A6CE] [9370E103]
03 98,8 [6C45A8FF] [18F8C6B4]
04 98,8 [6BD6FA79] [4C01B4EA]
05 98,8 [475AFD52] [3D293EFE]
06 98,8 [6C3069D9] [3565D7E7]
07 98,8 [710F3E05] [31BC79CE]
08 98,8 [3911CFDE] [620EC8BE]
09 98,8 [F91B6F28] [489B724A]
10 98,8 [29403D87] [27FDA641]
11 98,8 [3CDB83C3] [A3D72CE2]

System Of A Down - 5 Studio Albums + EP (1998-2006)

System Of A Down - Hypnotize (2005) [Japanese Edition]
EAC Rip | FLAC (image+.cue+log) - 298 MB | MP3 CBR 320 kbps (LAME 3.93) - 93 MB | Covers - 65 MB
Genre: Alternative Metal | RAR 3% Rec. | Label: Sony Music (SICP 933)

Tracklist:
01. Attack
02. Dreaming
03. Kill Rock 'N Roll
04. Hypnotize
05. Stealing Society
06. Tentative
07. U-Fig
08. Holy Mountains
09. Vicinity Of Obscenity
10. She's Like Heroin
11. Lonely Day
12. Soldier Side

Total time: 39:47

Exact Audio Copy V1.0 beta 3 from 29. August 2011

Отчёт EAC об извлечении, выполненном 20. апреля 2013, 16:36

System Of A Down / Hypnotize

Дисковод: PIONEER DVD-RW DVR-111D Adapter: 4 ID: 1

Режим чтения : Достоверность
Использование точного потока : Да
Отключение кэша аудио : Да
Использование указателей C2 : Нет

Коррекция смещения при чтении : 48
Способность читать области Lead-in и Lead-out : Нет
Заполнение пропущенных сэмплов тишиной : Да
Удаление блоков с тишиной в начале и конце : Нет
При вычислениях CRC использовались нулевые сэмплы : Да
Интерфейс : Встроенный Win32-интерфейс для Win NT/2000

Выходной формат : Пользовательский кодировщик
Выбранный битрейт : 128 kBit/s
Качество : Высокий
Добавление ID3-тега : Нет
Утилита сжатия : F:\Program Files\FLAC\flac.exe
Дополнительные параметры : -V -8 -T "Date=%year%" -T "Genre=%genre%" %source%


TOC извлечённого CD

Трек | Старт | Длительность | Начальный сектор | Конечный сектор
––––––––––––––––––––––––––––––––––-
1 | 0:00.00 | 3:06.33 | 0 | 13982
2 | 3:06.33 | 3:59.65 | 13983 | 31972
3 | 7:06.23 | 2:27.72 | 31973 | 43069
4 | 9:34.20 | 3:09.33 | 43070 | 57277
5 | 12:43.53 | 2:58.02 | 57278 | 70629
6 | 15:41.55 | 3:36.40 | 70630 | 86869
7 | 19:18.20 | 2:55.18 | 86870 | 100012
8 | 22:13.38 | 5:28.64 | 100013 | 124676
9 | 27:42.27 | 2:51.61 | 124677 | 137562
10 | 30:34.13 | 2:44.12 | 137563 | 149874
11 | 33:18.25 | 2:47.67 | 149875 | 162466
12 | 36:06.17 | 3:40.23 | 162467 | 178989


Характеристики диапазона извлечения и сообщения об ошибках

Выбранный диапазон

Имя файла D:\EAC - extract\System Of A Down - 2005 - Hypnotize (SICP-933).wav

Пиковый уровень 100.0 %
Скорость извлечения 6.7 X
Качество диапазона 100.0 %
CRC теста FA83A8D7
CRC копии FA83A8D7
Копирование… OK

Ошибок не произошло


AccurateRip: сводка

Трек 1 : извлечено точно (доверие 8) [D6638B2B] (AR v1)
Трек 2 : извлечено точно (доверие 8) [AE7F2B24] (AR v1)
Трек 3 : извлечено точно (доверие 9) [44582178] (AR v1)
Трек 4 : извлечено точно (доверие 9) [953880E9] (AR v1)
Трек 5 : извлечено точно (доверие 9) [697CF3D0] (AR v1)
Трек 6 : извлечено точно (доверие 9) [556B4BEF] (AR v1)
Трек 7 : извлечено точно (доверие 9) [D1EE29F7] (AR v1)
Трек 8 : извлечено точно (доверие 9) [0A2B362D] (AR v1)
Трек 9 : извлечено точно (доверие 9) [98309285] (AR v1)
Трек 10 : извлечено точно (доверие 9) [1B923F35] (AR v1)
Трек 11 : извлечено точно (доверие 9) [14127D03] (AR v1)
Трек 12 : извлечено точно (доверие 9) [9E926854] (AR v1)

Все треки извлечены точно

Конец отчёта

==== Контрольная сумма отчёта DE717B83ED48AC74EED251353A19DE012524722975448F3455C16E6689F5AD23 ====

[CUETools log; Date: 12.05.2019 23:38:10; Version: 2.1.4]
[CTDB TOCID: y3RUWozlp0gMvZ.yoEzDRMD.KK0-] found.
Track | CTDB Status
1 | (62/63) Accurately ripped
2 | (62/63) Accurately ripped
3 | (62/63) Accurately ripped
4 | (62/63) Accurately ripped
5 | (62/63) Accurately ripped
6 | (62/63) Accurately ripped
7 | (62/63) Accurately ripped
8 | (61/63) Accurately ripped
9 | (61/63) Accurately ripped
10 | (62/63) Accurately ripped
11 | (62/63) Accurately ripped
12 | (62/63) Accurately ripped
[AccurateRip ID: 0011a90d-00a55d68-9f09520c] found.
Track [ CRC | V2 ] Status
01 [d6638b2b|41a30cd1] (10+10/20) Accurately ripped
02 [ae7f2b24|921f1fb3] (10+10/20) Accurately ripped
03 [44582178|be9286b4] (11+10/21) Accurately ripped
04 [953880e9|0e91044c] (11+10/21) Accurately ripped
05 [697cf3d0|bb0cbacd] (11+10/21) Accurately ripped
06 [556b4bef|ea237209] (11+10/21) Accurately ripped
07 [d1ee29f7|c4e657d5] (11+10/21) Accurately ripped
08 [0a2b362d|70c3af46] (11+10/21) Accurately ripped
09 [98309285|4b1d9872] (11+10/21) Accurately ripped
10 [1b923f35|0cf026f7] (11+10/21) Accurately ripped
11 [14127d03|80168212] (11+10/21) Accurately ripped
12 [9e926854|f0e57808] (11+10/21) Accurately ripped

Track Peak [ CRC32 ] [W/O NULL] [ LOG ]
– 100,0 [FA83A8D7] [0D88F3EE] CRC32
01 100,0 [09BE16C1] [4715B272]
02 100,0 [235713BD] [B7496DA9]
03 100,0 [A3BCD4F8] [E36A571B]
04 100,0 [E8E1C537] [7D69F6A7]
05 98,8 [33414DA2] [648DEA85]
06 98,8 [31D95E6E] [F579E62F]
07 98,8 [54FABCDD] [CCA34F5B]
08 98,8 [EA61C73E] [A6C54A84]
09 100,0 [E70ECFFC] [62BB02A1]
10 98,8 [6723CA8C] [CB18056D]
11 100,0 [4ED8B03F] [9D995411]
12 100,0 [1D6D9AFB] [C0952969]

System Of A Down - 5 Studio Albums + EP (1998-2006)

System Of A Down - Lonely Day [EP] (2006)
EAC Rip | FLAC (image+.cue+log) - 115 MB | MP3 CBR 320 kbps (LAME 3.93) - 38 MB | Covers - 10 MB
Genre: Alternative Metal | RAR 3% Rec. | Label: American/Columbia (82876831412)

Tracklist:
01. Lonely Day
02. Shame (System Of A Down And Wu-Tang Clan)
03. Snowblind (Black Sabbath cover)
04. Metro (Berlin cover)
05. Marmalade

Total time: 16:09

EAC extraction logfile from 24. June 2007, 13:31 for CD
System Of A Down / Lonely Day

Used drive : PLEXTOR CD-R PX-W1210S Adapter: 0 ID: 4
Read mode : Secure with NO C2, accurate stream, disable cache
Read offset correction : 98
Overread into Lead-In and Lead-Out : No

Used output format : Internal WAV Routines
44.100 Hz; 16 Bit; Stereo

Other options :
Fill up missing offset samples with silence : Yes
Delete leading and trailing silent blocks : No
Installed external ASPI interface


Range status and errors
Selected range
Filename C:\EAC\System Of A Down - Lonely Day.wav

Peak level 98.8 %
Range quality 100.0 %
CRC FEE67FE9
Copy OK

No errors occured

End of status report

[CUETools log; Date: 12.05.2019 23:21:11; Version: 2.1.4]
CD-Extra data track length 03:58:27.
[CTDB TOCID: 2WVLesKfk.aM8sMxQtq2W0pMIIk-] found.
Track | CTDB Status
1 | (44/44) Accurately ripped
2 | (43/44) Accurately ripped
3 | (44/44) Accurately ripped
4 | (44/44) Accurately ripped
5 | (44/44) Accurately ripped
[AccurateRip ID: 0003b9a0-00122765-30054f06] found.
Track [ CRC | V2 ] Status
01 [2091ed5f|dfa3065b] (09+16/33) Accurately ripped
02 [4fc849c8|a3f2f550] (10+17/35) Accurately ripped
03 [5c487c59|cde961dc] (10+17/35) Accurately ripped
04 [63d23110|728ab8ea] (09+17/34) Accurately ripped
05 [82685828|4763780f] (09+17/34) Accurately ripped
Offsetted by 12:
01 [7f54118b] (04/33) Accurately ripped
02 [daf83224] (04/35) Accurately ripped
03 [308820d3] (04/35) Accurately ripped
04 [c393936a] (04/34) Accurately ripped
05 [a10b100f] (04/34) Accurately ripped

Track Peak [ CRC32 ] [W/O NULL] [ LOG ]
– 98,8 [FEE67FE9] [47E5BAF4] CRC32
01 98,8 [7DF932DA] [5B709A54]
02 98,7 [6DF2ED07] [D0A200DF]
03 97,5 [C42415A8] [9FE8AAC2]
04 98,1 [454A63D4] [9365C415]
05 98,8 [9944AC2B] [7D401004]

Thanks to Einsatzleiter, Hellixxx, edenika, SurowyTato

See also:
Serj Tankian - Imperfect Harmonies (2010) [Japanese Edition]