Subcategories

T. Rex - Tanx And Zinc Alloy (2014) [4CD + DVD Super Deluxe Box Set]

Posted By: v3122
T. Rex - Tanx And Zinc Alloy (2014) [4CD + DVD Super Deluxe Box Set]

T. Rex - Tanx And Zinc Alloy (2014)
EAC | Flac(Image) + Cue + Log & MP3 CBR 320Kbps
4CD | Edsel Records, BLN 500240 | ~ 1328 or 486 Mb | Scans(png) -> 1159 Mb
DVD5: ISO Image, NTSC 4:3 (720x480) VBR | Dolby AC3, 2 ch, 192 kbps -> 1909 Mb
Rock / Glam / Psychedelic Rock

This 80 page 12x12 hardback book includes: 4 x CDs and 1 x DVD “Tanx” and “Zinc Alloy” and the contemporary singles remastered by producer Tony Visconti, Demos and outtakes, Brand new liner notes by Tony Visconti and acknowledged expert Mark Paytress, Plus photographs of ‘Tanx’ and ‘Zinc Alloy’ period 7” singles from around the world, previously unpublished photos, sheet music and press cuttings.

Preceded by some of Bolan’s most fondly-remembered singles, “Children Of The Revolution”, “Solid Gold Easy Action” and the classic “20th Century Boy”, 1973’s Tanx was the first T. Rex album to make full use of the ever-expanding range of studio gadgets. And while the album represented a new musical departure, several tracks maintained a direct link to the old sound. Hit singles “The Groover” and “Truck On (Tyke)” preceded Zinc Alloy, which was released in March 1974, and included the follow-up hit “Teenage Dream”. The results of listening to black radio stations whilst touring the US during 1973 are apparent on this album, something of an oft-overlooked treasure trove.

~ amazon

T. Rex - Tanx And Zinc Alloy (2014) [4CD + DVD Super Deluxe Box Set]

While many stateside listeners never got much deeper into T. Rex and Marc Bolan's massive catalog than the boogie glam fun of "Bang a Gong (Get It On)," Bolan spent much of his life as an ever-morphing pop star in his U.K. home, recording hits and even living on as a television personality until his death in 1977. This massive repackaging of Tanx/Zinc Alloy inspects a two-year period in Bolan's glam rock phase, which could be looked upon as transitional, moving away from the woozy, sexy hard rock of Electric Warrior and The Slider into far more soul-inflected pop fare. When Tanx and Zinc Alloy appeared in 1973 and 1974, respectively, they were initially seen as commercially disappointing, with depleted sales and far less in the way of hits than their predecessors. The expanded instrumentation and production trickery of the albums would age better than it seemed, however, and songs from this time seemed to point at an embrace of soul backup singers, string arrangements, and other slick pop elements that Bowie would enjoy massive success with a few years later on his Young Americans album. Tanx/Zinc Alloy in this Deluxe Edition presentation includes both albums and singles from their respective periods remastered in full by original producer Tony Visconti (with assistance from Ted Jensen) as well as track after track of demos, outtakes, alternate versions, and other scraps from the cutting-room floor. All told, the collection includes more than 80 tracks from this particular period of Bolan's oeuvre. Though less celebrated than his best-loved hits, the highlights here are among some of his best-written songs, and the production choices he was making on these records were far more interesting than the straightforward rock of his first few T. Rex albums, despite their superior overall quality. This set is a must for any completist and will reveal much to anyone interested in Bolan's curious, inspired paths of development.

by Fred Thomas, AMG
T. Rex - Tanx And Zinc Alloy (2014):

T. Rex - Tanx And Zinc Alloy (2014) [4CD + DVD Super Deluxe Box Set]

Tracklist CD1 - Tanx [Remaster 2014]:

01 Tenement Lady
02 Rapids
03 Mister Mister
04 Broken-Hearted Blues
05 Shock Rock
06 Country Honey
07 Electric Slim And The Factory Hen
08 Mad Donna
09 Born To Boogie
10 Life Is Strange
11 The Street And Babe Shadow
12 Highway Knees
13 Left Hand Luke And The Beggar Boys

Exact Audio Copy V1.0 beta 3 from 29. August 2011

EAC extraction logfile from 6. November 2014, 13:18

T. Rex / Tanx And Zinc Alloy CD1

Used drive : PLEXTOR BD-R PX-B950SA Adapter: 6 ID: 0

Read mode : Secure
Utilize accurate stream : Yes
Defeat audio cache : Yes
Make use of C2 pointers : No

Read offset correction : 6
Overread into Lead-In and Lead-Out : No
Fill up missing offset samples with silence : Yes
Delete leading and trailing silent blocks : No
Null samples used in CRC calculations : Yes
Used interface : Native Win32 interface for Win NT & 2000

Used output format : Internal WAV Routines
Sample format : 44.100 Hz; 16 Bit; Stereo


TOC of the extracted CD

Track | Start | Length | Start sector | End sector
––––––––––––––––––––––––––––-
1 | 0:00.00 | 2:55.65 | 0 | 13189
2 | 2:55.65 | 2:49.11 | 13190 | 25875
3 | 5:45.01 | 3:30.02 | 25876 | 41627
4 | 9:15.03 | 2:02.71 | 41628 | 50848
5 | 11:17.74 | 1:43.51 | 50849 | 58624
6 | 13:01.50 | 1:47.36 | 58625 | 66685
7 | 14:49.11 | 3:04.34 | 66686 | 80519
8 | 17:53.45 | 2:16.52 | 80520 | 90771
9 | 20:10.22 | 2:04.27 | 90772 | 100098
10 | 22:14.49 | 2:30.24 | 100099 | 111372
11 | 24:44.73 | 2:18.00 | 111373 | 121722
12 | 27:02.73 | 2:34.36 | 121723 | 133308
13 | 29:37.34 | 5:17.74 | 133309 | 157157


Range status and errors

Selected range

Filename C:\Users\Meijin\Desktop\ALLexxess\T. Rex\2014 Tanx And Zinc Alloy (4CD + DVD Box Set Edsel Records)\CD1 Tanx\T. Rex - Tanx And Zinc Alloy CD1.wav

Peak level 97.2 %
Extraction speed 6.5 X
Range quality 100.0 %
Test CRC 2970EA4C
Copy CRC 2970EA4C
Copy OK

No errors occurred


AccurateRip summary

Track 1 accurately ripped (confidence 1) [D1C753F0] (AR v2)
Track 2 accurately ripped (confidence 1) [E20E73DA] (AR v2)
Track 3 accurately ripped (confidence 1) [F9245F94] (AR v2)
Track 4 accurately ripped (confidence 1) [D031C6D5] (AR v2)
Track 5 accurately ripped (confidence 1) [D1FA9D81] (AR v2)
Track 6 accurately ripped (confidence 1) [991B3B11] (AR v2)
Track 7 accurately ripped (confidence 1) [D4B8CFAF] (AR v2)
Track 8 accurately ripped (confidence 1) [81E7C28C] (AR v2)
Track 9 accurately ripped (confidence 1) [98088EAB] (AR v2)
Track 10 accurately ripped (confidence 1) [EB91B2DE] (AR v2)
Track 11 accurately ripped (confidence 1) [66EDEEEF] (AR v2)
Track 12 accurately ripped (confidence 1) [A3837068] (AR v2)
Track 13 accurately ripped (confidence 1) [3E2DA0E0] (AR v2)

All tracks accurately ripped

End of status report

foobar2000 1.2.9 / Dynamic Range Meter 1.1.1
log date: 2014-11-07 15:19:58

––––––––––––––––––––––––––––––––––––––––
Analyzed: T. Rex / Tanx And Zinc Alloy CD1
––––––––––––––––––––––––––––––––––––––––

DR Peak RMS Duration Track
––––––––––––––––––––––––––––––––––––––––
DR5 -0.50 dB -6.99 dB 2:56 01-Tenement Lady
DR9 -0.27 dB -10.82 dB 2:49 02-Rapids
DR10 -0.27 dB -11.61 dB 3:30 03-Mister Mister
DR11 -1.10 dB -13.25 dB 2:03 04-Broken-Hearted Blues
DR9 -0.31 dB -10.95 dB 1:44 05-Shock Rock
DR9 -0.36 dB -10.92 dB 1:47 06-Country Honey
DR10 -0.38 dB -12.66 dB 3:04 07-Electric Slim And The Factory Hen
DR8 -0.29 dB -9.80 dB 2:17 08-Mad Donna
DR10 -0.36 dB -11.41 dB 2:04 09-Born To Boogie
DR11 -0.34 dB -12.81 dB 2:30 10-Life Is Strange
DR10 -0.35 dB -11.75 dB 2:18 11-The Street And Babe Shadow
DR10 -0.24 dB -11.98 dB 2:34 12-Highway Knees
DR10 -0.35 dB -11.24 dB 5:18 13-Left Hand Luke And The Beggar Boys
––––––––––––––––––––––––––––––––––––––––

Number of tracks: 13
Official DR value: DR9

Samplerate: 44100 Hz
Channels: 2
Bits per sample: 16
Bitrate: 908 kbps
Codec: FLAC

[CUETools log; Date: 07.11.2014 16:54:55; Version: 2.1.4]
[CTDB TOCID: 8XBO.EifOzs.Kuj5XbIu1IPDMLg-] found.
Track | CTDB Status
1 | (1/1) Accurately ripped
2 | (1/1) Accurately ripped
3 | (1/1) Accurately ripped
4 | (1/1) Accurately ripped
5 | (1/1) Accurately ripped
6 | (1/1) Accurately ripped
7 | (1/1) Accurately ripped
8 | (1/1) Accurately ripped
9 | (1/1) Accurately ripped
10 | (1/1) Accurately ripped
11 | (1/1) Accurately ripped
12 | (1/1) Accurately ripped
13 | (1/1) Accurately ripped
[AccurateRip ID: 00100ca0-009f1068-c2082f0d] found.
Track [ CRC | V2 ] Status
01 [5d1bf669|d1c753f0] (0+1/1) Accurately ripped
02 [8c267ffc|e20e73da] (0+1/1) Accurately ripped
03 [e69481f2|f9245f94] (0+1/1) Accurately ripped
04 [69c2264d|d031c6d5] (0+1/1) Accurately ripped
05 [6366578b|d1fa9d81] (0+1/1) Accurately ripped
06 [e3033861|991b3b11] (0+1/1) Accurately ripped
07 [68625500|d4b8cfaf] (0+1/1) Accurately ripped
08 [87626f81|81e7c28c] (0+1/1) Accurately ripped
09 [740caa81|98088eab] (0+1/1) Accurately ripped
10 [2ebbb71d|eb91b2de] (0+1/1) Accurately ripped
11 [95d1167f|66edeeef] (0+1/1) Accurately ripped
12 [946d512e|a3837068] (0+1/1) Accurately ripped
13 [b86e8946|3e2da0e0] (0+1/1) Accurately ripped

Track Peak [ CRC32 ] [W/O NULL] [ LOG ]
– 97,2 [2970EA4C] [7EFDF27F] CRC32
01 94,4 [1A3137EF] [E0B2F366]
02 96,9 [2919CE9C] [573E126A]
03 96,8 [B96EB91E] [18D9A75D]
04 88,1 [5322F78C] [7ECFB028]
05 96,5 [3E3023A8] [31B5CA7A]
06 95,9 [C35E2864] [1722C0A9]
07 95,7 [D57CD272] [C7334A4E]
08 96,7 [A1C82CDC] [D65A7964]
09 95,9 [28120937] [4F6AE8EC]
10 96,2 [6BA47714] [295C24EE]
11 96,0 [C9F4AF0B] [27017458]
12 97,2 [BC420F4B] [B37565B4]
13 96,0 [24E8BD18] [269039CA]

T. Rex - Tanx And Zinc Alloy (2014) [4CD + DVD Super Deluxe Box Set]

Tracklist CD2 - Tanx Period A And B Sides:

01 Children Of The Revolution
02 Jitterbug Love
03 Sunken Rags
04 Solid Gold Easy Action
05 Xmas Riff
06 20th Century Boy
07 Free Angel

Demos And Outtakes:
08 Pepsi Jingle
09 Mister Motion
10 The Street And Babe Shadow
11 Free Angel
12 Rapids
13 Life Is Strange
14 Mister Mister
15 Jitterbug Love 44
16 Country Honey
17 Highway Knees
18 Mad Donna
19 Electric Slim & The Factory Hen (alias You Got The Look)
20 Left Hand Luke
21 Free Angel (Alternate Version)
22 Fast Blues - Easy Action
23 Sunken Rags (Solo Acoustic Version)
24 Xmas Fan Club Flexi (Full Version)

Exact Audio Copy V1.0 beta 3 from 29. August 2011

EAC extraction logfile from 6. November 2014, 12:52

T. Rex / Tanx And Zinc Alloy CD2

Used drive : PLEXTOR BD-R PX-B950SA Adapter: 6 ID: 0

Read mode : Secure
Utilize accurate stream : Yes
Defeat audio cache : Yes
Make use of C2 pointers : No

Read offset correction : 6
Overread into Lead-In and Lead-Out : No
Fill up missing offset samples with silence : Yes
Delete leading and trailing silent blocks : No
Null samples used in CRC calculations : Yes
Used interface : Native Win32 interface for Win NT & 2000

Used output format : Internal WAV Routines
Sample format : 44.100 Hz; 16 Bit; Stereo


TOC of the extracted CD

Track | Start | Length | Start sector | End sector
––––––––––––––––––––––––––––-
1 | 0:00.00 | 2:30.61 | 0 | 11310
2 | 2:30.61 | 2:58.25 | 11311 | 24685
3 | 5:29.11 | 2:53.59 | 24686 | 37719
4 | 8:22.70 | 2:22.02 | 37720 | 48371
5 | 10:44.72 | 0:11.71 | 48372 | 49267
6 | 10:56.68 | 3:40.49 | 49268 | 65816
7 | 14:37.42 | 2:14.63 | 65817 | 75929
8 | 16:52.30 | 0:25.63 | 75930 | 77867
9 | 17:18.18 | 1:48.47 | 77868 | 86014
10 | 19:06.65 | 2:21.38 | 86015 | 96627
11 | 21:28.28 | 1:55.67 | 96628 | 105319
12 | 23:24.20 | 1:31.36 | 105320 | 112180
13 | 24:55.56 | 2:05.00 | 112181 | 121555
14 | 27:00.56 | 2:01.07 | 121556 | 130637
15 | 29:01.63 | 2:28.50 | 130638 | 141787
16 | 31:30.38 | 2:02.37 | 141788 | 150974
17 | 33:33.00 | 1:49.00 | 150975 | 159149
18 | 35:22.00 | 2:03.57 | 159150 | 168431
19 | 37:25.57 | 1:51.18 | 168432 | 176774
20 | 39:17.00 | 2:36.51 | 176775 | 188525
21 | 41:53.51 | 2:12.45 | 188526 | 198470
22 | 44:06.21 | 3:25.61 | 198471 | 213906
23 | 47:32.07 | 2:29.38 | 213907 | 225119
24 | 50:01.45 | 8:50.34 | 225120 | 264903


Range status and errors

Selected range

Filename C:\Users\Meijin\Desktop\ALLexxess\T. Rex\2014 Tanx And Zinc Alloy (4CD + DVD Box Set Edsel Records)\CD2 Tanx Period A And B Sides\T. Rex - Tanx And Zinc Alloy CD2.wav

Peak level 99.4 %
Extraction speed 7.5 X
Range quality 100.0 %
Test CRC 045859E2
Copy CRC 045859E2
Copy OK

No errors occurred


AccurateRip summary

Track 1 accurately ripped (confidence 1) [CD6B1410] (AR v2)
Track 2 accurately ripped (confidence 1) [4C192E89] (AR v2)
Track 3 accurately ripped (confidence 1) [48122B45] (AR v2)
Track 4 accurately ripped (confidence 1) [F0401F34] (AR v2)
Track 5 accurately ripped (confidence 1) [A0084F1C] (AR v2)
Track 6 accurately ripped (confidence 1) [7966067C] (AR v2)
Track 7 accurately ripped (confidence 1) [8ACD6357] (AR v2)
Track 8 accurately ripped (confidence 1) [25FD853D] (AR v2)
Track 9 accurately ripped (confidence 1) [A3986FBC] (AR v2)
Track 10 accurately ripped (confidence 1) [1A849312] (AR v2)
Track 11 accurately ripped (confidence 1) [A4CA7806] (AR v2)
Track 12 accurately ripped (confidence 1) [906F5CFD] (AR v2)
Track 13 accurately ripped (confidence 1) [A45C486C] (AR v2)
Track 14 accurately ripped (confidence 1) [643A8AC9] (AR v2)
Track 15 accurately ripped (confidence 1) [F0DB4D1C] (AR v2)
Track 16 accurately ripped (confidence 1) [F7EFED71] (AR v2)
Track 17 accurately ripped (confidence 1) [E0A3A5AD] (AR v2)
Track 18 accurately ripped (confidence 1) [3DDA0BA5] (AR v2)
Track 19 accurately ripped (confidence 1) [2AFA61E2] (AR v2)
Track 20 accurately ripped (confidence 1) [A80FC8FF] (AR v2)
Track 21 accurately ripped (confidence 1) [6BBA3A4E] (AR v2)
Track 22 accurately ripped (confidence 1) [C0DF6798] (AR v2)
Track 23 accurately ripped (confidence 1) [6239B6E2] (AR v2)
Track 24 accurately ripped (confidence 1) [75287007] (AR v2)

All tracks accurately ripped

End of status report

foobar2000 1.2.9 / Dynamic Range Meter 1.1.1
log date: 2014-11-07 15:19:44

––––––––––––––––––––––––––––––––––––––––
Analyzed: T. Rex / Tanx And Zinc Alloy CD2
––––––––––––––––––––––––––––––––––––––––

DR Peak RMS Duration Track
––––––––––––––––––––––––––––––––––––––––
DR10 -0.30 dB -12.16 dB 2:31 01-Children Of The Revolution
DR10 -0.05 dB -11.68 dB 2:58 02-Jitterbug Love
DR9 -0.32 dB -10.21 dB 2:54 03-Sunken Rags
DR9 -0.05 dB -11.34 dB 2:22 04-Solid Gold Easy Action
DR13 -5.40 dB -18.57 dB 0:12 05-Xmas Riff
DR8 -0.31 dB -9.65 dB 3:41 06-20th Century Boy
DR9 -0.10 dB -10.93 dB 2:15 07-Free Angel
DR10 -0.05 dB -13.08 dB 0:26 08-Pepsi Jingle / Demos And Outtakes
DR12 -0.05 dB -14.93 dB 1:49 09-Mister Motion / Demos And Outtakes
DR6 -2.13 dB -9.66 dB 2:22 10-The Street And Babe Shadow / Demos And Outtakes
DR8 -0.05 dB -10.61 dB 1:56 11-Free Angel / Demos And Outtakes
DR10 -0.05 dB -13.09 dB 1:31 12-Rapids / Demos And Outtakes
DR8 -0.05 dB -11.65 dB 2:05 13-Life Is Strange / Demos And Outtakes
DR11 -0.09 dB -15.33 dB 2:01 14-Mister Mister / Demos And Outtakes
DR10 -0.05 dB -14.01 dB 2:29 15-Jitterbug Love 44 / Demos And Outtakes
DR9 -0.18 dB -11.72 dB 2:02 16-Country Honey / Demos And Outtakes
DR10 -0.05 dB -14.20 dB 1:49 17-Highway Knees / Demos And Outtakes
DR10 -0.05 dB -12.49 dB 2:04 18-Mad Donna / Demos And Outtakes
DR8 -2.59 dB -12.14 dB 1:51 19-Electric Slim & The Factory Hen (alias You Got The Look) / Demos And Outtakes
DR9 -0.05 dB -13.08 dB 2:37 20-Left Hand Luke / Demos And Outtakes
DR9 -0.05 dB -13.43 dB 2:13 21-Free Angel (Alternate Version) / Demos And Outtakes
DR10 -0.05 dB -11.95 dB 3:26 22-Fast Blues - Easy Action / Demos And Outtakes
DR8 -1.45 dB -11.07 dB 2:30 23-Sunken Rags (Solo Acoustic Version) / Demos And Outtakes
DR8 -0.65 dB -12.01 dB 8:50 24-Xmas Fan Club Flexi [(Full Version) / Demos And Outtakes
––––––––––––––––––––––––––––––––––––––––

Number of tracks: 24
Official DR value: DR9

Samplerate: 44100 Hz
Channels: 2
Bits per sample: 16
Bitrate: 827 kbps
Codec: FLAC

[CUETools log; Date: 07.11.2014 16:55:24; Version: 2.1.4]
[CTDB TOCID: uXOkJ.HeceXrWuwRgL47N.LhosA-] found.
Track | CTDB Status
1 | (1/1) Accurately ripped
2 | (1/1) Accurately ripped
3 | (1/1) Accurately ripped
4 | (1/1) Accurately ripped
5 | (1/1) Accurately ripped
6 | (1/1) Accurately ripped
7 | (1/1) Accurately ripped
8 | (1/1) Accurately ripped
9 | (1/1) Accurately ripped
10 | (1/1) Accurately ripped
11 | (1/1) Accurately ripped
12 | (1/1) Accurately ripped
13 | (1/1) Accurately ripped
14 | (1/1) Accurately ripped
15 | (1/1) Accurately ripped
16 | (1/1) Accurately ripped
17 | (1/1) Accurately ripped
18 | (1/1) Accurately ripped
19 | (1/1) Accurately ripped
20 | (1/1) Accurately ripped
21 | (1/1) Accurately ripped
22 | (1/1) Accurately ripped
23 | (1/1) Accurately ripped
24 | (1/1) Accurately ripped
[AccurateRip ID: 002cba9e-03039721-360dcc18] found.
Track [ CRC | V2 ] Status
01 [0f23d363|cd6b1410] (0+1/1) Accurately ripped
02 [08446557|4c192e89] (0+1/1) Accurately ripped
03 [083623b9|48122b45] (0+1/1) Accurately ripped
04 [eeb55a79|f0401f34] (0+1/1) Accurately ripped
05 [2286593f|a0084f1c] (0+1/1) Accurately ripped
06 [2a2dd914|7966067c] (0+1/1) Accurately ripped
07 [da9aa536|8acd6357] (0+1/1) Accurately ripped
08 [d7404d87|25fd853d] (0+1/1) Accurately ripped
09 [da361d2a|a3986fbc] (0+1/1) Accurately ripped
10 [e87f34c0|1a849312] (0+1/1) Accurately ripped
11 [4a383586|a4ca7806] (0+1/1) Accurately ripped
12 [d0458480|906f5cfd] (0+1/1) Accurately ripped
13 [72509c7f|a45c486c] (0+1/1) Accurately ripped
14 [d422140d|643a8ac9] (0+1/1) Accurately ripped
15 [c85fdfd9|f0db4d1c] (0+1/1) Accurately ripped
16 [7a628fe5|f7efed71] (0+1/1) Accurately ripped
17 [1cd80d58|e0a3a5ad] (0+1/1) Accurately ripped
18 [25c1fb08|3dda0ba5] (0+1/1) Accurately ripped
19 [4e506b40|2afa61e2] (0+1/1) Accurately ripped
20 [cddb4164|a80fc8ff] (0+1/1) Accurately ripped
21 [6a388a32|6bba3a4e] (0+1/1) Accurately ripped
22 [db4e67af|c0df6798] (0+1/1) Accurately ripped
23 [2c6fd6a8|6239b6e2] (0+1/1) Accurately ripped
24 [d333fa71|75287007] (0+1/1) Accurately ripped

Track Peak [ CRC32 ] [W/O NULL] [ LOG ]
– 99,4 [045859E2] [6E3DB073] CRC32
01 96,6 [1036A4AF] [10DC5594]
02 99,4 [B7CADADA] [C2535311]
03 96,4 [FD05AE95] [2C98AC94]
04 99,4 [98D8439D] [15AEA2BF]
05 53,6 [A529369E] [2FFE91E2]
06 96,5 [FFE9346C] [BD759E34]
07 98,8 [7A3BE483] [5A30CD88]
08 99,4 [FF906B07] [B7A6CCE1]
09 99,4 [57BBE00E] [AD005CBC]
10 78,2 [B60DB95F] [87BFC3FC]
11 99,4 [5CA2B2A7] [ED9C033A]
12 99,4 [3287B68B] [507DF365]
13 99,4 [90A28496] [0EB78131]
14 98,9 [15AE8884] [7CEF7F27]
15 99,4 [194232DA] [86517444]
16 97,9 [2E93B791] [C4608F0A]
17 99,4 [AE4BC45F] [C065EC83]
18 99,4 [060060B5] [DD1B4962]
19 74,1 [9998359D] [A37520B8]
20 99,4 [D056CC37] [D89159C2]
21 99,4 [08DAF7FF] [4F19134F]
22 99,4 [141F3CC7] [809A4B9C]
23 84,6 [5825BC82] [D23F1FA1]
24 92,7 [43403767] [EE530DAD]

T. Rex - Tanx And Zinc Alloy (2014) [4CD + DVD Super Deluxe Box Set]

Tracklist CD3 - Zinc Alloy [Remaster 2014]:

01 Venus Loon
02 Sound Pit
03 Explosive Mouth
04 Galaxy
05 Change
06 Nameless Wildness
07 Teenage Dream
08 Liquid Gang
09 Carsmile Smith And The Old One
10 You’ve Got To Jive To Stay Alive - Spanish Midnight
11 Interstellar Soul
12 Painless Persuasion v. The Meathawk Immaculate
13 The Avengers (Superbad)
14 The Leopards Featuring Gardenia And The Mighty Slug

Exact Audio Copy V1.0 beta 3 from 29. August 2011

EAC extraction logfile from 6. November 2014, 12:10

T. Rex / Tanx And Zinc Alloy CD3

Used drive : PLEXTOR BD-R PX-B950SA Adapter: 6 ID: 0

Read mode : Secure
Utilize accurate stream : Yes
Defeat audio cache : Yes
Make use of C2 pointers : No

Read offset correction : 6
Overread into Lead-In and Lead-Out : No
Fill up missing offset samples with silence : Yes
Delete leading and trailing silent blocks : No
Null samples used in CRC calculations : Yes
Used interface : Native Win32 interface for Win NT & 2000

Used output format : Internal WAV Routines
Sample format : 44.100 Hz; 16 Bit; Stereo


TOC of the extracted CD

Track | Start | Length | Start sector | End sector
––––––––––––––––––––––––––––-
1 | 0:00.00 | 3:02.68 | 0 | 13717
2 | 3:02.68 | 2:51.12 | 13718 | 26554
3 | 5:54.05 | 2:26.72 | 26555 | 37576
4 | 8:21.02 | 1:49.57 | 37577 | 45808
5 | 10:10.59 | 2:49.36 | 45809 | 58519
6 | 13:00.20 | 3:06.43 | 58520 | 72512
7 | 16:06.63 | 5:48.46 | 72513 | 98658
8 | 21:55.34 | 3:18.73 | 98659 | 113581
9 | 25:14.32 | 3:17.12 | 113582 | 128368
10 | 28:31.44 | 2:37.62 | 128369 | 140205
11 | 31:09.31 | 3:27.53 | 140206 | 155783
12 | 34:37.09 | 3:28.20 | 155784 | 171403
13 | 38:05.29 | 4:31.35 | 171404 | 191763
14 | 42:36.64 | 3:39.27 | 191764 | 208215


Range status and errors

Selected range

Filename C:\Users\Meijin\Desktop\ALLexxess\T. Rex\2014 Tanx And Zinc Alloy (4CD + DVD Box Set Edsel Records)\CD3 Zinc Alloy\T. Rex - Tanx And Zinc Alloy CD3.wav

Peak level 99.4 %
Extraction speed 7.0 X
Range quality 100.0 %
Test CRC 80BBFCB5
Copy CRC 80BBFCB5
Copy OK

No errors occurred


AccurateRip summary

Track 1 accurately ripped (confidence 1) [071DC109] (AR v2)
Track 2 accurately ripped (confidence 1) [12682F37] (AR v2)
Track 3 accurately ripped (confidence 1) [A6AC3D99] (AR v2)
Track 4 accurately ripped (confidence 1) [7F29F3FD] (AR v2)
Track 5 accurately ripped (confidence 1) [84D1A1D6] (AR v2)
Track 6 accurately ripped (confidence 1) [E1095E76] (AR v2)
Track 7 accurately ripped (confidence 1) [C96D8068] (AR v2)
Track 8 accurately ripped (confidence 1) [A019E38A] (AR v2)
Track 9 accurately ripped (confidence 1) [885765C5] (AR v2)
Track 10 accurately ripped (confidence 1) [97399F73] (AR v2)
Track 11 accurately ripped (confidence 1) [53FB52B8] (AR v2)
Track 12 accurately ripped (confidence 1) [4935CF4C] (AR v2)
Track 13 accurately ripped (confidence 1) [0DD21770] (AR v2)
Track 14 accurately ripped (confidence 1) [68A56628] (AR v2)

All tracks accurately ripped

End of status report

foobar2000 1.2.9 / Dynamic Range Meter 1.1.1
log date: 2014-11-07 15:19:25

––––––––––––––––––––––––––––––––––––––––
Analyzed: T. Rex / Tanx And Zinc Alloy CD3
––––––––––––––––––––––––––––––––––––––––

DR Peak RMS Duration Track
––––––––––––––––––––––––––––––––––––––––
DR10 -0.33 dB -10.88 dB 3:03 01-Venus Loon
DR9 -0.19 dB -10.82 dB 2:51 02-Sound Pit
DR11 -0.23 dB -13.04 dB 2:27 03-Explosive Mouth
DR10 -0.25 dB -11.85 dB 1:50 04-Galaxy
DR10 -0.09 dB -12.43 dB 2:49 05-Change
DR9 -0.05 dB -10.91 dB 3:07 06-Nameless Wilderness
DR9 -0.11 dB -10.77 dB 5:49 07-Teenage Dream
DR9 -0.18 dB -10.88 dB 3:19 08-Liquid Gang
DR10 -0.24 dB -11.70 dB 3:17 09-Carsmile Smith And The Old One
DR11 -0.10 dB -13.68 dB 2:38 10-You Got To Jive To Stay Alive - Spanish Midnight
DR10 -0.09 dB -11.31 dB 3:28 11-Interstellar Soul
DR10 -0.12 dB -11.40 dB 3:28 12-Painless Persuasion v. The Meathawk Immaculate
DR11 -0.20 dB -12.67 dB 4:31 13-The Avengers (Superbad)
DR10 -0.05 dB -12.11 dB 3:39 14-The Leopards Featuring Gardenia And The Mighty Slug
––––––––––––––––––––––––––––––––––––––––

Number of tracks: 14
Official DR value: DR10

Samplerate: 44100 Hz
Channels: 2
Bits per sample: 16
Bitrate: 969 kbps
Codec: FLAC

[CUETools log; Date: 07.11.2014 16:55:35; Version: 2.1.4]
[CTDB TOCID: 2in3UTXI1FelHn.ImGLF.XiSpjo-] found.
Track | CTDB Status
1 | (1/1) Accurately ripped
2 | (1/1) Accurately ripped
3 | (1/1) Accurately ripped
4 | (1/1) Accurately ripped
5 | (1/1) Accurately ripped
6 | (1/1) Accurately ripped
7 | (1/1) Accurately ripped
8 | (1/1) Accurately ripped
9 | (1/1) Accurately ripped
10 | (1/1) Accurately ripped
11 | (1/1) Accurately ripped
12 | (1/1) Accurately ripped
13 | (1/1) Accurately ripped
14 | (1/1) Accurately ripped
[AccurateRip ID: 00165194-00f26f64-c50ad80e] found.
Track [ CRC | V2 ] Status
01 [fdb3ce55|071dc109] (0+1/1) Accurately ripped
02 [d80cc7d4|12682f37] (0+1/1) Accurately ripped
03 [27f9aa5b|a6ac3d99] (0+1/1) Accurately ripped
04 [b61e0ed8|7f29f3fd] (0+1/1) Accurately ripped
05 [d8dc91e9|84d1a1d6] (0+1/1) Accurately ripped
06 [fec48e8b|e1095e76] (0+1/1) Accurately ripped
07 [c63c21a8|c96d8068] (0+1/1) Accurately ripped
08 [cd8382d0|a019e38a] (0+1/1) Accurately ripped
09 [e8ae583c|885765c5] (0+1/1) Accurately ripped
10 [9ef3797e|97399f73] (0+1/1) Accurately ripped
11 [1401f548|53fb52b8] (0+1/1) Accurately ripped
12 [5ac5730f|4935cf4c] (0+1/1) Accurately ripped
13 [444c1e39|0dd21770] (0+1/1) Accurately ripped
14 [461fdfa3|68a56628] (0+1/1) Accurately ripped

Track Peak [ CRC32 ] [W/O NULL] [ LOG ]
– 99,4 [80BBFCB5] [1E61B4FC] CRC32
01 96,2 [F415B26B] [FC45501D]
02 97,8 [1CEA8A1F] [52E69DB3]
03 97,4 [AC1FC02D] [334A32F1]
04 97,1 [53564997] [CACF94B6]
05 98,9 [38B8C44E] [CEED61E6]
06 99,4 [B71667BD] [C02E0F86]
07 98,7 [D271FA05] [A7E99586]
08 97,9 [2640702A] [80808C1F]
09 97,3 [B7576374] [B5AD82CC]
10 98,8 [3CF912C2] [32BEEAF6]
11 98,9 [C3FF4F00] [2992BCB8]
12 98,6 [0D0A4795] [9C5B6713]
13 97,7 [4CE897E3] [89E61A4E]
14 99,4 [6BB0BCC7] [F5AF9D80]

T. Rex - Tanx And Zinc Alloy (2014) [4CD + DVD Super Deluxe Box Set]

Tracklist CD4 - Zinc Alloy Period A And B Sides:

01 The Groover
02 Midnight
03 Truck On (Tyke)
04 Sitting Here
05 Satisfaction Pony

Big Garrot Single:
06 Black Jack
07 Squint Eye Mangle

Demos And Outtakes:
08 Geraldine & The Mighty Slug
09 Change (Solo Electric)
10 Avengers Superbad (Solo Electric)
11 Galaxy
12 Carsmile Smith & The Old One
13 Spanish Midnight
14 Sitting There / Here
15 Look To Your Soul
16 The Leopards Featuring Gardenia And The Mighty Slug
17 Groover (Solo Acoustic)
18 Truck On (Solo Acoustic with Gloria Jones)
19 Saturday Night
20 Dance In The Midnight
21 Down Home Lady
22 Saturation Syncopation
23 Delanie
24 All My Love
25 Hope You Enjoy The Show
26 Saturday Night (Alternate Version)
27 Interview (Radio January 1974)

Exact Audio Copy V1.0 beta 3 from 29. August 2011

EAC extraction logfile from 6. November 2014, 11:35

T. Rex / Tanx And Zinc Alloy CD4

Used drive : PLEXTOR BD-R PX-B950SA Adapter: 6 ID: 0

Read mode : Secure
Utilize accurate stream : Yes
Defeat audio cache : Yes
Make use of C2 pointers : No

Read offset correction : 6
Overread into Lead-In and Lead-Out : No
Fill up missing offset samples with silence : Yes
Delete leading and trailing silent blocks : No
Null samples used in CRC calculations : Yes
Used interface : Native Win32 interface for Win NT & 2000

Used output format : Internal WAV Routines
Sample format : 44.100 Hz; 16 Bit; Stereo


TOC of the extracted CD

Track | Start | Length | Start sector | End sector
––––––––––––––––––––––––––––-
1 | 0:00.00 | 3:24.44 | 0 | 15343
2 | 3:24.44 | 2:48.47 | 15344 | 27990
3 | 6:13.16 | 3:08.45 | 27991 | 42135
4 | 9:21.61 | 2:20.61 | 42136 | 52696
5 | 11:42.47 | 2:49.00 | 52697 | 65371
6 | 14:31.47 | 3:07.18 | 65372 | 79414
7 | 17:38.65 | 3:23.15 | 79415 | 94654
8 | 21:02.05 | 1:12.12 | 94655 | 100066
9 | 22:14.17 | 3:45.52 | 100067 | 116993
10 | 25:59.69 | 2:49.46 | 116994 | 129714
11 | 28:49.40 | 1:04.20 | 129715 | 134534
12 | 29:53.60 | 3:20.42 | 134535 | 149576
13 | 33:14.27 | 0:38.52 | 149577 | 152478
14 | 33:53.04 | 2:01.50 | 152479 | 161603
15 | 35:54.54 | 1:56.08 | 161604 | 170311
16 | 37:50.62 | 2:16.30 | 170312 | 180541
17 | 40:07.17 | 3:25.48 | 180542 | 195964
18 | 43:32.65 | 1:40.22 | 195965 | 203486
19 | 45:13.12 | 1:53.04 | 203487 | 211965
20 | 47:06.16 | 2:06.27 | 211966 | 221442
21 | 49:12.43 | 1:39.17 | 221443 | 228884
22 | 50:51.60 | 3:23.26 | 228885 | 244135
23 | 54:15.11 | 2:08.14 | 244136 | 253749
24 | 56:23.25 | 2:26.34 | 253750 | 264733
25 | 58:49.59 | 3:05.30 | 264734 | 278638
26 | 61:55.14 | 3:36.51 | 278639 | 294889
27 | 65:31.65 | 0:33.36 | 294890 | 297400


Range status and errors

Selected range

Filename C:\Users\Meijin\Desktop\ALLexxess\T. Rex\2014 Tanx And Zinc Alloy (4CD + DVD Box Set Edsel Records)\CD4 Zinc Alloy Period A And B Sides\T. Rex - Tanx And Zinc Alloy CD4.wav

Peak level 99.4 %
Extraction speed 7.7 X
Range quality 100.0 %
Test CRC 27BE3B16
Copy CRC 27BE3B16
Copy OK

No errors occurred


AccurateRip summary

Track 1 accurately ripped (confidence 1) [6EE1765D] (AR v2)
Track 2 accurately ripped (confidence 1) [C27F7247] (AR v2)
Track 3 accurately ripped (confidence 1) [834BE74A] (AR v2)
Track 4 accurately ripped (confidence 1) [19AA6ED7] (AR v2)
Track 5 accurately ripped (confidence 1) [66224BEB] (AR v2)
Track 6 accurately ripped (confidence 1) [D833E277] (AR v2)
Track 7 accurately ripped (confidence 1) [0CE3F72B] (AR v2)
Track 8 accurately ripped (confidence 1) [DB1F0E2E] (AR v2)
Track 9 accurately ripped (confidence 1) [34F43DBD] (AR v2)
Track 10 accurately ripped (confidence 1) [3A72676D] (AR v2)
Track 11 accurately ripped (confidence 1) [915E14EF] (AR v2)
Track 12 accurately ripped (confidence 1) [03EF3BF3] (AR v2)
Track 13 accurately ripped (confidence 1) [C66EAFCB] (AR v2)
Track 14 accurately ripped (confidence 1) [6979C4AE] (AR v2)
Track 15 accurately ripped (confidence 1) [65D560F7] (AR v2)
Track 16 accurately ripped (confidence 1) [2B1E3CAC] (AR v2)
Track 17 accurately ripped (confidence 1) [751148FE] (AR v2)
Track 18 accurately ripped (confidence 1) [EE28C378] (AR v2)
Track 19 accurately ripped (confidence 1) [5635FBB5] (AR v2)
Track 20 accurately ripped (confidence 1) [5ACE9422] (AR v2)
Track 21 accurately ripped (confidence 1) [6B584251] (AR v2)
Track 22 accurately ripped (confidence 1) [9900C7DB] (AR v2)
Track 23 accurately ripped (confidence 1) [92DE3B42] (AR v2)
Track 24 accurately ripped (confidence 1) [E664A6CC] (AR v2)
Track 25 accurately ripped (confidence 1) [053B007E] (AR v2)
Track 26 accurately ripped (confidence 1) [B31A7F84] (AR v2)
Track 27 accurately ripped (confidence 1) [A4E37362] (AR v2)

All tracks accurately ripped

End of status report

foobar2000 1.2.9 / Dynamic Range Meter 1.1.1
log date: 2014-11-07 15:19:07

––––––––––––––––––––––––––––––––––––––––
Analyzed: T. Rex / Tanx And Zinc Alloy CD4
––––––––––––––––––––––––––––––––––––––––

DR Peak RMS Duration Track
––––––––––––––––––––––––––––––––––––––––
DR9 -0.14 dB -9.76 dB 3:25 01-The Groover
DR9 -0.27 dB -10.78 dB 2:49 02-Midnight
DR11 -0.25 dB -11.93 dB 3:09 03-Truck On (Tyke)
DR10 -0.39 dB -11.64 dB 2:21 04-Sitting Here
DR8 -0.83 dB -9.63 dB 2:49 05-Satisfaction Pony
DR8 -1.20 dB -10.83 dB 3:07 06-Black Jack / Big Garrot Single
DR9 -0.05 dB -10.34 dB 3:23 07-Squint Eye Mangle / Big Garrot Single
DR11 -0.05 dB -12.94 dB 1:12 08-Geraldine & The Mighty Slug / Demos And Outtakes
DR8 -0.05 dB -9.75 dB 3:46 09-Change (Solo Electric) / Demos And Outtakes
DR11 -0.68 dB -13.26 dB 2:50 10-Avengers Superbad (Solo Electric) / Demos And Outtakes
DR9 -0.05 dB -11.84 dB 1:04 11-Galaxy / Demos And Outtakes
DR7 -0.05 dB -11.11 dB 3:21 12-Carsmile Smith & The Old One / Demos And Outtakes
DR10 -0.19 dB -14.15 dB 0:39 13-Spanish Midnight / Demos And Outtakes
DR9 -0.09 dB -11.99 dB 2:02 14-Sitting There / Here - Demos And Outtakes
DR9 -0.45 dB -10.97 dB 1:56 15-Look To Your Soul / Demos And Outtakes
DR12 -0.05 dB -13.72 dB 2:16 16-The Leopards Featuring Gardenia And The Mighty Slug / Demos And Outtakes
DR8 -0.21 dB -10.25 dB 3:26 17-Groover (Solo Acoustic) / Demos And Outtakes
DR11 -0.31 dB -13.76 dB 1:40 18-Truck On (Solo Acoustic with Gloria Jones) / Demos And Outtakes
DR8 -0.05 dB -9.79 dB 1:53 19-Saturday Night / Demos And Outtakes
DR12 -0.36 dB -14.15 dB 2:06 20-Dance In The Midnight / Demos And Outtakes
DR11 -0.05 dB -11.97 dB 1:39 21-Down Home Lady / Demos And Outtakes
DR10 -0.05 dB -11.22 dB 3:23 22-Saturation Syncopation / Demos And Outtakes
DR9 -0.05 dB -11.03 dB 2:08 23-Delanie / Demos And Outtakes
DR10 -0.05 dB -12.28 dB 2:26 24-All My Love / Demos And Outtakes
DR9 -0.05 dB -11.37 dB 3:05 25-Hope You Enjoy The Show / Demos And Outtakes
DR11 -0.05 dB -12.32 dB 3:37 26-Saturday Night (Alternate Version) / Demos And Outtakes
DR10 -1.25 dB -15.09 dB 0:33 27-Interview (Radio January 1974) / Demos And Outtakes
––––––––––––––––––––––––––––––––––––––––

Number of tracks: 27
Official DR value: DR9

Samplerate: 44100 Hz
Channels: 2
Bits per sample: 16
Bitrate: 793 kbps
Codec: FLAC

[CUETools log; Date: 07.11.2014 16:55:46; Version: 2.1.4]
[CTDB TOCID: 1WHQ9vpmFEVxzAd1Nir6IirId80-] found.
Track | CTDB Status
1 | (1/1) Accurately ripped
2 | (1/1) Accurately ripped
3 | (1/1) Accurately ripped
4 | (1/1) Accurately ripped
5 | (1/1) Accurately ripped
6 | (1/1) Accurately ripped
7 | (1/1) Accurately ripped
8 | (1/1) Accurately ripped
9 | (1/1) Accurately ripped
10 | (1/1) Accurately ripped
11 | (1/1) Accurately ripped
12 | (1/1) Accurately ripped
13 | (1/1) Accurately ripped
14 | (1/1) Accurately ripped
15 | (1/1) Accurately ripped
16 | (1/1) Accurately ripped
17 | (1/1) Accurately ripped
18 | (1/1) Accurately ripped
19 | (1/1) Accurately ripped
20 | (1/1) Accurately ripped
21 | (1/1) Accurately ripped
22 | (1/1) Accurately ripped
23 | (1/1) Accurately ripped
24 | (1/1) Accurately ripped
25 | (1/1) Accurately ripped
26 | (1/1) Accurately ripped
27 | (1/1) Accurately ripped
[AccurateRip ID: 0042a95b-04efffbb-850f7d1b] found.
Track [ CRC | V2 ] Status
01 [c5a9aced|6ee1765d] (0+1/1) Accurately ripped
02 [79847f35|c27f7247] (0+1/1) Accurately ripped
03 [14073a63|834be74a] (0+1/1) Accurately ripped
04 [bae80fef|19aa6ed7] (0+1/1) Accurately ripped
05 [5213dd36|66224beb] (0+1/1) Accurately ripped
06 [e23b8ff3|d833e277] (0+1/1) Accurately ripped
07 [53c57abf|0ce3f72b] (0+1/1) Accurately ripped
08 [b6c8ae31|db1f0e2e] (0+1/1) Accurately ripped
09 [098a27bd|34f43dbd] (0+1/1) Accurately ripped
10 [d37f04b4|3a72676d] (0+1/1) Accurately ripped
11 [c16796f8|915e14ef] (0+1/1) Accurately ripped
12 [cc6f82cf|03ef3bf3] (0+1/1) Accurately ripped
13 [7eaaea13|c66eafcb] (0+1/1) Accurately ripped
14 [be2e392b|6979c4ae] (0+1/1) Accurately ripped
15 [79cb4ec3|65d560f7] (0+1/1) Accurately ripped
16 [796e070d|2b1e3cac] (0+1/1) Accurately ripped
17 [813c8314|751148fe] (0+1/1) Accurately ripped
18 [8e93a269|ee28c378] (0+1/1) Accurately ripped
19 [e25a436f|5635fbb5] (0+1/1) Accurately ripped
20 [6b81fa49|5ace9422] (0+1/1) Accurately ripped
21 [79bd45f4|6b584251] (0+1/1) Accurately ripped
22 [40ad773c|9900c7db] (0+1/1) Accurately ripped
23 [26684f47|92de3b42] (0+1/1) Accurately ripped
24 [58a89708|e664a6cc] (0+1/1) Accurately ripped
25 [8d945455|053b007e] (0+1/1) Accurately ripped
26 [d26e8c62|b31a7f84] (0+1/1) Accurately ripped
27 [7a3ff05b|a4e37362] (0+1/1) Accurately ripped

Track Peak [ CRC32 ] [W/O NULL] [ LOG ]
– 99,4 [27BE3B16] [85861AC4] CRC32
01 98,4 [191B8DEA] [423D7490]
02 96,9 [61A88F4A] [FF2A9F83]
03 97,1 [16149D88] [7649D922]
04 95,5 [86171FF0] [5A32CE95]
05 90,8 [7E44AE6C] [34F9F3F9]
06 87,0 [192BAEEF] [0540AE16]
07 99,4 [0F2464C0] [B57DBA65]
08 99,4 [21E77EE9] [55560E48]
09 99,4 [17A77DE1] [9EC06852]
10 92,4 [93CF1ED6] [64044B49]
11 99,4 [5DE63621] [3200863E]
12 99,4 [4BCFC11B] [D1108C3B]
13 97,8 [39607CA1] [4F2ED05F]
14 98,9 [2A40D111] [52B2810C]
15 94,9 [DAA0CFC1] [32753BEE]
16 99,4 [3B2A479D] [178FF459]
17 97,6 [BC9A9583] [FB319FDF]
18 96,4 [D3844C96] [BA20C4A2]
19 99,4 [C051E7A1] [F973A92D]
20 95,9 [098E1F5D] [05D5F91D]
21 99,4 [DF91EA36] [98413CF3]
22 99,4 [A2FBA5C3] [41A0AC1B]
23 99,4 [25D09777] [B590DE6F]
24 99,4 [198B5305] [BBACBCD4]
25 99,4 [FAD28158] [CE5FC3EF]
26 99,4 [68A8B3E5] [536E0CBB]
27 86,5 [6CDBD47D] [2A02D8B1]

T. Rex - Tanx And Zinc Alloy (2014) [4CD + DVD Super Deluxe Box Set]

Tracklist DVD - TV Perfomances And Promo Films:

01 Children Of The Revolution (Top Of The Pops)
02 Solid Gold easy Action (Top Of The Pops)
03 Mad Donna (Cilla Black Show)
04 The Groover (Promo Film)
05 Teenage Dream (Top Of The Pops)

Bonus Track
06 Children Of The Revolution (Promo Film)

Title:
Size: 1.81 Gb ( 1 896 550,00 KBytes ) - DVD-5
Enabled regions: 1, 2, 3, 4, 5, 6, 7, 8

VTS_01 :
Play Length: 00:00:00+00:00:00+00:00:00+00:02:29+00:02:03+00:02:20+00:03:10+00:05:02+00:02:27+00:00:00+{00:00:00}+{00:00:00}+{00:00:00}+{00:00:00}+{00:00:00}
Video: NTSC 4:3 (720x480) VBR
Audio:
English (Dolby AC3, 2 ch)

VTS_02 :
Play Length: 00:00:27
Video: NTSC 16:9 (720x480) VBR, Auto Letterboxed
Audio:
English (Dolby AC3, 2 ch)

VTS_03 :
Play Length: 00:17:31+00:00:00
Video: NTSC 4:3 (720x480) VBR
Audio:
English (Dolby AC3, 2 ch)

* Menus Information *

VIDEO_TS Menu
Video:
NTSC 16:9 (720x480) VBR
Auto Letterboxed
English Language Unit :
Title Menu

VTS_01 Menu
Video:
NTSC 16:9 (720x480) VBR
Auto Letterboxed
English Language Unit :
Root Menu

VTS_02 Menu
Video:
NTSC 16:9 (720x480) VBR
Auto Letterboxed
English Language Unit :
Root Menu

VTS_03 Menu
Video:
NTSC 16:9 (720x480) VBR
Auto Letterboxed
English Language Unit :
Root Menu

T. Rex - Tanx And Zinc Alloy (2014) [4CD + DVD Super Deluxe Box Set]

T. Rex - Tanx And Zinc Alloy (2014) [4CD + DVD Super Deluxe Box Set]

T. Rex - Tanx And Zinc Alloy (2014) [4CD + DVD Super Deluxe Box Set]

T. Rex - Tanx And Zinc Alloy (2014) [4CD + DVD Super Deluxe Box Set]

T. Rex - Tanx And Zinc Alloy (2014) [4CD + DVD Super Deluxe Box Set]

All thanks go to ALLexxess