Subcategories

Tom Scott with The California Dreamers - The Honeysuckle Breeze (1967) {1998 Impulse Japan} **[RE-UP]**

Posted By: TestTickles
Tom Scott with The California Dreamers - The Honeysuckle Breeze (1967) {1998 Impulse Japan} **[RE-UP]**

Tom Scott with The California Dreamers - The Honeysuckle Breeze (1967) {1998 Impulse Japan}
EAC Rip | FLAC with CUE and log | no scans | 231 mb
MP3 CBR 320kbps | RAR | 67 mb
Genre: jazz, pop

The Honeysuckle Breeze was the debut album by saxophonist Tom Scott. The California Dreams were a vocal group who contributed their singing and harmonies. Scott brought in musicians like Mike Melvoin, Carol Kaye, Max Bennett, Lincoln Mayorga, Glen Campbell, Jimmy Gordon and others to this session. Some of the same set of musicians, including Scott, would also play on Gabor Szabo's album Wind, Sky And Diamonds, also featuring The California Dreamers and also released on Impulse, also in 1967. The Honeysuckle Breeze is celebrated in hip-hop circles for Scott's cover of Jefferson Airplane's "Today", which was sampled in the celebrated song by Pete Rock & CL Smooth, "They Reminisce Over You (T.R.O.Y.)", but the album shows a side of Scott that he would abandon eight years later as his music retained funkiness but started to become lightweight. The Honeysuckle Breeze also features covers of The Beatles' "She's Leaving Home", Donovan's "Mellow Yellow", and The Association's "Never My Love". Scott contributes one original song to the album, "Blues For Hari".

NOTE: This was a library disc, so scans of the booklet and CD are unavailable.

1. The Honeysuckle Breeze
2. Never My Love
3. She's Leaving Home
4. Naima
5. Mellow Yellow
6. Baby I Love You
7. Today
8. North
9. Blues For Hari
10. Deliver Me

EAC extraction logfile from 11. June 2007, 21:19 for CD
Tom Scott / The Honeysuckle Breeze

Used drive : SONY DVD RW DRU-510A Adapter: 1 ID: 0
Read mode : Secure with NO C2, accurate stream, disable cache
Read offset correction : 120
Overread into Lead-In and Lead-Out : No

Used output format : C:\Program Files\Exact Audio Copy\flac.exe (User Defined Encoder)
320 kBit/s
Additional command line options : -V -8 -T "artist=%a" -T "title=%t" -T "album=%g" -T "date=%y" -T "tracknumber=%n" -T "genre=%m" %s

Other options :
Fill up missing offset samples with silence : Yes
Delete leading and trailing silent blocks : No
Installed external ASPI interface


Track 1
Filename C:\FLAC\Tom Scott with The California Dreamers - The Honeysuckle Breeze (1967) [FLAC] {1998 Impulse Japan}\01 - Tom Scott - The Honeysuckle Breeze.wav

Pre-gap length 0:00:02.49

Peak level 93.9 %
Track quality 100.0 %
Test CRC 13D45C5F
Copy CRC 13D45C5F
Copy OK

Track 2
Filename C:\FLAC\Tom Scott with The California Dreamers - The Honeysuckle Breeze (1967) [FLAC] {1998 Impulse Japan}\02 - Tom Scott - Never My Love.wav

Pre-gap length 0:00:01.45

Peak level 93.9 %
Track quality 100.0 %
Test CRC 760129E7
Copy CRC 760129E7
Copy OK

Track 3
Filename C:\FLAC\Tom Scott with The California Dreamers - The Honeysuckle Breeze (1967) [FLAC] {1998 Impulse Japan}\03 - Tom Scott - She's Leaving Home.wav

Pre-gap length 0:00:01.52

Peak level 93.9 %
Track quality 100.0 %
Test CRC 5E77DC4F
Copy CRC 5E77DC4F
Copy OK

Track 4
Filename C:\FLAC\Tom Scott with The California Dreamers - The Honeysuckle Breeze (1967) [FLAC] {1998 Impulse Japan}\04 - Tom Scott - Naima.wav

Pre-gap length 0:00:01.78

Peak level 85.4 %
Track quality 99.9 %
Test CRC 8CA142EC
Copy CRC 8CA142EC
Copy OK

Track 5
Filename C:\FLAC\Tom Scott with The California Dreamers - The Honeysuckle Breeze (1967) [FLAC] {1998 Impulse Japan}\05 - Tom Scott - Mellow Yellow.wav

Pre-gap length 0:00:02.34

Peak level 94.0 %
Track quality 100.0 %
Test CRC A1C9D843
Copy CRC A1C9D843
Copy OK

Track 6
Filename C:\FLAC\Tom Scott with The California Dreamers - The Honeysuckle Breeze (1967) [FLAC] {1998 Impulse Japan}\06 - Tom Scott - Baby, I Love You.wav

Pre-gap length 0:00:01.78

Peak level 93.9 %
Track quality 100.0 %
Test CRC 930C97BE
Copy CRC 930C97BE
Copy OK

Track 7
Filename C:\FLAC\Tom Scott with The California Dreamers - The Honeysuckle Breeze (1967) [FLAC] {1998 Impulse Japan}\07 - Tom Scott - Today.wav

Pre-gap length 0:00:01.72

Peak level 93.9 %
Track quality 100.0 %
Test CRC C799BE22
Copy CRC C799BE22
Copy OK

Track 8
Filename C:\FLAC\Tom Scott with The California Dreamers - The Honeysuckle Breeze (1967) [FLAC] {1998 Impulse Japan}\08 - Tom Scott - North.wav

Pre-gap length 0:00:01.78

Peak level 93.9 %
Track quality 100.0 %
Test CRC 4A1F6FCF
Copy CRC 4A1F6FCF
Copy OK

Track 9
Filename C:\FLAC\Tom Scott with The California Dreamers - The Honeysuckle Breeze (1967) [FLAC] {1998 Impulse Japan}\09 - Tom Scott - Blues For Hari.wav

Pre-gap length 0:00:01.78

Peak level 93.9 %
Track quality 100.0 %
Test CRC 50155CDD
Copy CRC 50155CDD
Copy OK

Track 10
Filename C:\FLAC\Tom Scott with The California Dreamers - The Honeysuckle Breeze (1967) [FLAC] {1998 Impulse Japan}\10 - Tom Scott - Deliver Me.wav

Pre-gap length 0:00:01.88

Peak level 94.0 %
Track quality 100.0 %
Test CRC 8B426B67
Copy CRC 8B426B67
Copy OK

No errors occured


End of status report


Tom Scott with The California Dreamers - The Honeysuckle Breeze (1967) {1998 Impulse Japan} **[RE-UP]**